osu file format v14

[General]
AudioFilename: audio.mp3
AudioLeadIn: 0
PreviewTime: 187061
Countdown: 0
SampleSet: Normal
StackLeniency: 0.7
Mode: 1
LetterboxInBreaks: 0
WidescreenStoryboard: 0

[Editor]
Bookmarks: 12246,35950,71506,95209,107061,121876,142617,166320,190024,213728
DistanceSpacing: 0.9
BeatDivisor: 4
GridSize: 32
TimelineZoom: 2.4

[Metadata]
Title:anticrystal
TitleUnicode:anticrystal
Artist:sakuraburst
ArtistUnicode:sakuraburst
Creator:Marm
Version:Amorphous
Source:osu!
Tags:Cynplytholowazy -GN Junior featured artist fa mappers' guild mg EP experimental Instrumental Electronic Cynp-zy
BeatmapID:2204826
BeatmapSetID:1055189

[Difficulty]
HPDrainRate:5
CircleSize:5
OverallDifficulty:6
ApproachRate:0
SliderMultiplier:1.4
SliderTickRate:1

[Events]
//Background and Video events
0,0,"soap-bubble-1986657_1920.jpg",0,60
//Break Periods
2,166520,185261
//Storyboard Layer 0 (Background)
//Storyboard Layer 1 (Fail)
//Storyboard Layer 2 (Pass)
//Storyboard Layer 3 (Foreground)
//Storyboard Layer 4 (Overlay)
//Storyboard Sound Samples

[TimingPoints]
395,370.37037037037,4,1,0,50,1,0
35904,-100,4,1,0,85,0,0
47200,-100,4,1,0,100,0,0
47802,-100,4,1,0,100,0,1
71506,-166.666666666667,4,1,0,100,0,0
72200,-166.666666666667,4,1,0,50,0,0
83311,-142.857142857143,4,1,0,60,0,0
84006,-140.845070422535,4,1,0,60,0,0
84376,-138.888888888889,4,1,0,60,0,0
85117,-136.986301369863,4,1,0,60,0,0
85487,-135.135135135135,4,1,0,60,0,0
86228,-131.578947368421,4,1,0,60,0,0
86969,-129.87012987013,4,1,0,60,0,0
87339,-128.205128205128,4,1,0,60,0,0
88080,-126.582278481013,4,1,0,60,0,0
88450,-125,4,1,0,60,0,0
89191,-121.951219512195,4,1,0,60,0,0
89932,-120.481927710843,4,1,0,60,0,0
90302,-119.047619047619,4,1,0,60,0,0
91043,-117.647058823529,4,1,0,60,0,0
91413,-116.279069767442,4,1,0,60,0,0
94422,-58.8235294117647,4,1,0,80,0,0
94793,-73.5294117647059,4,1,0,80,0,0
94885,-75.7575757575758,4,1,0,80,0,0
94978,-78.125,4,1,0,80,0,0
95070,-80.6451612903226,4,1,0,80,0,0
95163,-83.3333333333333,4,1,0,80,0,0
95209,-83.3333333333333,4,1,0,80,0,1
118172,-83.3333333333333,4,1,0,80,0,0
118913,-111.111111111111,4,1,0,80,0,0
119237,-117.647058823529,4,1,0,80,0,0
120904,-121.951219512195,4,1,0,80,0,0
121089,-126.582278481013,4,1,0,80,0,0
121459,-133.333333333333,4,1,0,80,0,0
121552,-135.135135135135,4,1,0,80,0,0
121691,-138.888888888889,4,1,0,80,0,1
121830,-142.857142857143,4,1,0,80,0,1
142200,-66.6666666666667,4,1,0,80,0,1
142246,-66.6666666666667,4,1,0,80,0,0
142570,-100,4,1,0,50,0,0
166274,-100,4,1,0,70,0,0
167802,-200,4,1,0,70,0,0
190024,-83.3333333333333,4,1,0,100,0,1
212246,-83.3333333333333,4,1,0,80,0,0
213728,-133.333333333333,4,1,0,80,0,0

[HitObjects]
256,192,12246,5,12,0:0:0:0:
256,192,12617,1,8,0:0:0:0:
256,192,12987,1,0,0:0:0:0:
256,192,13357,1,0,0:0:0:0:
256,192,15950,1,0,0:0:0:0:
256,192,16320,1,8,0:0:0:0:
256,192,16691,1,0,0:0:0:0:
256,192,17802,1,8,0:0:0:0:
256,192,18172,1,8,0:0:0:0:
256,192,18543,1,0,0:0:0:0:
256,192,18913,1,8,0:0:0:0:
256,192,20024,1,0,0:0:0:0:
256,192,20394,1,8,0:0:0:0:
256,192,21506,1,0,0:0:0:0:
256,192,21876,1,8,0:0:0:0:
256,192,22987,1,0,0:0:0:0:
256,192,23357,1,8,0:0:0:0:
256,192,24098,1,12,0:0:0:0:
256,192,24469,1,8,0:0:0:0:
256,192,24839,1,0,0:0:0:0:
256,192,25209,1,0,0:0:0:0:
256,192,25950,1,8,0:0:0:0:
256,192,26320,1,8,0:0:0:0:
256,192,26691,1,8,0:0:0:0:
256,192,28172,1,0,0:0:0:0:
256,192,28543,1,8,0:0:0:0:
256,192,29283,1,0,0:0:0:0:
256,192,29654,1,0,0:0:0:0:
256,192,30024,1,8,0:0:0:0:
256,192,30394,1,0,0:0:0:0:
256,192,30765,1,8,0:0:0:0:
256,192,31876,1,0,0:0:0:0:
256,192,32246,1,8,0:0:0:0:
256,192,33357,1,0,0:0:0:0:
256,192,33728,1,8,0:0:0:0:
256,192,34839,1,0,0:0:0:0:
256,192,35209,1,8,0:0:0:0:
256,192,35950,1,0,0:0:0:0:
256,192,36012,1,0,0:0:0:0:
256,192,36074,1,0,0:0:0:0:
256,192,36135,1,8,0:0:0:0:
256,192,36320,1,8,0:0:0:0:
256,192,36506,1,0,0:0:0:0:
256,192,36691,1,8,0:0:0:0:
256,192,37061,1,0,0:0:0:0:
256,192,37154,1,0,0:0:0:0:
256,192,37246,1,8,0:0:0:0:
256,192,37432,1,0,0:0:0:0:
256,192,37493,1,0,0:0:0:0:
256,192,37555,1,0,0:0:0:0:
256,192,37617,1,0,0:0:0:0:
256,192,37894,1,8,0:0:0:0:
256,192,37987,1,0,0:0:0:0:
256,192,38172,1,8,0:0:0:0:
256,192,38543,1,0,0:0:0:0:
256,192,38635,1,0,0:0:0:0:
256,192,38728,1,8,0:0:0:0:
256,192,38820,1,0,0:0:0:0:
256,192,38913,1,8,0:0:0:0:
256,192,38975,1,0,0:0:0:0:
256,192,39036,1,0,0:0:0:0:
256,192,39098,1,8,0:0:0:0:
256,192,39283,1,8,0:0:0:0:
256,192,39469,1,0,0:0:0:0:
256,192,39654,1,8,0:0:0:0:
256,192,39839,1,8,0:0:0:0:
256,192,40024,1,0,0:0:0:0:
256,192,40117,1,8,0:0:0:0:
256,192,40209,1,8,0:0:0:0:
256,192,40302,1,0,0:0:0:0:
256,192,40394,1,8,0:0:0:0:
256,192,40456,1,0,0:0:0:0:
256,192,40518,1,0,0:0:0:0:
256,192,40580,1,8,0:0:0:0:
256,192,40765,1,8,0:0:0:0:
256,192,40950,1,0,0:0:0:0:
256,192,41135,1,0,0:0:0:0:
256,192,41320,1,12,0:0:0:0:
256,192,41876,1,0,0:0:0:0:
256,192,41938,1,0,0:0:0:0:
256,192,41999,1,0,0:0:0:0:
256,192,42061,1,8,0:0:0:0:
256,192,42246,1,8,0:0:0:0:
256,192,42432,1,0,0:0:0:0:
256,192,42524,1,0,0:0:0:0:
256,192,42617,1,8,0:0:0:0:
256,192,42802,1,8,0:0:0:0:
256,192,42894,1,8,0:0:0:0:
256,192,42987,1,0,0:0:0:0:
256,192,43080,1,0,0:0:0:0:
256,192,43172,1,8,0:0:0:0:
256,192,43357,1,0,0:0:0:0:
256,192,43419,1,0,0:0:0:0:
256,192,43481,1,0,0:0:0:0:
256,192,43543,1,0,0:0:0:0:
256,192,43820,1,8,0:0:0:0:
256,192,43913,1,0,0:0:0:0:
256,192,44006,1,0,0:0:0:0:
256,192,44098,1,8,0:0:0:0:
256,192,44283,1,8,0:0:0:0:
256,192,44469,1,0,0:0:0:0:
256,192,44561,1,0,0:0:0:0:
256,192,44654,1,8,0:0:0:0:
256,192,44715,1,8,0:0:0:0:
256,192,44777,1,8,0:0:0:0:
256,192,44839,1,0,0:0:0:0:
256,192,44901,1,0,0:0:0:0:
256,192,44962,1,0,0:0:0:0:
256,192,45024,1,8,0:0:0:0:
256,192,45209,1,8,0:0:0:0:
256,192,45394,1,0,0:0:0:0:
256,192,45580,1,8,0:0:0:0:
256,192,45950,1,0,0:0:0:0:
256,192,46135,1,8,0:0:0:0:
256,192,46228,1,8,0:0:0:0:
256,192,46320,1,0,0:0:0:0:
256,192,46382,1,0,0:0:0:0:
256,192,46444,1,0,0:0:0:0:
256,192,46506,1,0,0:0:0:0:
256,192,46691,1,8,0:0:0:0:
256,192,46876,1,0,0:0:0:0:
256,192,46969,1,8,0:0:0:0:
256,192,47061,1,0,0:0:0:0:
256,192,47246,1,12,0:0:0:0:
256,192,47617,1,8,0:0:0:0:
256,192,47709,1,8,0:0:0:0:
256,192,47802,1,0,0:0:0:0:
256,192,47864,1,0,0:0:0:0:
256,192,47925,1,0,0:0:0:0:
256,192,47987,1,8,0:0:0:0:
256,192,48265,1,8,0:0:0:0:
256,192,48357,1,0,0:0:0:0:
256,192,48450,1,8,0:0:0:0:
256,192,48543,1,8,0:0:0:0:
256,192,48728,1,8,0:0:0:0:
256,192,48913,1,8,0:0:0:0:
256,192,49006,1,0,0:0:0:0:
256,192,49098,1,8,0:0:0:0:
256,192,49376,1,0,0:0:0:0:
256,192,49469,1,8,0:0:0:0:
256,192,49746,1,8,0:0:0:0:
256,192,49839,1,0,0:0:0:0:
256,192,49932,1,0,0:0:0:0:
256,192,50024,1,8,0:0:0:0:
256,192,50394,1,0,0:0:0:0:
256,192,50487,1,0,0:0:0:0:
256,192,50580,1,8,0:0:0:0:
256,192,50672,1,0,0:0:0:0:
256,192,50765,1,8,0:0:0:0:
256,192,50827,1,0,0:0:0:0:
256,192,50888,1,0,0:0:0:0:
256,192,50950,1,8,0:0:0:0:
256,192,51135,1,8,0:0:0:0:
256,192,51320,1,0,0:0:0:0:
256,192,51506,1,8,0:0:0:0:
256,192,51691,1,8,0:0:0:0:
256,192,51876,1,0,0:0:0:0:
256,192,51969,1,8,0:0:0:0:
256,192,52061,1,0,0:0:0:0:
256,192,52246,1,8,0:0:0:0:
256,192,52293,1,8,0:0:0:0:
256,192,52432,1,0,0:0:0:0:
256,192,52617,1,0,0:0:0:0:
256,192,52678,1,8,0:0:0:0:
256,192,52740,1,8,0:0:0:0:
256,192,52802,1,0,0:0:0:0:
256,192,52894,1,0,0:0:0:0:
256,192,52987,1,8,0:0:0:0:
256,192,53172,1,0,0:0:0:0:
256,192,53357,1,8,0:0:0:0:
256,192,53543,1,0,0:0:0:0:
256,192,53635,1,0,0:0:0:0:
256,192,53728,1,8,0:0:0:0:
256,192,53790,1,0,0:0:0:0:
256,192,53851,1,0,0:0:0:0:
256,192,53913,1,8,0:0:0:0:
256,192,54191,1,8,0:0:0:0:
256,192,54283,1,0,0:0:0:0:
256,192,54376,1,0,0:0:0:0:
256,192,54469,1,8,0:0:0:0:
256,192,54654,1,8,0:0:0:0:
256,192,54746,1,8,0:0:0:0:
256,192,54839,1,0,0:0:0:0:
256,192,54932,1,0,0:0:0:0:
256,192,55024,1,8,0:0:0:0:
256,192,55209,1,0,0:0:0:0:
256,192,55271,1,0,0:0:0:0:
256,192,55333,1,0,0:0:0:0:
256,192,55394,1,0,0:0:0:0:
256,192,55672,1,8,0:0:0:0:
256,192,55857,1,8,0:0:0:0:
256,192,55950,1,8,0:0:0:0:
256,192,56135,1,8,0:0:0:0:
256,192,56320,1,0,0:0:0:0:
256,192,56413,1,0,0:0:0:0:
256,192,56506,1,8,0:0:0:0:
256,192,56598,1,0,0:0:0:0:
256,192,56691,1,8,0:0:0:0:
256,192,56753,1,0,0:0:0:0:
256,192,56814,1,0,0:0:0:0:
256,192,56876,1,8,0:0:0:0:
256,192,57061,1,8,0:0:0:0:
256,192,57246,1,0,0:0:0:0:
256,192,57432,1,12,0:0:0:0:
256,192,57802,1,0,0:0:0:0:
256,192,57987,1,8,0:0:0:0:
256,192,58080,1,8,0:0:0:0:
256,192,58172,1,0,0:0:0:0:
256,192,58234,1,0,0:0:0:0:
256,192,58296,1,0,0:0:0:0:
256,192,58357,1,0,0:0:0:0:
256,192,58450,1,0,0:0:0:0:
256,192,58543,1,8,0:0:0:0:
256,192,58728,1,0,0:0:0:0:
256,192,58820,1,8,0:0:0:0:
256,192,58913,1,0,0:0:0:0:
256,192,59098,1,12,0:0:0:0:
256,192,59469,1,8,0:0:0:0:
256,192,59561,1,8,0:0:0:0:
256,192,59654,1,0,0:0:0:0:
256,192,59715,1,0,0:0:0:0:
256,192,59777,1,0,0:0:0:0:
256,192,59839,1,8,0:0:0:0:
256,192,60117,1,8,0:0:0:0:
256,192,60209,1,0,0:0:0:0:
256,192,60302,1,8,0:0:0:0:
256,192,60394,1,8,0:0:0:0:
256,192,60580,1,8,0:0:0:0:
256,192,60672,1,0,0:0:0:0:
256,192,60765,1,8,0:0:0:0:
256,192,60857,1,8,0:0:0:0:
256,192,60950,1,8,0:0:0:0:
256,192,61228,1,0,0:0:0:0:
256,192,61320,1,8,0:0:0:0:
256,192,61598,1,8,0:0:0:0:
256,192,61691,1,0,0:0:0:0:
256,192,61783,1,0,0:0:0:0:
256,192,61876,1,8,0:0:0:0:
256,192,62061,1,0,0:0:0:0:
256,192,62246,1,0,0:0:0:0:
256,192,62339,1,8,0:0:0:0:
256,192,62432,1,8,0:0:0:0:
256,192,62524,1,0,0:0:0:0:
256,192,62617,1,8,0:0:0:0:
256,192,62678,1,0,0:0:0:0:
256,192,62740,1,0,0:0:0:0:
256,192,62802,1,8,0:0:0:0:
256,192,62987,1,8,0:0:0:0:
256,192,63172,1,0,0:0:0:0:
256,192,63357,1,8,0:0:0:0:
256,192,63543,1,8,0:0:0:0:
256,192,63728,1,0,0:0:0:0:
256,192,63820,1,8,0:0:0:0:
256,192,63913,1,0,0:0:0:0:
256,192,64098,1,8,0:0:0:0:
256,192,64144,1,8,0:0:0:0:
256,192,64283,1,0,0:0:0:0:
256,192,64376,1,8,0:0:0:0:
256,192,64469,1,0,0:0:0:0:
256,192,64530,1,8,0:0:0:0:
256,192,64592,1,8,0:0:0:0:
256,192,64654,1,0,0:0:0:0:
256,192,64746,1,0,0:0:0:0:
256,192,64839,1,8,0:0:0:0:
256,192,65024,1,0,0:0:0:0:
256,192,65209,1,0,0:0:0:0:
256,192,65256,1,0,0:0:0:0:
256,192,65394,1,8,0:0:0:0:
256,192,65487,1,0,0:0:0:0:
256,192,65580,1,8,0:0:0:0:
256,192,65641,1,8,0:0:0:0:
256,192,65703,1,8,0:0:0:0:
256,192,65765,1,0,0:0:0:0:
256,192,66043,1,8,0:0:0:0:
256,192,66135,1,0,0:0:0:0:
256,192,66228,1,0,0:0:0:0:
256,192,66320,1,8,0:0:0:0:
256,192,66506,1,8,0:0:0:0:
256,192,66598,1,8,0:0:0:0:
256,192,66691,1,0,0:0:0:0:
256,192,66783,1,8,0:0:0:0:
256,192,66876,1,8,0:0:0:0:
256,192,66969,1,8,0:0:0:0:
256,192,67061,1,0,0:0:0:0:
256,192,67123,1,0,0:0:0:0:
256,192,67185,1,0,0:0:0:0:
256,192,67246,1,8,0:0:0:0:
256,192,67524,1,8,0:0:0:0:
256,192,67617,1,0,0:0:0:0:
256,192,67709,1,8,0:0:0:0:
256,192,67802,1,8,0:0:0:0:
256,192,67987,1,8,0:0:0:0:
256,192,68172,1,0,0:0:0:0:
256,192,68265,1,8,0:0:0:0:
256,192,68357,1,8,0:0:0:0:
256,192,68450,1,0,0:0:0:0:
256,192,68543,1,8,0:0:0:0:
256,192,68604,1,0,0:0:0:0:
256,192,68666,1,0,0:0:0:0:
256,192,68728,1,8,0:0:0:0:
256,192,68913,1,8,0:0:0:0:
256,192,69098,1,0,0:0:0:0:
256,192,69283,1,12,0:0:0:0:
256,192,69654,1,0,0:0:0:0:
256,192,69839,1,8,0:0:0:0:
256,192,70024,1,4,0:0:0:0:
256,192,70394,12,0,71506,0:0:0:0:
256,192,72246,5,8,0:0:0:0:
256,192,72987,1,8,0:0:0:0:
256,192,74469,1,8,0:0:0:0:
256,192,75209,1,8,0:0:0:0:
256,192,75950,1,0,0:0:0:0:
256,192,76691,1,8,0:0:0:0:
256,192,77432,1,0,0:0:0:0:
256,192,78172,1,8,0:0:0:0:
256,192,78913,1,0,0:0:0:0:
256,192,79654,1,8,0:0:0:0:
256,192,80394,1,0,0:0:0:0:
256,192,81135,1,0,0:0:0:0:
256,192,81876,1,0,0:0:0:0:
256,192,83357,1,4,0:0:0:0:
256,192,83913,1,8,0:0:0:0:
256,192,84098,1,8,0:0:0:0:
256,192,84469,1,8,0:0:0:0:
256,192,85024,1,8,0:0:0:0:
256,192,85209,1,8,0:0:0:0:
256,192,85580,1,8,0:0:0:0:
256,192,86320,1,8,0:0:0:0:
256,192,86876,1,8,0:0:0:0:
256,192,87061,1,8,0:0:0:0:
256,192,87432,1,8,0:0:0:0:
256,192,87987,1,8,0:0:0:0:
256,192,88172,1,8,0:0:0:0:
256,192,88543,1,8,0:0:0:0:
256,192,89283,1,8,0:0:0:0:
256,192,89839,1,8,0:0:0:0:
256,192,90024,1,8,0:0:0:0:
256,192,90394,1,8,0:0:0:0:
256,192,90950,1,8,0:0:0:0:
256,192,91135,1,8,0:0:0:0:
256,192,91506,1,8,0:0:0:0:
256,192,92246,1,8,0:0:0:0:
256,192,94469,1,12,0:0:0:0:
256,192,94839,1,8,0:0:0:0:
256,192,94932,1,0,0:0:0:0:
256,192,95024,1,0,0:0:0:0:
256,192,95117,1,8,0:0:0:0:
256,192,95209,1,0,0:0:0:0:
256,192,95394,1,0,0:0:0:0:
256,192,95580,1,0,0:0:0:0:
256,192,95672,1,0,0:0:0:0:
256,192,95765,1,8,0:0:0:0:
256,192,95857,1,0,0:0:0:0:
256,192,95950,1,8,0:0:0:0:
256,192,95996,1,8,0:0:0:0:
256,192,96043,1,0,0:0:0:0:
256,192,96135,1,8,0:0:0:0:
256,192,96228,1,0,0:0:0:0:
256,192,96320,1,8,0:0:0:0:
256,192,96367,1,8,0:0:0:0:
256,192,96413,1,8,0:0:0:0:
256,192,96506,1,0,0:0:0:0:
256,192,96691,1,8,0:0:0:0:
256,192,96876,1,8,0:0:0:0:
256,192,96922,1,8,0:0:0:0:
256,192,97015,1,8,0:0:0:0:
256,192,97061,1,0,0:0:0:0:
256,192,97154,1,0,0:0:0:0:
256,192,97246,1,0,0:0:0:0:
256,192,97432,1,8,0:0:0:0:
256,192,97617,1,8,0:0:0:0:
256,192,97663,1,0,0:0:0:0:
256,192,97709,1,0,0:0:0:0:
256,192,97802,1,8,0:0:0:0:
256,192,97987,1,0,0:0:0:0:
256,192,98172,1,0,0:0:0:0:
256,192,98265,1,0,0:0:0:0:
256,192,98357,1,0,0:0:0:0:
256,192,98450,1,8,0:0:0:0:
256,192,98543,1,0,0:0:0:0:
256,192,98728,1,8,0:0:0:0:
256,192,98820,1,0,0:0:0:0:
256,192,98913,1,8,0:0:0:0:
256,192,98959,1,8,0:0:0:0:
256,192,99006,1,0,0:0:0:0:
256,192,99098,1,0,0:0:0:0:
256,192,99191,1,0,0:0:0:0:
256,192,99283,1,8,0:0:0:0:
256,192,99330,1,8,0:0:0:0:
256,192,99376,1,8,0:0:0:0:
256,192,99469,1,0,0:0:0:0:
256,192,99654,1,0,0:0:0:0:
256,192,99839,1,8,0:0:0:0:
256,192,100024,1,8,0:0:0:0:
256,192,100302,1,0,0:0:0:0:
256,192,100394,1,8,0:0:0:0:
256,192,100580,1,0,0:0:0:0:
256,192,100765,1,8,0:0:0:0:
256,192,100950,1,8,0:0:0:0:
256,192,100996,1,8,0:0:0:0:
256,192,101089,1,8,0:0:0:0:
256,192,101135,1,0,0:0:0:0:
256,192,101320,1,0,0:0:0:0:
256,192,101506,1,0,0:0:0:0:
256,192,101598,1,0,0:0:0:0:
256,192,101691,1,8,0:0:0:0:
256,192,101783,1,0,0:0:0:0:
256,192,101876,1,8,0:0:0:0:
256,192,101922,1,8,0:0:0:0:
256,192,101969,1,0,0:0:0:0:
256,192,102061,1,8,0:0:0:0:
256,192,102154,1,0,0:0:0:0:
256,192,102246,1,8,0:0:0:0:
256,192,102293,1,8,0:0:0:0:
256,192,102339,1,8,0:0:0:0:
256,192,102432,1,0,0:0:0:0:
256,192,102617,1,8,0:0:0:0:
256,192,102802,1,8,0:0:0:0:
256,192,102848,1,8,0:0:0:0:
256,192,102941,1,8,0:0:0:0:
256,192,102987,1,0,0:0:0:0:
256,192,103080,1,0,0:0:0:0:
256,192,103172,1,0,0:0:0:0:
256,192,103358,1,8,0:0:0:0:
256,192,103543,1,8,0:0:0:0:
256,192,103589,1,0,0:0:0:0:
256,192,103635,1,0,0:0:0:0:
256,192,103728,1,8,0:0:0:0:
256,192,103913,1,0,0:0:0:0:
256,192,104098,1,0,0:0:0:0:
256,192,104191,1,0,0:0:0:0:
256,192,104283,1,0,0:0:0:0:
256,192,104376,1,8,0:0:0:0:
256,192,104469,1,0,0:0:0:0:
256,192,104654,1,8,0:0:0:0:
256,192,104746,1,0,0:0:0:0:
256,192,104839,1,8,0:0:0:0:
256,192,104932,1,8,0:0:0:0:
256,192,105024,1,0,0:0:0:0:
256,192,105070,1,0,0:0:0:0:
256,192,105117,1,0,0:0:0:0:
256,192,105163,1,0,0:0:0:0:
256,192,105209,1,8,0:0:0:0:
256,192,105256,1,8,0:0:0:0:
256,192,105302,1,8,0:0:0:0:
256,192,105348,1,8,0:0:0:0:
256,192,105394,1,0,0:0:0:0:
256,192,105487,1,0,0:0:0:0:
256,192,105580,1,8,0:0:0:0:
256,192,105950,1,0,0:0:0:0:
256,192,106228,1,0,0:0:0:0:
256,192,106320,1,12,0:0:0:0:
256,192,106876,1,8,0:0:0:0:
256,192,106922,1,8,0:0:0:0:
256,192,107015,1,8,0:0:0:0:
256,192,107061,1,0,0:0:0:0:
256,192,107246,1,0,0:0:0:0:
256,192,107432,1,0,0:0:0:0:
256,192,107524,1,0,0:0:0:0:
256,192,107617,1,8,0:0:0:0:
256,192,107709,1,0,0:0:0:0:
256,192,107802,1,8,0:0:0:0:
256,192,107848,1,8,0:0:0:0:
256,192,107895,1,0,0:0:0:0:
256,192,107987,1,8,0:0:0:0:
256,192,108080,1,0,0:0:0:0:
256,192,108172,1,8,0:0:0:0:
256,192,108219,1,8,0:0:0:0:
256,192,108265,1,8,0:0:0:0:
256,192,108358,1,0,0:0:0:0:
256,192,108543,1,8,0:0:0:0:
256,192,108728,1,8,0:0:0:0:
256,192,108774,1,8,0:0:0:0:
256,192,108867,1,8,0:0:0:0:
256,192,108913,1,0,0:0:0:0:
256,192,109006,1,0,0:0:0:0:
256,192,109098,1,0,0:0:0:0:
256,192,109284,1,8,0:0:0:0:
256,192,109469,1,8,0:0:0:0:
256,192,109515,1,0,0:0:0:0:
256,192,109561,1,0,0:0:0:0:
256,192,109654,1,8,0:0:0:0:
256,192,109839,1,0,0:0:0:0:
256,192,110024,1,0,0:0:0:0:
256,192,110117,1,0,0:0:0:0:
256,192,110209,1,0,0:0:0:0:
256,192,110302,1,8,0:0:0:0:
256,192,110395,1,0,0:0:0:0:
256,192,110580,1,8,0:0:0:0:
256,192,110672,1,0,0:0:0:0:
256,192,110765,1,8,0:0:0:0:
256,192,110811,1,8,0:0:0:0:
256,192,110858,1,0,0:0:0:0:
256,192,110950,1,0,0:0:0:0:
256,192,111043,1,0,0:0:0:0:
256,192,111135,1,8,0:0:0:0:
256,192,111182,1,8,0:0:0:0:
256,192,111228,1,8,0:0:0:0:
256,192,111321,1,0,0:0:0:0:
256,192,111506,1,0,0:0:0:0:
256,192,111691,1,8,0:0:0:0:
256,192,111876,1,8,0:0:0:0:
256,192,112154,1,0,0:0:0:0:
256,192,112246,1,8,0:0:0:0:
256,192,112432,1,0,0:0:0:0:
256,192,112617,1,8,0:0:0:0:
256,192,112802,1,8,0:0:0:0:
256,192,112848,1,8,0:0:0:0:
256,192,112941,1,8,0:0:0:0:
256,192,112987,1,0,0:0:0:0:
256,192,113172,1,0,0:0:0:0:
256,192,113358,1,0,0:0:0:0:
256,192,113450,1,0,0:0:0:0:
256,192,113543,1,8,0:0:0:0:
256,192,113635,1,0,0:0:0:0:
256,192,113728,1,8,0:0:0:0:
256,192,113774,1,8,0:0:0:0:
256,192,113821,1,0,0:0:0:0:
256,192,113913,1,8,0:0:0:0:
256,192,114006,1,0,0:0:0:0:
256,192,114098,1,8,0:0:0:0:
256,192,114145,1,8,0:0:0:0:
256,192,114191,1,8,0:0:0:0:
256,192,114284,1,0,0:0:0:0:
256,192,114469,1,8,0:0:0:0:
256,192,114654,1,8,0:0:0:0:
256,192,114700,1,8,0:0:0:0:
256,192,114793,1,8,0:0:0:0:
256,192,114839,1,0,0:0:0:0:
256,192,114932,1,0,0:0:0:0:
256,192,115024,1,0,0:0:0:0:
256,192,115210,1,8,0:0:0:0:
256,192,115395,1,8,0:0:0:0:
256,192,115441,1,0,0:0:0:0:
256,192,115487,1,0,0:0:0:0:
256,192,115580,1,8,0:0:0:0:
256,192,115765,1,0,0:0:0:0:
256,192,115950,1,0,0:0:0:0:
256,192,116043,1,0,0:0:0:0:
256,192,116135,1,0,0:0:0:0:
256,192,116228,1,8,0:0:0:0:
256,192,116321,1,0,0:0:0:0:
256,192,116506,1,8,0:0:0:0:
256,192,116598,1,0,0:0:0:0:
256,192,116691,1,8,0:0:0:0:
256,192,116784,1,8,0:0:0:0:
256,192,116876,1,0,0:0:0:0:
256,192,116922,1,0,0:0:0:0:
256,192,116969,1,0,0:0:0:0:
256,192,117015,1,0,0:0:0:0:
256,192,117061,1,8,0:0:0:0:
256,192,117108,1,8,0:0:0:0:
256,192,117154,1,8,0:0:0:0:
256,192,117200,1,8,0:0:0:0:
256,192,117246,1,0,0:0:0:0:
256,192,117339,1,0,0:0:0:0:
256,192,117432,1,8,0:0:0:0:
256,192,117802,1,0,0:0:0:0:
256,192,118080,1,0,0:0:0:0:
256,192,118172,1,12,0:0:0:0:
256,192,119283,1,8,0:0:0:0:
256,192,120024,1,8,0:0:0:0:
256,192,120765,1,8,0:0:0:0:
256,192,120950,1,0,0:0:0:0:
256,192,121135,1,8,0:0:0:0:
256,192,121506,1,8,0:0:0:0:
256,192,121691,1,4,0:0:0:0:
256,192,121876,1,8,0:0:0:0:
256,192,121969,1,0,0:0:0:0:
256,192,122061,1,0,0:0:0:0:
256,192,122154,1,0,0:0:0:0:
256,192,122246,1,8,0:0:0:0:
256,192,122432,1,8,0:0:0:0:
256,192,122524,1,0,0:0:0:0:
256,192,122617,1,8,0:0:0:0:
256,192,122663,1,8,0:0:0:0:
256,192,122709,1,8,0:0:0:0:
256,192,122802,1,0,0:0:0:0:
256,192,122894,1,0,0:0:0:0:
256,192,122987,1,8,0:0:0:0:
256,192,123033,1,8,0:0:0:0:
256,192,123080,1,8,0:0:0:0:
256,192,123172,1,0,0:0:0:0:
256,192,123357,1,4,0:0:0:0:
256,192,123543,1,0,0:0:0:0:
256,192,123728,1,8,0:0:0:0:
256,192,124098,1,12,0:0:0:0:
256,192,124283,1,4,0:0:0:0:
256,192,124469,1,8,0:0:0:0:
256,192,124654,1,8,0:0:0:0:
256,192,124746,1,0,0:0:0:0:
256,192,124839,1,0,0:0:0:0:
256,192,125209,1,8,0:0:0:0:
256,192,125394,1,0,0:0:0:0:
256,192,125580,1,8,0:0:0:0:
256,192,125672,1,0,0:0:0:0:
256,192,125765,1,0,0:0:0:0:
256,192,125811,1,0,0:0:0:0:
256,192,125857,1,0,0:0:0:0:
256,192,125904,1,0,0:0:0:0:
256,192,125950,1,8,0:0:0:0:
256,192,126135,1,4,0:0:0:0:
256,192,126506,1,8,0:0:0:0:
256,192,126552,1,0,0:0:0:0:
256,192,126598,1,0,0:0:0:0:
256,192,126691,1,8,0:0:0:0:
256,192,127061,1,12,0:0:0:0:
256,192,127246,1,8,0:0:0:0:
256,192,127293,1,8,0:0:0:0:
256,192,127339,1,0,0:0:0:0:
256,192,127432,1,8,0:0:0:0:
256,192,127617,1,4,0:0:0:0:
256,192,128172,1,12,0:0:0:0:
256,192,128357,1,0,0:0:0:0:
256,192,128543,1,12,0:0:0:0:
256,192,128728,1,0,0:0:0:0:
256,192,128820,1,0,0:0:0:0:
256,192,128867,1,0,0:0:0:0:
256,192,128913,1,8,0:0:0:0:
256,192,128959,1,8,0:0:0:0:
256,192,129006,1,8,0:0:0:0:
256,192,129052,1,8,0:0:0:0:
256,192,129098,1,0,0:0:0:0:
256,192,129283,1,0,0:0:0:0:
256,192,129654,1,8,0:0:0:0:
256,192,129839,1,0,0:0:0:0:
256,192,129885,1,0,0:0:0:0:
256,192,129932,1,0,0:0:0:0:
256,192,130024,1,8,0:0:0:0:
256,192,130209,1,8,0:0:0:0:
256,192,130394,1,8,0:0:0:0:
256,192,130580,1,0,0:0:0:0:
256,192,130672,1,0,0:0:0:0:
256,192,130765,1,12,0:0:0:0:
256,192,130950,1,0,0:0:0:0:
256,192,131135,1,8,0:0:0:0:
256,192,131506,1,8,0:0:0:0:
256,192,131552,1,8,0:0:0:0:
256,192,131598,1,8,0:0:0:0:
256,192,131691,1,0,0:0:0:0:
256,192,131783,1,0,0:0:0:0:
256,192,131876,1,8,0:0:0:0:
256,192,131922,1,8,0:0:0:0:
256,192,131969,1,8,0:0:0:0:
256,192,132061,1,0,0:0:0:0:
256,192,132432,1,8,0:0:0:0:
256,192,132478,1,8,0:0:0:0:
256,192,132524,1,0,0:0:0:0:
256,192,132617,1,8,0:0:0:0:
256,192,132987,1,12,0:0:0:0:
256,192,133172,1,0,0:0:0:0:
256,192,133219,1,0,0:0:0:0:
256,192,133357,1,8,0:0:0:0:
256,192,133543,1,0,0:0:0:0:
256,192,133635,1,0,0:0:0:0:
256,192,133728,1,0,0:0:0:0:
256,192,133913,1,0,0:0:0:0:
256,192,134098,1,8,0:0:0:0:
256,192,134283,1,0,0:0:0:0:
256,192,134469,1,8,0:0:0:0:
256,192,134515,1,8,0:0:0:0:
256,192,134561,1,8,0:0:0:0:
256,192,134654,1,0,0:0:0:0:
256,192,134839,1,8,0:0:0:0:
256,192,134885,1,8,0:0:0:0:
256,192,134932,1,8,0:0:0:0:
256,192,135024,1,0,0:0:0:0:
256,192,135209,1,4,0:0:0:0:
256,192,135580,1,8,0:0:0:0:
256,192,135765,1,0,0:0:0:0:
256,192,135811,1,0,0:0:0:0:
256,192,135857,1,0,0:0:0:0:
256,192,135950,1,8,0:0:0:0:
256,192,136135,1,4,0:0:0:0:
256,192,136320,1,8,0:0:0:0:
256,192,136691,1,4,0:0:0:0:
256,192,137061,1,8,0:0:0:0:
256,192,137246,1,0,0:0:0:0:
256,192,137432,1,8,0:0:0:0:
256,192,137524,1,0,0:0:0:0:
256,192,137617,1,0,0:0:0:0:
256,192,137663,1,0,0:0:0:0:
256,192,137709,1,0,0:0:0:0:
256,192,137756,1,0,0:0:0:0:
256,192,137802,1,8,0:0:0:0:
256,192,137987,1,0,0:0:0:0:
256,192,138357,1,8,0:0:0:0:
256,192,138404,1,0,0:0:0:0:
256,192,138450,1,0,0:0:0:0:
256,192,138543,1,8,0:0:0:0:
256,192,138913,1,12,0:0:0:0:
256,192,139098,1,8,0:0:0:0:
256,192,139144,1,8,0:0:0:0:
256,192,139191,1,0,0:0:0:0:
256,192,139283,1,8,0:0:0:0:
256,192,139469,1,4,0:0:0:0:
256,192,140024,1,8,0:0:0:0:
256,192,140394,1,12,0:0:0:0:
256,192,140579,1,0,0:0:0:0:
256,192,140672,1,0,0:0:0:0:
256,192,140718,1,0,0:0:0:0:
256,192,140765,1,8,0:0:0:0:
256,192,140811,1,8,0:0:0:0:
256,192,140857,1,8,0:0:0:0:
256,192,140904,1,8,0:0:0:0:
256,192,140950,1,0,0:0:0:0:
256,192,141135,1,0,0:0:0:0:
256,192,141506,1,8,0:0:0:0:
256,192,141691,1,0,0:0:0:0:
256,192,141737,1,0,0:0:0:0:
256,192,141783,1,0,0:0:0:0:
256,192,141876,1,8,0:0:0:0:
256,192,142246,1,12,0:0:0:0:
256,192,142617,1,8,0:0:0:0:
256,192,142988,1,8,0:0:0:0:
256,192,143358,1,0,0:0:0:0:
256,192,143728,1,0,0:0:0:0:
256,192,146321,1,0,0:0:0:0:
256,192,146691,1,8,0:0:0:0:
256,192,147062,1,0,0:0:0:0:
256,192,148173,1,8,0:0:0:0:
256,192,148543,1,8,0:0:0:0:
256,192,148914,1,0,0:0:0:0:
256,192,149284,1,8,0:0:0:0:
256,192,150395,1,0,0:0:0:0:
256,192,150765,1,8,0:0:0:0:
256,192,151877,1,0,0:0:0:0:
256,192,152247,1,8,0:0:0:0:
256,192,153358,1,0,0:0:0:0:
256,192,153728,1,8,0:0:0:0:
256,192,154469,1,12,0:0:0:0:
256,192,154840,1,8,0:0:0:0:
256,192,155210,1,0,0:0:0:0:
256,192,155580,1,0,0:0:0:0:
256,192,156321,1,8,0:0:0:0:
256,192,156691,1,8,0:0:0:0:
256,192,157062,1,8,0:0:0:0:
256,192,158543,1,0,0:0:0:0:
256,192,158914,1,8,0:0:0:0:
256,192,159654,1,0,0:0:0:0:
256,192,160025,1,0,0:0:0:0:
256,192,160395,1,8,0:0:0:0:
256,192,160765,12,0,166135,0:0:0:0:
256,192,166320,5,4,0:0:0:0:
256,192,187061,12,0,189839,0:0:0:0:
256,192,190024,5,4,0:0:0:0:
256,192,190394,1,0,0:0:0:0:
256,192,190487,1,8,0:0:0:0:
256,192,190580,1,8,0:0:0:0:
256,192,190672,1,8,0:0:0:0:
256,192,190765,1,0,0:0:0:0:
256,192,190857,1,8,0:0:0:0:
256,192,190950,1,8,0:0:0:0:
256,192,191043,1,8,0:0:0:0:
256,192,191135,1,0,0:0:0:0:
256,192,191228,1,8,0:0:0:0:
256,192,191320,1,0,0:0:0:0:
256,192,191413,1,0,0:0:0:0:
256,192,191506,1,8,0:0:0:0:
256,192,191691,1,0,0:0:0:0:
256,192,191876,1,8,0:0:0:0:
256,192,192061,1,8,0:0:0:0:
256,192,192154,1,0,0:0:0:0:
256,192,192246,1,0,0:0:0:0:
256,192,192432,1,8,0:0:0:0:
256,192,192617,1,8,0:0:0:0:
256,192,192802,1,8,0:0:0:0:
256,192,192894,1,8,0:0:0:0:
256,192,192987,1,0,0:0:0:0:
256,192,193049,1,0,0:0:0:0:
256,192,193111,1,0,0:0:0:0:
256,192,193172,1,0,0:0:0:0:
256,192,193234,1,0,0:0:0:0:
256,192,193296,1,0,0:0:0:0:
256,192,193357,1,8,0:0:0:0:
256,192,193543,1,8,0:0:0:0:
256,192,193589,1,8,0:0:0:0:
256,192,193728,1,0,0:0:0:0:
256,192,193820,1,0,0:0:0:0:
256,192,193913,1,0,0:0:0:0:
256,192,194006,1,8,0:0:0:0:
256,192,194098,1,0,0:0:0:0:
256,192,194191,1,8,0:0:0:0:
256,192,194283,1,8,0:0:0:0:
256,192,194376,1,8,0:0:0:0:
256,192,194469,1,0,0:0:0:0:
256,192,194561,1,8,0:0:0:0:
256,192,194654,1,8,0:0:0:0:
256,192,194746,1,0,0:0:0:0:
256,192,194839,1,8,0:0:0:0:
256,192,195024,1,0,0:0:0:0:
256,192,195117,1,0,0:0:0:0:
256,192,195209,1,8,0:0:0:0:
256,192,195394,1,8,0:0:0:0:
256,192,195441,1,8,0:0:0:0:
256,192,195580,1,0,0:0:0:0:
256,192,195765,1,8,0:0:0:0:
256,192,195857,1,8,0:0:0:0:
256,192,195950,1,0,0:0:0:0:
256,192,196012,1,0,0:0:0:0:
256,192,196074,1,0,0:0:0:0:
256,192,196135,1,0,0:0:0:0:
256,192,196197,1,0,0:0:0:0:
256,192,196259,1,0,0:0:0:0:
256,192,196320,1,8,0:0:0:0:
256,192,196413,1,0,0:0:0:0:
256,192,196506,1,8,0:0:0:0:
256,192,196598,1,8,0:0:0:0:
256,192,196691,1,0,0:0:0:0:
256,192,196783,1,8,0:0:0:0:
256,192,196876,1,0,0:0:0:0:
256,192,196969,1,0,0:0:0:0:
256,192,197061,1,8,0:0:0:0:
256,192,197154,1,8,0:0:0:0:
256,192,197246,1,0,0:0:0:0:
256,192,197432,1,12,0:0:0:0:
256,192,197802,1,8,0:0:0:0:
256,192,197987,1,0,0:0:0:0:
256,192,198080,1,0,0:0:0:0:
256,192,198172,1,8,0:0:0:0:
256,192,198357,1,0,0:0:0:0:
256,192,198543,1,8,0:0:0:0:
256,192,198728,1,4,0:0:0:0:
256,192,198913,1,0,0:0:0:0:
256,192,198975,1,0,0:0:0:0:
256,192,199036,1,0,0:0:0:0:
256,192,199098,1,0,0:0:0:0:
256,192,199160,1,0,0:0:0:0:
256,192,199222,1,0,0:0:0:0:
256,192,199283,1,8,0:0:0:0:
256,192,199469,1,8,0:0:0:0:
256,192,199515,1,8,0:0:0:0:
256,192,199654,1,0,0:0:0:0:
256,192,199746,1,8,0:0:0:0:
256,192,199839,1,8,0:0:0:0:
256,192,199932,1,8,0:0:0:0:
256,192,200024,1,0,0:0:0:0:
256,192,200117,1,8,0:0:0:0:
256,192,200209,1,8,0:0:0:0:
256,192,200302,1,0,0:0:0:0:
256,192,200394,1,8,0:0:0:0:
256,192,200580,1,0,0:0:0:0:
256,192,200672,1,0,0:0:0:0:
256,192,200765,1,8,0:0:0:0:
256,192,200950,1,0,0:0:0:0:
256,192,201135,1,8,0:0:0:0:
256,192,201320,1,8,0:0:0:0:
256,192,201367,1,8,0:0:0:0:
256,192,201506,1,0,0:0:0:0:
256,192,201691,1,8,0:0:0:0:
256,192,201783,1,8,0:0:0:0:
256,192,201876,1,0,0:0:0:0:
256,192,201938,1,0,0:0:0:0:
256,192,201999,1,0,0:0:0:0:
256,192,202061,1,0,0:0:0:0:
256,192,202123,1,0,0:0:0:0:
256,192,202185,1,0,0:0:0:0:
256,192,202246,1,8,0:0:0:0:
256,192,202339,1,0,0:0:0:0:
256,192,202432,1,0,0:0:0:0:
256,192,202524,1,8,0:0:0:0:
256,192,202617,1,0,0:0:0:0:
256,192,202709,1,8,0:0:0:0:
256,192,202802,1,8,0:0:0:0:
256,192,202894,1,8,0:0:0:0:
256,192,202987,1,0,0:0:0:0:
256,192,203080,1,8,0:0:0:0:
256,192,203172,1,0,0:0:0:0:
256,192,203265,1,0,0:0:0:0:
256,192,203357,1,8,0:0:0:0:
256,192,203543,1,0,0:0:0:0:
256,192,203728,1,8,0:0:0:0:
256,192,203913,1,8,0:0:0:0:
256,192,204006,1,8,0:0:0:0:
256,192,204098,1,8,0:0:0:0:
256,192,204283,1,0,0:0:0:0:
256,192,204469,1,8,0:0:0:0:
256,192,204654,1,4,0:0:0:0:
256,192,204839,1,0,0:0:0:0:
256,192,204901,1,0,0:0:0:0:
256,192,204962,1,0,0:0:0:0:
256,192,205024,1,0,0:0:0:0:
256,192,205086,1,0,0:0:0:0:
256,192,205148,1,0,0:0:0:0:
256,192,205209,1,8,0:0:0:0:
256,192,205394,1,8,0:0:0:0:
256,192,205441,1,8,0:0:0:0:
256,192,205580,1,0,0:0:0:0:
256,192,205673,1,8,0:0:0:0:
256,192,205766,1,8,0:0:0:0:
256,192,205858,1,8,0:0:0:0:
256,192,205951,1,0,0:0:0:0:
256,192,206043,1,8,0:0:0:0:
256,192,206136,1,0,0:0:0:0:
256,192,206229,1,0,0:0:0:0:
256,192,206321,1,8,0:0:0:0:
256,192,206414,1,8,0:0:0:0:
256,192,206506,1,0,0:0:0:0:
256,192,206691,1,8,0:0:0:0:
256,192,206783,1,8,0:0:0:0:
256,192,206876,1,0,0:0:0:0:
256,192,207061,1,8,0:0:0:0:
256,192,207246,1,8,0:0:0:0:
256,192,207293,1,8,0:0:0:0:
256,192,207432,1,0,0:0:0:0:
256,192,207617,1,8,0:0:0:0:
256,192,207709,1,8,0:0:0:0:
256,192,207802,1,0,0:0:0:0:
256,192,207864,1,0,0:0:0:0:
256,192,207925,1,0,0:0:0:0:
256,192,207987,1,0,0:0:0:0:
256,192,208049,1,0,0:0:0:0:
256,192,208111,1,0,0:0:0:0:
256,192,208172,1,8,0:0:0:0:
256,192,208265,1,0,0:0:0:0:
256,192,208358,1,0,0:0:0:0:
256,192,208450,1,8,0:0:0:0:
256,192,208543,1,0,0:0:0:0:
256,192,208635,1,8,0:0:0:0:
256,192,208728,1,8,0:0:0:0:
256,192,208820,1,8,0:0:0:0:
256,192,208913,1,0,0:0:0:0:
256,192,209006,1,8,0:0:0:0:
256,192,209098,1,0,0:0:0:0:
256,192,209191,1,0,0:0:0:0:
256,192,209283,1,8,0:0:0:0:
256,192,209469,1,8,0:0:0:0:
256,192,209654,1,8,0:0:0:0:
256,192,209839,1,0,0:0:0:0:
256,192,209932,1,8,0:0:0:0:
256,192,210024,1,0,0:0:0:0:
256,192,210209,1,8,0:0:0:0:
256,192,210394,1,0,0:0:0:0:
256,192,210580,1,4,0:0:0:0:
256,192,210765,1,4,0:0:0:0:
256,192,211135,1,0,0:0:0:0:
256,192,211228,1,8,0:0:0:0:
256,192,211320,1,8,0:0:0:0:
256,192,211413,1,8,0:0:0:0:
256,192,211506,1,0,0:0:0:0:
256,192,211598,1,8,0:0:0:0:
256,192,211691,1,8,0:0:0:0:
256,192,211783,1,8,0:0:0:0:
256,192,211876,1,0,0:0:0:0:
256,192,211969,1,8,0:0:0:0:
256,192,212061,1,0,0:0:0:0:
256,192,212154,1,0,0:0:0:0:
256,192,212246,12,0,213543,0:0:0:0:
256,192,213728,5,4,0:0:0:0:
