osu file format v14

[General]
AudioFilename: audio.mp3
AudioLeadIn: 0
PreviewTime: 77951
Countdown: 0
SampleSet: Normal
StackLeniency: 0.2
Mode: 0
LetterboxInBreaks: 0
WidescreenStoryboard: 1

[Editor]
DistanceSpacing: 0.9
BeatDivisor: 8
GridSize: 16
TimelineZoom: 1

[Metadata]
Title:SHA
TitleUnicode:SHA
Artist:sakuraburst
ArtistUnicode:sakuraburst
Creator:Imprixie
Version:STAY CHILL
Source:
Tags:
BeatmapID:1980698
BeatmapSetID:948392

[Difficulty]
HPDrainRate:4.8
CircleSize:4.9
OverallDifficulty:6
ApproachRate:9.3
SliderMultiplier:2
SliderTickRate:1

[Events]
//Background and Video events
0,0,"48305_anime_girls_colorful_vivid_colorful_vivid_girls.jpg",0,0
//Break Periods
//Storyboard Layer 0 (Background)
//Storyboard Layer 1 (Fail)
//Storyboard Layer 2 (Pass)
//Storyboard Layer 3 (Foreground)
//Storyboard Sound Samples

[TimingPoints]
304,352.941176470588,4,1,0,100,1,0
22362,-66.6666666666667,4,1,0,100,0,0
22892,-133.333333333333,4,1,0,100,0,0
30215,-105.263157894737,4,1,0,100,0,0
33039,-90.9090909090909,4,1,0,100,0,0
42215,-222.222222222221,4,1,0,100,0,0
44774,-181.818181818181,4,1,0,100,0,0
45480,-500,4,1,0,100,0,0
46009,-100,4,1,0,100,0,0
46539,-40,4,1,0,100,0,0
46892,-500,4,1,0,100,0,0
47421,-100,4,1,0,100,0,0
47951,-40,4,1,0,100,0,0
48303,-500,4,1,0,100,0,0
48833,-100,4,1,0,100,0,0
49362,-40,4,1,0,100,0,0
49715,-500,4,1,0,100,0,0
50245,-50,4,1,0,100,0,0
50951,-100,4,1,0,100,0,0
51127,-500,4,1,0,100,0,0
51656,-100,4,1,0,100,0,0
52186,-40,4,1,0,100,0,0
52539,-500,4,1,0,100,0,0
53068,-100,4,1,0,100,0,0
53598,-40,4,1,0,100,0,0
53951,-500,4,1,0,100,0,0
54480,-100,4,1,0,100,0,0
55009,-40,4,1,0,100,0,0
55362,-500,4,1,0,100,0,0
55892,-100,4,1,0,100,0,0
56421,-25,4,1,0,100,0,0
56774,-500,4,1,0,100,0,0
57303,-100,4,1,0,100,0,0
57833,-40,4,1,0,100,0,0
58186,-500,4,1,0,100,0,0
58715,-100,4,1,0,100,0,0
59245,-40,4,1,0,100,0,0
59597,-500,4,1,0,100,0,0
60127,-100,4,1,0,100,0,0
60656,-40,4,1,0,100,0,0
61009,-500,4,1,0,100,0,0
61539,-100,4,1,0,100,0,0
62068,-50,4,1,0,100,0,0
62245,-100,4,1,0,100,0,0
62421,-500,4,1,0,100,0,0
62950,-100,4,1,0,100,0,0
63480,-40,4,1,0,100,0,0
63833,-500,4,1,0,100,0,0
64362,-100,4,1,0,100,0,0
64892,-40,4,1,0,100,0,0
65245,-500,4,1,0,100,0,0
65774,-100,4,1,0,100,0,0
66303,-40,4,1,0,100,0,0
66656,-500,4,1,0,100,0,0
66921,-100,4,1,0,100,0,0
67186,-50,4,1,0,100,0,0
67451,-33.3333333333333,4,1,0,100,0,0
70803,-31.25,4,1,0,100,0,0
72127,-50,4,1,0,100,0,0
72656,-30.3030303030303,4,1,0,100,0,0
73362,-50,4,1,0,100,0,0
73539,-100,4,1,0,100,0,0
73715,-28.5714285714286,4,1,0,100,0,0
76539,-26.3157894736842,4,1,0,100,0,0
77774,-50,4,1,0,100,0,0
78215,-33.3333333333333,4,1,0,100,0,0
78480,-28.5714285714286,4,1,0,100,0,0
78745,-25,4,1,0,100,0,0

[Colours]
Combo1 : 230,224,19
Combo2 : 0,198,255
Combo3 : 0,128,192
Combo4 : 217,60,221
Combo5 : 214,16,124
Combo6 : 38,221,34
Combo7 : 72,180,56
Combo8 : 119,55,251

[HitObjects]
256,192,304,12,0,10186,0:0:0:0:
256,192,11598,12,0,21480,0:0:0:0:
41,41,22362,6,0,L|85:52,4,37.5000014305115
41,41,22892,5,0,0:0:0:0:
33,139,23245,1,0,0:0:0:0:
33,139,23421,101,0,0:0:0:0:
38,166,23509,1,0,0:0:0:0:
61,274,23774,5,0,0:0:0:0:
66,247,23862,1,0,0:0:0:0:
144,154,24127,101,0,0:0:0:0:
139,181,24215,1,0,0:0:0:0:
185,137,24568,54,0,L|218:111,1,37.5000014305115
185,137,24833,6,0,L|218:163,1,37.5000014305115
185,137,25098,102,0,L|226:132,1,37.5000014305115
327,123,25362,5,0,0:0:0:0:
307,124,25451,1,0,0:0:0:0:
287,126,25539,1,0,0:0:0:0:
270,127,25627,1,0,0:0:0:0:
236,131,25715,37,0,0:0:0:0:
236,131,26068,1,0,0:0:0:0:
179,38,26245,1,0,0:0:0:0:
174,65,26334,1,0,0:0:0:0:
87,165,26598,5,0,0:0:0:0:
82,138,26687,1,0,0:0:0:0:
177,228,26951,101,0,0:0:0:0:
172,255,27040,1,0,0:0:0:0:
321,293,27392,54,0,L|281:277,1,37.5000014305115
321,293,27657,6,0,L|327:251,1,37.5000014305115
321,293,27922,102,0,L|296:259,1,37.5000014305115
238,177,28186,5,0,0:0:0:0:
249,193,28275,1,0,0:0:0:0:
261,210,28363,1,0,0:0:0:0:
270,224,28451,1,0,0:0:0:0:
288,251,28540,37,0,0:0:0:0:
288,251,28892,5,0,0:0:0:0:
392,190,29068,1,0,0:0:0:0:
397,217,29157,1,0,0:0:0:0:
466,334,29421,101,0,0:0:0:0:
472,302,29510,1,0,0:0:0:0:
279,144,29774,5,0,0:0:0:0:
319,136,29863,1,0,0:0:0:0:
92,227,30215,38,0,L|136:241,1,47.4999987316132
92,227,30480,6,0,L|116:186,1,47.4999987316132
92,227,30745,102,0,L|138:216,1,47.4999987316132
237,189,31009,5,0,0:0:0:0:
214,195,31098,1,0,0:0:0:0:
188,201,31186,1,0,0:0:0:0:
168,207,31274,1,0,0:0:0:0:
92,227,31362,37,0,0:0:0:0:
92,227,31715,1,0,0:0:0:0:
184,330,31892,5,0,0:0:0:0:
175,290,31981,1,0,0:0:0:0:
39,145,32245,101,0,0:0:0:0:
48,105,32334,1,0,0:0:0:0:
271,209,32598,5,0,0:0:0:0:
231,218,32687,1,0,0:0:0:0:
428,327,33039,38,0,L|374:344,1,55.0000016784668
428,327,33304,6,0,L|398:278,1,55.0000016784668
428,327,33569,102,0,L|371:313,1,55.0000016784668
268,286,33833,5,0,0:0:0:0:
301,294,33922,1,0,0:0:0:0:
337,303,34010,1,0,0:0:0:0:
365,311,34098,1,0,0:0:0:0:
428,327,34186,5,0,0:0:0:0:
428,327,34362,85,0,0:0:0:0:
402,252,34539,1,0,0:0:0:0:
376,177,34715,5,0,0:0:0:0:
371,204,34803,1,0,0:0:0:0:
366,231,34892,1,0,0:0:0:0:
339,100,35068,101,0,0:0:0:0:
323,127,35156,1,0,0:0:0:0:
306,156,35245,1,0,0:0:0:0:
321,26,35421,5,0,0:0:0:0:
290,49,35509,1,0,0:0:0:0:
261,74,35598,1,0,0:0:0:0:
178,114,35862,22,0,P|199:132|240:132,1,55.0000016784668
178,113,36127,102,0,P|173:140|156:161,1,55.0000016784668
178,113,36392,6,0,L|161:57,1,55.0000016784668
222,272,36656,101,0,0:0:0:0:
213,239,36745,1,0,0:0:0:0:
202,204,36833,1,0,0:0:0:0:
195,175,36921,1,0,0:0:0:0:
178,114,37009,5,0,0:0:0:0:
178,114,37186,69,0,0:0:0:0:
232,169,37363,1,0,0:0:0:0:
288,226,37539,5,0,0:0:0:0:
280,200,37627,1,0,0:0:0:0:
273,174,37716,1,0,0:0:0:0:
353,281,37892,101,0,0:0:0:0:
356,250,37980,1,0,0:0:0:0:
360,215,38069,1,0,0:0:0:0:
401,340,38245,5,0,0:0:0:0:
419,305,38333,1,0,0:0:0:0:
435,271,38422,1,0,0:0:0:0:
407,147,38686,22,0,P|425:168|425:209,1,55.0000016784668
406,147,38951,102,0,P|433:142|454:125,1,55.0000016784668
406,147,39216,6,0,L|350:130,1,55.0000016784668
248,103,39480,101,0,0:0:0:0:
281,112,39569,1,0,0:0:0:0:
316,123,39657,1,0,0:0:0:0:
345,130,39745,1,0,0:0:0:0:
406,147,39833,5,0,0:0:0:0:
406,147,40009,69,0,0:0:0:0:
351,201,40186,1,0,0:0:0:0:
296,255,40362,5,0,0:0:0:0:
321,273,40450,1,0,0:0:0:0:
349,294,40539,1,0,0:0:0:0:
196,226,40715,101,0,0:0:0:0:
216,256,40803,1,0,0:0:0:0:
239,291,40892,1,0,0:0:0:0:
118,173,41068,5,0,0:0:0:0:
127,215,41156,1,0,0:0:0:0:
139,263,41245,1,0,0:0:0:0:
176,90,41421,6,0,P|158:69|158:28,1,55.0000016784668
176,90,41686,2,0,P|167:64|171:37,1,55.0000016784668
176,90,41951,2,0,P|176:62|189:39,1,55.0000016784668
216,150,42215,6,0,L|258:159,4,22.4999993133545
247,161,42656,5,0,0:0:0:0:
280,170,42745,1,0,0:0:0:0:
315,181,42833,1,0,0:0:0:0:
344,188,42921,1,0,0:0:0:0:
360,212,43009,53,0,0:0:0:0:
361,246,43098,1,0,0:0:0:0:
361,282,43186,1,0,0:0:0:0:
364,312,43274,1,0,0:0:0:0:
338,327,43362,21,0,0:0:0:0:
305,338,43451,1,0,0:0:0:0:
271,349,43539,1,0,0:0:0:0:
244,361,43627,1,0,0:0:0:0:
213,353,43715,53,0,0:0:0:0:
192,325,43804,1,0,0:0:0:0:
171,296,43892,1,0,0:0:0:0:
151,274,43980,1,0,0:0:0:0:
122,232,44068,5,0,0:0:0:0:
367,105,44774,5,0,0:0:0:0:
449,152,44951,5,0,0:0:0:0:
392,165,45039,1,0,0:0:0:0:
396,203,45127,5,0,0:0:0:0:
429,211,45215,1,0,0:0:0:0:
418,246,45303,5,0,0:0:0:0:
402,250,45392,1,0,0:0:0:0:
400,273,45480,6,0,L|398:290,1,10
236,56,45745,5,0,0:0:0:0:
307,41,45833,1,0,0:0:0:0:
96,87,46009,6,0,B|118:137|118:137|108:197,1,100
121,195,46274,2,0,B|114:239|114:239|136:289,1,100
157,316,46539,38,0,B|85:304|97:227|164:200|198:247|200:267|200:267|221:308|286:308|300:244|281:191|235:182|195:200,1,375
225,185,46892,38,0,L|227:168,1,10
455,254,47156,5,0,0:0:0:0:
471,325,47244,1,0,0:0:0:0:
449,43,47421,6,0,B|394:39|394:39|355:61,1,100
339,55,47686,2,0,B|299:77|299:77|244:73,1,100
187,70,47951,6,0,B|171:71|171:71|188:85|188:85|172:87|172:87|189:101|189:101|173:103|173:103|191:117|191:117|175:119|175:119|192:133|192:133|176:135|176:135|193:149|193:149|178:151|178:151|195:165|195:165|179:167|179:167|196:181|196:181|180:182|180:182|197:196|197:196|185:199|185:199|194:203|194:203|188:207|188:207|194:209|194:209|190:215|190:215|195:219|195:219|192:224|192:224|195:228|195:228|192:231|192:231|196:233|196:233|191:236|191:236|196:234|196:234|191:237|191:237|197:246,1,375
199,243,48303,54,0,L|216:245,1,10
118,139,48568,21,0,0:0:0:0:
47,123,48656,1,0,0:0:0:0:
169,329,48833,6,0,B|191:279|191:279|183:234,1,100
194,221,49098,2,0,B|187:177|187:177|209:127,1,100
219,113,49362,38,0,B|215:59|160:29|98:54|98:119|135:138|135:138|152:149|206:176|179:243|102:255|90:183,1,375
85,192,49715,38,0,L|68:190,1,10
212,312,49980,5,0,0:0:0:0:
141,296,50068,1,0,0:0:0:0:
366,113,50245,6,0,B|344:163|344:163|352:208,1,100
341,221,50510,2,0,B|348:265|348:265|326:315,1,100
333,334,50774,54,0,L|354:330,6,20,0|0|0|0|0|0|0,1:0|1:0|1:0|1:0|1:0|1:0|1:0,1:0:0:0:
265,306,50951,2,0,L|269:327,3,20,0|0|0|0,1:0|1:0|1:0|1:0,1:0:0:0:
206,251,51127,22,0,L|204:268,1,10
117,130,51392,5,0,0:0:0:0:
101,201,51480,1,0,0:0:0:0:
379,100,51656,6,0,B|329:78|329:78|284:86,1,100
271,75,51921,2,0,B|227:82|227:82|177:60,1,100
158,51,52186,38,0,B|105:64|85:123|120:180|184:169|197:129|197:129|205:110|222:52|292:67|318:141|249:165,1,375
258,168,52539,38,0,L|258:185,1,10
121,323,52804,5,0,0:0:0:0:
50,339,52892,1,0,0:0:0:0:
206,230,53068,6,0,B|256:252|256:252|301:244,1,100
314,255,53333,2,0,B|358:248|358:248|408:270,1,100
430,278,53598,6,0,B|446:277|446:277|429:263|429:263|445:261|445:261|428:247|428:247|444:245|444:245|426:231|426:231|442:229|442:229|425:215|425:215|441:213|441:213|424:199|424:199|439:197|439:197|422:183|422:183|438:181|438:181|421:167|421:167|437:166|437:166|420:152|420:152|432:149|432:149|423:145|423:145|429:141|429:141|423:139|423:139|427:133|427:133|422:129|422:129|425:124|425:124|422:120|422:120|425:117|425:117|421:115|421:115|426:112|426:112|421:114|421:114|426:111|426:111|420:102,1,375
419,96,53951,70,0,L|402:91,1,10
140,151,54215,5,0,0:0:0:0:
161,81,54303,1,0,0:0:0:0:
318,287,54480,6,0,B|296:237|296:237|304:192,1,100
293,179,54745,2,0,B|300:135|300:135|278:85,1,100
265,76,55009,38,0,B|278:23|337:3|394:38|383:102|343:115|343:115|324:123|266:140|281:210|355:236|379:167,1,375
383,181,55362,38,0,L|394:193,1,10
348,321,55627,5,0,0:0:0:0:
418,300,55715,1,0,0:0:0:0:
285,298,55892,6,0,B|235:320|235:320|190:312,1,100
177,323,56157,2,0,B|133:316|133:316|83:338,1,100
53,342,56421,70,0,P|51:273|68:339,1,200
216,129,56774,6,0,L|218:146,1,10
276,56,57039,5,0,0:0:0:0:
205,41,57127,1,0,0:0:0:0:
416,87,57303,6,0,B|394:137|394:137|404:197,1,100
391,195,57568,2,0,B|398:239|398:239|376:289,1,100
355,316,57833,38,0,B|427:304|415:227|348:200|314:247|315:271|315:271|291:308|226:308|212:244|231:191|277:182|317:200,1,375
287,185,58186,38,0,L|285:168,1,10
57,254,58450,5,0,0:0:0:0:
41,325,58538,1,0,0:0:0:0:
63,43,58715,6,0,B|118:39|118:39|157:61,1,100
173,55,58980,2,0,B|213:77|213:77|268:73,1,100
325,70,59245,6,0,B|341:71|341:71|324:85|324:85|340:87|340:87|323:101|323:101|339:103|339:103|321:117|321:117|337:119|337:119|320:133|320:133|336:135|336:135|319:149|319:149|334:151|334:151|317:165|317:165|333:167|333:167|316:181|316:181|332:182|332:182|315:196|315:196|327:199|327:199|318:203|318:203|324:207|324:207|318:209|318:209|322:215|322:215|317:219|317:219|320:224|320:224|317:228|317:228|320:231|320:231|316:233|316:233|321:236|321:236|316:234|316:234|321:237|321:237|315:246,1,375
313,243,59597,54,0,L|296:245,1,10
394,139,59862,21,0,0:0:0:0:
465,123,59950,1,0,0:0:0:0:
343,329,60127,6,0,B|321:279|321:279|329:234,1,100
318,221,60392,2,0,B|325:177|325:177|303:127,1,100
293,113,60656,38,0,B|297:59|352:29|414:54|414:119|377:138|377:138|360:149|306:176|333:243|410:255|422:183,1,375
427,192,61009,38,0,L|444:190,1,10
300,312,61274,5,0,0:0:0:0:
371,296,61362,1,0,0:0:0:0:
146,113,61539,6,0,B|168:163|168:163|160:208,1,100
171,221,61804,2,0,B|164:265|164:265|186:315,1,100
179,334,62068,54,0,L|158:330,6,20,0|0|0|0|0|0|0,1:0|1:0|1:0|1:0|1:0|1:0|1:0,1:0:0:0:
247,306,62245,2,0,L|243:327,3,20,0|0|0|0,1:0|1:0|1:0|1:0,1:0:0:0:
306,251,62421,22,0,L|308:268,1,10
395,130,62686,5,0,0:0:0:0:
411,201,62774,1,0,0:0:0:0:
133,100,62950,6,0,B|183:78|183:78|228:86,1,100
241,75,63215,2,0,B|285:82|285:82|335:60,1,100
354,51,63480,38,0,B|407:64|427:123|392:180|328:169|315:129|315:129|307:110|290:52|220:67|194:141|263:165,1,375
254,168,63833,38,0,L|254:185,1,10
391,323,64098,5,0,0:0:0:0:
462,339,64186,1,0,0:0:0:0:
306,230,64362,6,0,B|256:252|256:252|211:244,1,100
198,255,64627,2,0,B|154:248|154:248|104:270,1,100
82,278,64892,6,0,B|66:277|66:277|83:263|83:263|67:261|67:261|84:247|84:247|68:245|68:245|86:231|86:231|70:229|70:229|87:215|87:215|71:213|71:213|88:199|88:199|73:197|73:197|90:183|90:183|74:181|74:181|91:167|91:167|75:166|75:166|92:152|92:152|80:149|80:149|89:145|89:145|83:141|83:141|89:139|89:139|85:133|85:133|90:129|90:129|87:124|87:124|90:120|90:120|87:117|87:117|91:115|91:115|86:112|86:112|91:114|91:114|86:111|86:111|92:102,1,375
93,96,65245,70,0,L|110:91,1,10
372,151,65509,5,0,0:0:0:0:
351,81,65597,1,0,0:0:0:0:
194,287,65774,6,0,B|216:237|216:237|208:192,1,100
219,179,66039,2,0,B|212:135|212:135|234:85,1,100
247,76,66303,38,0,B|234:23|175:3|118:38|129:102|169:115|169:115|188:123|246:140|231:210|157:236|133:167,1,375
322,307,66921,6,0,L|317:332,1,25
392,294,67186,2,0,L|383:346,1,50
464,269,67451,2,0,L|444:374,1,75.0000028610231
124,196,67715,5,0,0:0:0:0:
134,209,67803,1,0,0:0:0:0:
142,221,67892,1,0,0:0:0:0:
151,231,67980,1,0,0:0:0:0:
162,244,68068,2,0,L|256:253,1,75.0000028610231
243,254,68421,1,0,0:0:0:0:
375,198,68686,2,0,L|281:207,1,75.0000028610231
300,205,69039,2,0,L|375:198,1,75.0000028610231
375,198,69392,2,0,L|281:207,1,75.0000028610231
300,205,69745,2,0,L|375:198,1,75.0000028610231
285,86,70009,2,0,L|253:154,1,75.0000028610231
395,132,70274,2,0,L|351:70,1,75.0000028610231
260,39,70451,5,0,0:0:0:0:
271,65,70539,1,0,0:0:0:0:
324,153,70715,5,0,0:0:0:0:
320,162,70892,2,0,L|234:169,1,80
233,174,71245,1,0,0:0:0:0:
139,245,71509,6,0,L|225:252,1,80
229,261,71686,2,0,L|150:255,1,80
159,264,71862,2,0,L|238:270,1,80
246,204,72127,6,0,P|299:240|254:331,1,150
165,301,72568,5,0,0:0:0:0:
174,311,72656,2,0,L|268:320,1,82.5000007867813
291,261,72833,5,0,0:0:0:0:
300,251,72921,2,0,L|394:242,1,82.5000007867813
409,308,73098,5,0,0:0:0:0:
418,318,73186,2,0,L|512:327,1,82.5000007867813
480,257,73362,54,0,L|459:249,6,20,0|0|0|0|0|0|0,1:0|1:0|1:0|1:0|1:0|1:0|1:0,1:0:0:0:
437,186,73539,2,0,L|444:165,3,20,0|0|0|0,1:0|1:0|1:0|1:0,1:0:0:0:
443,196,73715,6,0,L|355:204,1,87.500000834465
348,214,74068,1,0,0:0:0:0:
225,35,74333,6,0,L|216:122,1,87.500000834465
216,122,74686,2,0,L|225:35,1,87.500000834465
225,35,75039,2,0,L|216:122,1,87.500000834465
216,122,75392,2,0,L|225:35,1,87.500000834465
154,159,75656,2,0,L|225:209,1,87.500000834465
153,87,75921,2,0,L|73:123,1,87.500000834465
38,219,76098,5,0,0:0:0:0:
64,227,76186,1,0,0:0:0:0:
166,247,76362,5,0,0:0:0:0:
174,258,76539,2,0,L|282:270,1,94.9999974632264
273,279,76892,1,0,0:0:0:0:
409,199,77156,6,0,L|301:211,1,94.9999974632264
328,221,77333,2,0,L|422:210,1,94.9999974632264
433,224,77509,2,0,L|325:236,1,94.9999974632264
333,298,77774,6,0,P|280:262|325:171,1,150
45,269,78215,6,0,B|58:312|58:312|55:373,1,75.0000028610231
45,269,78480,6,0,B|72:298|72:298|42:387,1,87.500000834465,0|0,0:0|0:0,0:0:0:0:
45,269,78745,6,0,B|84:301|84:301|32:385,1,100
