osu file format v14

[General]
AudioFilename: audio.mp3
AudioLeadIn: 0
PreviewTime: 203992
Countdown: 0
SampleSet: Normal
StackLeniency: 0.7
Mode: 1
LetterboxInBreaks: 0
WidescreenStoryboard: 0

[Editor]
DistanceSpacing: 0.8
BeatDivisor: 4
GridSize: 8
TimelineZoom: 1.7

[Metadata]
Title:SELF DESTRUCT
TitleUnicode:SELF DESTRUCT
Artist:sakuraburst
ArtistUnicode:sakuraburst
Creator:Nifty
Version:METASTABLE ONI
Source:osu!
Tags:
BeatmapID:2003136
BeatmapSetID:956831

[Difficulty]
HPDrainRate:5
CircleSize:2
OverallDifficulty:6.5
ApproachRate:10
SliderMultiplier:1.4
SliderTickRate:1

[Events]
//Background and Video events
0,0,"explod.jpg",0,0
//Break Periods
//Storyboard Layer 0 (Background)
//Storyboard Layer 1 (Fail)
//Storyboard Layer 2 (Pass)
//Storyboard Layer 3 (Foreground)
//Storyboard Sound Samples

[TimingPoints]
180,375,4,1,0,60,1,0
1680,-76.9230769230769,4,1,0,60,0,0
1742,-83.3333333333333,4,1,0,60,0,0
2211,-76.9230769230769,4,1,0,60,0,0
2273,-83.3333333333333,4,1,0,60,0,0
2773,-76.9230769230769,4,1,0,60,0,0
2835,-83.3333333333333,4,1,0,60,0,0
3148,-76.9230769230769,4,1,0,60,0,0
3210,-83.3333333333333,4,1,0,60,0,0
3711,-76.9230769230769,4,1,0,60,0,0
3773,-83.3333333333333,4,1,0,60,0,0
4273,-76.9230769230769,4,1,0,60,0,0
4335,-83.3333333333333,4,1,0,60,0,0
4648,-76.9230769230769,4,1,0,60,0,0
4710,-83.3333333333333,4,1,0,60,0,0
5211,-76.9230769230769,4,1,0,60,0,0
5273,-83.3333333333333,4,1,0,60,0,0
5773,-76.9230769230769,4,1,0,60,0,0
5835,-83.3333333333333,4,1,0,60,0,0
6148,-76.9230769230769,4,1,0,60,0,0
6210,-83.3333333333333,4,1,0,60,0,0
6711,-76.9230769230769,4,1,0,60,0,0
6773,-83.3333333333333,4,1,0,60,0,0
7648,-76.9230769230769,4,1,0,60,0,0
7710,-83.3333333333333,4,1,0,60,0,0
8211,-76.9230769230769,4,1,0,60,0,0
8273,-83.3333333333333,4,1,0,60,0,0
8773,-76.9230769230769,4,1,0,60,0,0
8835,-83.3333333333333,4,1,0,60,0,0
9148,-76.9230769230769,4,1,0,60,0,0
9210,-83.3333333333333,4,1,0,60,0,0
9711,-76.9230769230769,4,1,0,60,0,0
9773,-83.3333333333333,4,1,0,60,0,0
10273,-76.9230769230769,4,1,0,60,0,0
10335,-83.3333333333333,4,1,0,60,0,0
10648,-76.9230769230769,4,1,0,60,0,0
10710,-83.3333333333333,4,1,0,60,0,0
11211,-76.9230769230769,4,1,0,60,0,0
11273,-83.3333333333333,4,1,0,60,0,0
11773,-76.9230769230769,4,1,0,60,0,0
11835,-83.3333333333333,4,1,0,60,0,0
12055,-81.3008130081301,4,1,0,60,0,0
12117,-79.3650793650794,4,1,0,60,0,0
12180,-77.5193798449612,4,1,0,60,0,0
13445,-83.3333333333333,4,1,0,80,0,0
13680,-71.4285714285714,4,1,0,80,0,0
13773,-83.3333333333333,4,1,0,80,0,0
14289,-71.4285714285714,4,1,0,80,0,0
14382,-83.3333333333333,4,1,0,80,0,0
15133,-71.4285714285714,4,1,0,80,0,0
15226,-83.3333333333333,4,1,0,80,0,0
15789,-71.4285714285714,4,1,0,80,0,0
15882,-83.3333333333333,4,1,0,80,0,0
16633,-71.4285714285714,4,1,0,80,0,0
16726,-83.3333333333333,4,1,0,80,0,0
17289,-71.4285714285714,4,1,0,80,0,0
17382,-83.3333333333333,4,1,0,80,0,0
18133,-71.4285714285714,4,1,0,80,0,0
18226,-83.3333333333333,4,1,0,80,0,0
18789,-71.4285714285714,4,1,0,80,0,0
18882,-83.3333333333333,4,1,0,80,0,0
19633,-71.4285714285714,4,1,0,80,0,0
19726,-83.3333333333333,4,1,0,80,0,0
20289,-71.4285714285714,4,1,0,80,0,0
20382,-83.3333333333333,4,1,0,80,0,0
21133,-71.4285714285714,4,1,0,80,0,0
21226,-83.3333333333333,4,1,0,80,0,0
21789,-71.4285714285714,4,1,0,80,0,0
21882,-83.3333333333333,4,1,0,80,0,0
22633,-71.4285714285714,4,1,0,80,0,0
22726,-83.3333333333333,4,1,0,80,0,0
23289,-71.4285714285714,4,1,0,80,0,0
23382,-83.3333333333333,4,1,0,80,0,0
24133,-62.5,4,1,0,80,0,0
24226,-83.3333333333333,4,1,0,80,0,0
24367,-83.3333333333333,4,1,0,80,0,0
24461,-80.0653333119826,4,1,0,80,0,0
24555,-77.0440360596906,4,1,0,80,0,0
24648,-74.2424118686889,4,1,0,80,0,0
24742,-71.6374457525442,4,1,0,80,0,0
24930,-83.3333333333333,4,1,0,80,0,0
25023,-80.0653333119826,4,1,0,80,0,0
25117,-77.0440360596906,4,1,0,80,0,0
25211,-74.2424118686889,4,1,0,80,0,0
25305,-71.6374457525442,4,1,0,80,0,0
25492,-83.6177731249132,4,1,0,80,0,0
25633,-62.6598609703005,4,1,0,80,0,0
25726,-77.1653762043586,4,1,0,80,0,0
26055,-83.3333333333333,4,1,0,80,0,0
26242,-80.6451612903226,4,1,0,80,0,0
26336,-79.3650793650794,4,1,0,80,0,0
26430,-78.125,4,1,0,80,0,0
26617,-75.7575757575758,4,1,0,80,0,0
26805,-73.5294117647059,4,1,0,80,0,0
26898,-72.463768115942,4,1,0,80,0,0
26992,-71.4285714285714,4,1,0,80,0,0
27180,-62.5,4,1,0,80,0,0
27508,-83.3333333333333,4,1,0,80,0,0
27695,-80.6451612903226,4,1,0,80,0,0
27789,-79.3650793650794,4,1,0,80,0,0
27883,-78.125,4,1,0,80,0,0
28070,-75.7575757575758,4,1,0,80,0,0
28258,-73.5294117647059,4,1,0,80,0,0
28351,-72.463768115942,4,1,0,80,0,0
28445,-71.4285714285714,4,1,0,80,0,0
28633,-62.5,4,1,0,80,0,0
29008,-83.3333333333333,4,1,0,80,0,0
29195,-80.6451612903226,4,1,0,80,0,0
29289,-79.3650793650794,4,1,0,80,0,0
29383,-78.125,4,1,0,80,0,0
29570,-75.7575757575758,4,1,0,80,0,0
29758,-73.5294117647059,4,1,0,80,0,0
29851,-72.463768115942,4,1,0,80,0,0
29945,-71.4285714285714,4,1,0,80,0,0
30133,-62.5,4,1,0,80,0,0
30508,-83.3333333333333,4,1,0,80,0,0
30695,-80.6451612903226,4,1,0,80,0,0
30789,-79.3650793650794,4,1,0,80,0,0
30883,-78.125,4,1,0,80,0,0
31070,-75.7575757575758,4,1,0,80,0,0
31305,-73.5294117647059,4,1,0,80,0,0
31398,-70.4832898216491,4,1,0,80,0,0
31492,-67.6795589458503,4,1,0,80,0,0
31586,-65.0903095499851,4,1,0,80,0,0
31680,-62.6919156267123,4,1,0,80,0,0
32055,-71.4285714285714,4,1,0,80,0,0
32242,-69.4444444444444,4,1,0,80,0,0
32336,-68.4931506849315,4,1,0,80,0,0
32430,-67.5675675675676,4,1,0,80,0,0
32617,-65.7894736842105,4,1,0,80,0,0
32805,-64.1025641025641,4,1,0,80,0,0
32898,-63.2911392405063,4,1,0,80,0,0
32992,-62.5,4,1,0,80,0,0
33180,-55.5555555555556,4,1,0,80,0,0
33508,-71.4285714285714,4,1,0,80,0,0
33695,-69.4444444444444,4,1,0,80,0,0
33789,-68.4931506849315,4,1,0,80,0,0
33883,-67.5675675675676,4,1,0,80,0,0
34070,-65.7894736842105,4,1,0,80,0,0
34258,-64.1025641025641,4,1,0,80,0,0
34351,-63.2911392405063,4,1,0,80,0,0
34445,-62.5,4,1,0,80,0,0
34633,-55.5555555555556,4,1,0,80,0,0
35055,-71.4285714285714,4,1,0,80,0,0
35242,-68.2031936827474,4,1,0,80,0,0
35336,-66.6973474464921,4,1,0,80,0,0
35430,-65.2565168420544,4,1,0,80,0,0
35523,-63.8766618312034,4,1,0,80,0,0
35617,-62.5539136543308,4,1,0,80,0,0
35805,-60.0662651036624,4,1,0,80,0,0
35898,-58.8952083447443,4,1,0,80,0,0
35992,-57.7689404136487,4,1,0,80,0,0
36086,-56.6849078700192,4,1,0,80,0,0
36180,-55.6408405995634,4,1,0,80,0,0
36555,-71.5696146906654,4,1,0,80,0,0
36836,-83.5253720846513,4,1,0,80,0,0
37117,-100.276663314084,4,1,0,80,0,0
37492,-117.647058823529,4,1,0,80,0,0
37680,-125,4,1,0,80,0,0
37773,-50,4,1,0,80,0,0
37867,-125,4,1,0,20,0,0
49023,-125,4,1,0,60,0,0
49680,-71.4285714285714,4,1,0,80,0,0
50008,-111.111111111111,4,1,0,50,0,0
50289,-116.279069767442,4,1,0,50,0,0
50570,-121.951219512195,4,1,0,50,0,0
50851,-128.205128205128,4,1,0,50,0,0
51508,-119.047619047619,4,1,0,50,0,0
51789,-121.951219512195,4,1,0,50,0,0
52070,-125,4,1,0,50,0,0
52351,-128.205128205128,4,1,0,50,0,0
52914,-111.111111111111,4,1,0,50,0,0
53195,-116.279069767442,4,1,0,50,0,0
53336,-119.047619047619,4,1,0,50,0,0
53476,-121.951219512195,4,1,0,50,0,0
53757,-128.205128205128,4,1,0,50,0,0
54414,-119.047619047619,4,1,0,50,0,0
54695,-121.951219512195,4,1,0,50,0,0
54930,-123.456790123457,4,1,0,50,0,0
54976,-125,4,1,0,50,0,0
55257,-128.205128205128,4,1,0,50,0,0
55398,-129.87012987013,4,1,0,50,0,0
55914,-111.111111111111,4,1,0,50,0,0
56195,-116.279069767442,4,1,0,50,0,0
56476,-121.951219512195,4,1,0,50,0,0
56757,-128.205128205128,4,1,0,50,0,0
57414,-119.047619047619,4,1,0,50,0,0
57695,-121.951219512195,4,1,0,50,0,0
57930,-123.456790123457,4,1,0,50,0,0
57976,-125,4,1,0,50,0,0
58257,-128.205128205128,4,1,0,50,0,0
58914,-111.111111111111,4,1,0,50,0,0
59195,-116.279069767442,4,1,0,50,0,0
59336,-118.343195266272,4,1,0,50,0,0
59430,-120.192307692308,4,1,0,50,0,0
59476,-121.951219512195,4,1,0,50,0,0
59757,-128.205128205128,4,1,0,50,0,0
60555,-116.279069767442,4,1,0,50,0,0
60836,-119.047619047619,4,1,0,50,0,0
61117,-96.1538461538461,4,1,0,80,0,0
61211,-97.0873786407767,4,1,0,80,0,0
61305,-98.0392156862745,4,1,0,80,0,0
61492,-100,4,1,0,80,0,0
61680,-83.3333333333333,4,1,0,80,0,0
62055,-62.5,4,1,0,80,0,0
62336,-66.6360141001806,4,1,0,80,0,0
62617,-71.3582835193049,4,1,0,80,0,0
62898,-76.8008454237064,4,1,0,80,0,0
63180,-83.1421756145662,4,1,0,80,0,0
63555,-71.4285714285714,4,1,0,80,0,0
63836,-74.055148869363,4,1,0,80,0,0
64117,-76.8822701796739,4,1,0,80,0,0
64398,-79.933878695543,4,1,0,80,0,0
64680,-83.2376793667943,4,1,0,80,0,0
65008,-62.5,4,1,0,80,0,0
65289,-66.6360141001806,4,1,0,80,0,0
65570,-71.3582835193049,4,1,0,80,0,0
65851,-76.8008454237064,4,1,0,80,0,0
66133,-83.1421756145662,4,1,0,80,0,0
66508,-71.4285714285714,4,1,0,80,0,0
66789,-74.055148869363,4,1,0,80,0,0
67070,-76.8822701796739,4,1,0,80,0,0
67351,-79.933878695543,4,1,0,80,0,0
67492,-81.3008130081301,4,1,0,80,0,0
67539,-81.9672131147541,4,1,0,80,0,0
67586,-82.6446280991736,4,1,0,80,0,0
67633,-83.2376793667943,4,1,0,80,0,0
68008,-62.5,4,1,0,80,0,0
68289,-66.6360141001806,4,1,0,80,0,0
68570,-71.3582835193049,4,1,0,80,0,0
68851,-76.8008454237064,4,1,0,80,0,0
69133,-83.1421756145662,4,1,0,80,0,0
69508,-71.4285714285714,4,1,0,80,0,0
69789,-74.055148869363,4,1,0,80,0,0
70070,-76.8822701796739,4,1,0,80,0,0
70351,-79.933878695543,4,1,0,80,0,0
70633,-83.2376793667943,4,1,0,80,0,0
71008,-62.5,4,1,0,80,0,0
71289,-66.6360141001806,4,1,0,80,0,0
71570,-71.3582835193049,4,1,0,80,0,0
71851,-76.8008454237064,4,1,0,80,0,0
72133,-83.1421756145662,4,1,0,80,0,0
72508,-71.4285714285714,4,1,0,80,0,0
72789,-74.055148869363,4,1,0,80,0,0
73070,-76.8822701796739,4,1,0,80,0,0
73351,-79.933878695543,4,1,0,80,0,0
73492,-81.3008130081301,4,1,0,80,0,0
73539,-81.9672131147541,4,1,0,80,0,0
73586,-82.6446280991736,4,1,0,80,0,0
73633,-83.2376793667943,4,1,0,80,0,0
74055,-62.5,4,1,0,80,0,0
74242,-65.1978461239555,4,1,0,80,0,0
74336,-66.6360141001806,4,1,0,80,0,0
74430,-68.1391073504381,4,1,0,80,0,0
74617,-71.3582835193049,4,1,0,80,0,0
74805,-74.8967174266686,4,1,0,80,0,0
74898,-76.8008454237064,4,1,0,80,0,0
74992,-78.8043178461834,4,1,0,80,0,0
75180,-83.1421756145662,4,1,0,80,0,0
75555,-71.4285714285714,4,1,0,80,0,0
75742,-73.1584018400801,4,1,0,80,0,0
75836,-74.055148869363,4,1,0,80,0,0
75930,-74.9741526608702,4,1,0,80,0,0
76117,-76.8822701796739,4,1,0,80,0,0
76305,-78.8901108090496,4,1,0,80,0,0
76398,-79.933878695543,4,1,0,80,0,0
76492,-81.0055707531007,4,1,0,80,0,0
76680,-83.2376793667943,4,1,0,80,0,0
77055,-62.5,4,1,0,80,0,0
77242,-65.1978461239555,4,1,0,80,0,0
77336,-66.6360141001806,4,1,0,80,0,0
77430,-68.1391073504381,4,1,0,80,0,0
77617,-71.3582835193049,4,1,0,80,0,0
77805,-74.8967174266686,4,1,0,80,0,0
77898,-76.8008454237064,4,1,0,80,0,0
77992,-78.8043178461834,4,1,0,80,0,0
78180,-83.1421756145662,4,1,0,80,0,0
78555,-71.4285714285714,4,1,0,80,0,0
78742,-73.1584018400801,4,1,0,80,0,0
78836,-74.055148869363,4,1,0,80,0,0
78930,-74.9741526608702,4,1,0,80,0,0
79117,-76.8822701796739,4,1,0,80,0,0
79305,-78.8901108090496,4,1,0,80,0,0
79398,-79.933878695543,4,1,0,80,0,0
79492,-81.0055707531007,4,1,0,80,0,0
79555,-81.7362078322904,4,1,0,80,0,0
79617,-82.4800769374158,4,1,0,80,0,0
79680,-83.2376793667943,4,1,0,80,0,0
80008,-62.5,4,1,0,80,0,0
80195,-65.1978461239555,4,1,0,80,0,0
80289,-66.6360141001806,4,1,0,80,0,0
80383,-68.1391073504381,4,1,0,80,0,0
80570,-71.3582835193049,4,1,0,80,0,0
80758,-74.8967174266686,4,1,0,80,0,0
80851,-76.8008454237064,4,1,0,80,0,0
80945,-78.8043178461834,4,1,0,80,0,0
81133,-83.1421756145662,4,1,0,80,0,0
81508,-71.4285714285714,4,1,0,80,0,0
81695,-73.1584018400801,4,1,0,80,0,0
81789,-74.055148869363,4,1,0,80,0,0
81883,-74.9741526608702,4,1,0,80,0,0
82070,-76.8822701796739,4,1,0,80,0,0
82258,-78.8901108090496,4,1,0,80,0,0
82351,-79.933878695543,4,1,0,80,0,0
82445,-81.0055707531007,4,1,0,80,0,0
82633,-83.2376793667943,4,1,0,80,0,0
83008,-62.5,4,1,0,80,0,0
83195,-65.1978461239555,4,1,0,80,0,0
83289,-66.6360141001806,4,1,0,80,0,0
83383,-68.1391073504381,4,1,0,80,0,0
83570,-71.3582835193049,4,1,0,80,0,0
83758,-74.8967174266686,4,1,0,80,0,0
83851,-76.8008454237064,4,1,0,80,0,0
83945,-78.8043178461834,4,1,0,80,0,0
84133,-83.1421756145662,4,1,0,80,0,0
84508,-71.4285714285714,4,1,0,80,0,0
84695,-73.1584018400801,4,1,0,80,0,0
84789,-74.055148869363,4,1,0,80,0,0
84883,-74.9741526608702,4,1,0,80,0,0
85070,-76.8822701796739,4,1,0,80,0,0
85258,-78.8901108090496,4,1,0,80,0,0
85351,-79.933878695543,4,1,0,80,0,0
85445,-81.0055707531007,4,1,0,80,0,0
85508,-81.7362078322904,4,1,0,80,0,0
85570,-82.4800769374158,4,1,0,80,0,0
85633,-83.2376793667943,4,1,0,80,0,0
85961,-86.9565217391304,4,1,0,80,0,0
87180,-100,4,1,0,80,0,0
88961,-105.263157894737,4,1,0,80,0,0
90180,-100,4,1,0,80,0,0
91680,-100,4,1,0,80,0,0
91773,-98.767578159723,4,1,0,80,0,0
91867,-97.565068583365,4,1,0,80,0,0
91961,-96.3915811593015,4,1,0,80,0,0
92055,-95.2459870484507,4,1,0,80,0,0
92148,-94.1272148133646,4,1,0,80,0,0
92242,-93.0345064984603,4,1,0,80,0,0
92336,-91.9668772095042,4,1,0,80,0,0
92430,-90.9233906787158,4,1,0,80,0,0
92523,-89.9033987979916,4,1,0,80,0,0
92617,-88.9060378757502,4,1,0,80,0,0
92711,-87.9304856752446,4,1,0,80,0,0
92805,-86.976185920295,4,1,0,80,0,0
92898,-86.0423775918115,4,1,0,80,0,0
92992,-85.1283352217636,4,1,0,80,0,0
93086,-84.233579716554,4,1,0,80,0,0
93180,-83.3574375256845,4,1,0,80,0,0
93273,-82.4992657565348,4,1,0,80,0,0
93367,-81.6586505091417,4,1,0,80,0,0
93461,-80.8349931451926,4,1,0,80,0,0
93555,-80.0277216027632,4,1,0,80,0,0
93648,-79.236477304692,4,1,0,80,0,0
93742,-78.4607260912514,4,1,0,80,0,0
93836,-77.6999569542239,4,1,0,80,0,0
93930,-76.9538584664635,4,1,0,80,0,0
94023,-76.2219522271292,4,1,0,80,0,0
94117,-75.5037800967505,4,1,0,80,0,0
94211,-74.7990709955382,4,1,0,80,0,0
94305,-74.1073949546203,4,1,0,80,0,0
94398,-73.4283398146081,4,1,0,80,0,0
94492,-72.7616691526904,4,1,0,80,0,0
94586,-72.1069952438226,4,1,0,80,0,0
94680,-71.463946081882,4,1,0,80,0,0
94805,-70.6242120986338,4,1,0,80,0,0
94930,-69.8040321601137,4,1,0,80,0,0
95055,-69.0026359006914,4,1,0,80,0,0
95180,-68.2194318958589,4,1,0,80,0,0
95305,-67.4538076325332,4,1,0,80,0,0
95430,-66.7052222851475,4,1,0,80,0,0
95523,-66.1545423031836,4,1,0,80,0,0
95617,-65.612923121338,4,1,0,80,0,0
95711,-65.0801005878035,4,1,0,80,0,0
95805,-64.5558204496055,4,1,0,80,0,0
95867,-64.2109818758083,4,1,0,80,0,0
95930,-63.8698077838135,4,1,0,80,0,0
95992,-63.5322804340271,4,1,0,80,0,0
96055,-63.1982617950076,4,1,0,80,0,0
96117,-62.8677369689327,4,1,0,80,0,0
96180,-62.5406514234252,4,1,0,80,0,0
97117,-100.104108272603,4,1,0,80,0,0
97680,-62.540651423425,4,1,0,80,0,1
98055,-71.4816720992732,4,1,0,80,0,1
98148,-69.9300699300699,4,1,0,80,0,1
98242,-68.4931506849315,4,1,0,80,0,1
98289,-69.4444444444444,4,1,0,80,0,1
98336,-70.4225352112676,4,1,0,80,0,1
98430,-68.9655172413793,4,1,0,80,0,1
98523,-67.5675675675676,4,1,0,80,0,1
98617,-66.2251655629139,4,1,0,80,0,1
98664,-67.1140939597315,4,1,0,80,0,1
98711,-68.0272108843537,4,1,0,80,0,1
98805,-66.6666666666667,4,1,0,80,0,1
98898,-65.359477124183,4,1,0,80,0,1
98992,-64.1025641025641,4,1,0,80,0,1
99055,-62.5,4,1,0,80,0,1
99117,-60.9756097560976,4,1,0,80,0,1
99180,-58.8235294117647,4,1,0,80,0,1
99551,-76.9846646548002,4,1,0,80,0,1
99644,-75.187969924812,4,1,0,80,0,1
99738,-73.5294117647059,4,1,0,80,0,1
99785,-74.6268656716418,4,1,0,80,0,1
99832,-75.7575757575758,4,1,0,80,0,1
99926,-74.0740740740741,4,1,0,80,0,1
100019,-72.463768115942,4,1,0,80,0,1
100113,-70.9219858156028,4,1,0,80,0,1
100160,-71.9424460431655,4,1,0,80,0,1
100207,-72.992700729927,4,1,0,80,0,1
100301,-71.4285714285714,4,1,0,80,0,1
100394,-69.9300699300699,4,1,0,80,0,1
100488,-68.4931506849315,4,1,0,80,0,1
100551,-66.6666666666667,4,1,0,80,0,1
100613,-64.9350649350649,4,1,0,80,0,1
100676,-62.5,4,1,0,80,0,1
101031,-71.4816720992732,4,1,0,80,0,1
101124,-69.9300699300699,4,1,0,80,0,1
101218,-68.4931506849315,4,1,0,80,0,1
101265,-69.4444444444444,4,1,0,80,0,1
101312,-70.4225352112676,4,1,0,80,0,1
101406,-68.9655172413793,4,1,0,80,0,1
101499,-67.5675675675676,4,1,0,80,0,1
101593,-66.2251655629139,4,1,0,80,0,1
101640,-67.1140939597315,4,1,0,80,0,1
101687,-68.0272108843537,4,1,0,80,0,1
101781,-66.6666666666667,4,1,0,80,0,1
101874,-65.359477124183,4,1,0,80,0,1
101968,-64.1025641025641,4,1,0,80,0,1
102031,-62.5,4,1,0,80,0,1
102093,-60.9756097560976,4,1,0,80,0,1
102156,-58.8235294117647,4,1,0,80,0,1
102527,-76.9846646548002,4,1,0,80,0,1
102620,-75.187969924812,4,1,0,80,0,1
102714,-73.5294117647059,4,1,0,80,0,1
102761,-74.6268656716418,4,1,0,80,0,1
102808,-75.7575757575758,4,1,0,80,0,1
102902,-74.0740740740741,4,1,0,80,0,1
102995,-72.463768115942,4,1,0,80,0,1
103089,-70.9219858156028,4,1,0,80,0,1
103136,-71.9424460431655,4,1,0,80,0,1
103183,-72.992700729927,4,1,0,80,0,1
103277,-71.4285714285714,4,1,0,80,0,1
103370,-69.9300699300699,4,1,0,80,0,1
103464,-68.4931506849315,4,1,0,80,0,1
103586,-65.7894736842105,4,1,0,80,0,1
103652,-62.5,4,1,0,80,0,1
104031,-71.4816720992732,4,1,0,80,0,1
104124,-69.9300699300699,4,1,0,80,0,1
104218,-68.4931506849315,4,1,0,80,0,1
104265,-69.4444444444444,4,1,0,80,0,1
104312,-70.4225352112676,4,1,0,80,0,1
104406,-68.9655172413793,4,1,0,80,0,1
104499,-67.5675675675676,4,1,0,80,0,1
104593,-66.2251655629139,4,1,0,80,0,1
104640,-67.1140939597315,4,1,0,80,0,1
104687,-68.0272108843537,4,1,0,80,0,1
104781,-66.6666666666667,4,1,0,80,0,1
104874,-65.359477124183,4,1,0,80,0,1
104968,-64.1025641025641,4,1,0,80,0,1
105031,-62.5,4,1,0,80,0,1
105093,-60.9756097560976,4,1,0,80,0,1
105156,-58.8235294117647,4,1,0,80,0,1
105527,-76.9846646548002,4,1,0,80,0,1
105620,-75.187969924812,4,1,0,80,0,1
105714,-73.5294117647059,4,1,0,80,0,1
105761,-74.6268656716418,4,1,0,80,0,1
105808,-75.7575757575758,4,1,0,80,0,1
105902,-74.0740740740741,4,1,0,80,0,1
105995,-72.463768115942,4,1,0,80,0,1
106089,-70.9219858156028,4,1,0,80,0,1
106136,-71.9424460431655,4,1,0,80,0,1
106183,-72.992700729927,4,1,0,80,0,1
106277,-71.4285714285714,4,1,0,80,0,1
106370,-69.9300699300699,4,1,0,80,0,1
106464,-68.4931506849315,4,1,0,80,0,1
106527,-66.6666666666667,4,1,0,80,0,1
106589,-64.9350649350649,4,1,0,80,0,1
106652,-62.5,4,1,0,80,0,1
107031,-71.4816720992732,4,1,0,80,0,1
107124,-69.9300699300699,4,1,0,80,0,1
107218,-68.4931506849315,4,1,0,80,0,1
107265,-69.4444444444444,4,1,0,80,0,1
107312,-70.4225352112676,4,1,0,80,0,1
107406,-68.9655172413793,4,1,0,80,0,1
107499,-67.5675675675676,4,1,0,80,0,1
107593,-66.2251655629139,4,1,0,80,0,1
107640,-67.1140939597315,4,1,0,80,0,1
107687,-68.0272108843537,4,1,0,80,0,1
107781,-66.6666666666667,4,1,0,80,0,1
107992,-58.1395348837209,4,1,0,80,0,1
108055,-59.5238095238095,4,1,0,80,0,1
108117,-60.9756097560976,4,1,0,80,0,1
108180,-62.5,4,1,0,80,0,1
108273,-63.4868233098221,4,1,0,80,0,1
108367,-64.5053503962886,4,1,0,80,0,1
108461,-65.5570480710166,4,1,0,80,0,1
108555,-66.6436523920406,4,1,0,80,0,1
108648,-67.7668387040812,4,1,0,80,0,1
108742,-68.9285810293381,4,1,0,80,0,1
108836,-70.1308009568646,4,1,0,80,0,1
108930,-71.3757533710768,4,1,0,80,0,1
109023,-72.6656522541612,4,1,0,80,0,1
109117,-74.0030859286832,4,1,0,80,0,1
109211,-75.390617637635,4,1,0,80,0,1
109305,-76.831234047915,4,1,0,80,0,1
109398,-78.3279182632507,4,1,0,80,0,1
109492,-79.8841360490744,4,1,0,80,0,0
109680,-83.1896232591532,4,1,0,80,0,0
110055,-71.2703004542056,4,1,0,80,0,1
110148,-69.9300699300699,4,1,0,80,0,1
110242,-68.4931506849315,4,1,0,80,0,1
110289,-69.4444444444444,4,1,0,80,0,1
110336,-70.4225352112676,4,1,0,80,0,1
110430,-68.9655172413793,4,1,0,80,0,1
110523,-67.5675675675676,4,1,0,80,0,1
110617,-66.2251655629139,4,1,0,80,0,1
110664,-67.1140939597315,4,1,0,80,0,1
110711,-68.0272108843537,4,1,0,80,0,1
110805,-63.2911392405063,4,1,0,80,0,1
110851,-64.1025641025641,4,1,0,80,0,1
110898,-64.9350649350649,4,1,0,80,0,1
110992,-60.9756097560976,4,1,0,80,0,1
111039,-61.7283950617284,4,1,0,80,0,1
111086,-62.5,4,1,0,80,0,1
111180,-58.8235294117647,4,1,0,80,0,1
111546,-66.7129209585308,4,1,0,80,0,1
111639,-65.359477124183,4,1,0,80,0,1
111733,-64.1025641025641,4,1,0,80,0,1
111780,-64.9350649350649,4,1,0,80,0,1
111827,-65.7894736842105,4,1,0,80,0,1
111921,-64.5161290322581,4,1,0,80,0,1
112014,-63.2911392405063,4,1,0,80,0,1
112108,-62.111801242236,4,1,0,80,0,1
112155,-62.8930817610063,4,1,0,80,0,1
112202,-63.6942675159236,4,1,0,80,0,1
112296,-62.5,4,1,0,80,0,1
112389,-61.3496932515337,4,1,0,80,0,1
112445,-60.2409638554217,4,1,0,80,0,1
112507,-58.8235294117647,4,1,0,80,0,1
112570,-57.4712643678161,4,1,0,80,0,1
112671,-55.5555555555556,4,1,0,80,0,1
113023,-71.2703004542056,4,1,0,80,0,1
113116,-69.9300699300699,4,1,0,80,0,1
113210,-68.4931506849315,4,1,0,80,0,1
113257,-69.4444444444444,4,1,0,80,0,1
113304,-70.4225352112676,4,1,0,80,0,1
113398,-68.9655172413793,4,1,0,80,0,1
113491,-67.5675675675676,4,1,0,80,0,1
113585,-66.2251655629139,4,1,0,80,0,1
113632,-67.1140939597315,4,1,0,80,0,1
113679,-68.0272108843537,4,1,0,80,0,1
113773,-63.2911392405063,4,1,0,80,0,1
113819,-64.1025641025641,4,1,0,80,0,1
113866,-64.9350649350649,4,1,0,80,0,1
113960,-60.9756097560976,4,1,0,80,0,1
114007,-61.7283950617284,4,1,0,80,0,1
114054,-62.5,4,1,0,80,0,1
114148,-58.8235294117647,4,1,0,80,0,1
114529,-66.7129209585308,4,1,0,80,0,1
114622,-65.359477124183,4,1,0,80,0,1
114716,-64.1025641025641,4,1,0,80,0,1
114763,-64.9350649350649,4,1,0,80,0,1
114810,-65.7894736842105,4,1,0,80,0,1
114904,-64.5161290322581,4,1,0,80,0,1
114997,-63.2911392405063,4,1,0,80,0,1
115091,-62.111801242236,4,1,0,80,0,1
115138,-62.8930817610063,4,1,0,80,0,1
115185,-63.6942675159236,4,1,0,80,0,1
115279,-62.5,4,1,0,80,0,1
115372,-61.3496932515337,4,1,0,80,0,1
115476,-59.1715976331361,4,1,0,80,0,1
115570,-57.1428571428571,4,1,0,80,0,1
115654,-55.5555555555556,4,1,0,80,0,1
116023,-71.2703004542056,4,1,0,80,0,1
116116,-69.9300699300699,4,1,0,80,0,1
116210,-68.4931506849315,4,1,0,80,0,1
116257,-69.4444444444444,4,1,0,80,0,1
116304,-70.4225352112676,4,1,0,80,0,1
116398,-68.9655172413793,4,1,0,80,0,1
116491,-67.5675675675676,4,1,0,80,0,1
116585,-66.2251655629139,4,1,0,80,0,1
116632,-67.1140939597315,4,1,0,80,0,1
116679,-68.0272108843537,4,1,0,80,0,1
116773,-63.2911392405063,4,1,0,80,0,1
116819,-64.1025641025641,4,1,0,80,0,1
116866,-64.9350649350649,4,1,0,80,0,1
116960,-60.9756097560976,4,1,0,80,0,1
117007,-61.7283950617284,4,1,0,80,0,1
117054,-62.5,4,1,0,80,0,1
117148,-58.8235294117647,4,1,0,80,0,1
117534,-66.7129209585308,4,1,0,80,0,1
117627,-65.359477124183,4,1,0,80,0,1
117721,-64.1025641025641,4,1,0,80,0,1
117768,-64.9350649350649,4,1,0,80,0,1
117815,-65.7894736842105,4,1,0,80,0,1
117909,-64.5161290322581,4,1,0,80,0,1
118002,-63.2911392405063,4,1,0,80,0,1
118096,-62.111801242236,4,1,0,80,0,1
118143,-62.8930817610063,4,1,0,80,0,1
118190,-63.6942675159236,4,1,0,80,0,1
118284,-62.5,4,1,0,80,0,1
118377,-61.3496932515337,4,1,0,80,0,1
118433,-60.2409638554217,4,1,0,80,0,1
118495,-58.8235294117647,4,1,0,80,0,1
118558,-57.4712643678161,4,1,0,80,0,1
118659,-55.5555555555556,4,1,0,80,0,1
119031,-71.2703004542056,4,1,0,80,0,1
119124,-69.9300699300699,4,1,0,80,0,1
119218,-68.4931506849315,4,1,0,80,0,1
119265,-69.4444444444444,4,1,0,80,0,1
119312,-70.4225352112676,4,1,0,80,0,1
119406,-68.9655172413793,4,1,0,80,0,1
119499,-67.5675675675676,4,1,0,80,0,1
119593,-66.2251655629139,4,1,0,80,0,1
119640,-67.1140939597315,4,1,0,80,0,1
119687,-68.0272108843537,4,1,0,80,0,1
119805,-66.6666666666667,4,1,0,80,0,1
119961,-58.1395348837209,4,1,0,80,0,1
120024,-59.5238095238095,4,1,0,80,0,1
120086,-60.9756097560976,4,1,0,80,0,1
120180,-62.5,4,1,0,80,0,1
120273,-63.4868233098221,4,1,0,80,0,1
120367,-64.5053503962886,4,1,0,80,0,1
120461,-65.5570480710166,4,1,0,80,0,1
120555,-66.6436523920406,4,1,0,80,0,1
120648,-67.7668387040812,4,1,0,80,0,1
120742,-68.9285810293381,4,1,0,80,0,1
120836,-70.1308009568646,4,1,0,80,0,1
120930,-71.3757533710768,4,1,0,80,0,1
121023,-72.6656522541612,4,1,0,80,0,1
121117,-74.0030859286832,4,1,0,80,0,1
121211,-75.390617637635,4,1,0,80,0,1
121305,-76.831234047915,4,1,0,80,0,1
121398,-78.3279182632507,4,1,0,80,0,1
121492,-79.8841360490744,4,1,0,80,0,0
121680,-83.1896232591532,4,1,0,80,0,1
121930,-68.0272108843537,4,1,0,80,0,1
122023,-66.7129209585308,4,1,0,80,0,1
122124,-65.359477124183,4,1,0,80,0,1
122218,-64.1025641025641,4,1,0,80,0,1
122265,-64.9350649350649,4,1,0,80,0,1
122312,-65.7894736842105,4,1,0,80,0,1
122406,-64.5161290322581,4,1,0,80,0,1
122499,-63.2911392405063,4,1,0,80,0,1
122593,-62.111801242236,4,1,0,80,0,1
122640,-62.8930817610063,4,1,0,80,0,1
122687,-63.6942675159236,4,1,0,80,0,1
122781,-62.5,4,1,0,80,0,1
122961,-63.2911392405063,4,1,0,80,0,1
123023,-61.7283950617284,4,1,0,80,0,1
123086,-60.2409638554217,4,1,0,80,0,1
123156,-58.8235294117647,4,1,0,80,0,1
123430,-68.0272108843537,4,1,0,80,0,1
123523,-66.7129209585308,4,1,0,80,0,1
123624,-65.359477124183,4,1,0,80,0,1
123718,-64.1025641025641,4,1,0,80,0,1
123765,-64.9350649350649,4,1,0,80,0,1
123812,-65.7894736842105,4,1,0,80,0,1
123906,-64.5161290322581,4,1,0,80,0,1
123999,-63.2911392405063,4,1,0,80,0,1
124093,-62.111801242236,4,1,0,80,0,1
124140,-62.8930817610063,4,1,0,80,0,1
124187,-63.6942675159236,4,1,0,80,0,1
124281,-62.5,4,1,0,80,0,1
124461,-63.2911392405063,4,1,0,80,0,1
124523,-61.7283950617284,4,1,0,80,0,1
124586,-60.2409638554217,4,1,0,80,0,1
124656,-58.8235294117647,4,1,0,80,0,1
124930,-68.0272108843537,4,1,0,80,0,1
125023,-66.7129209585308,4,1,0,80,0,1
125124,-65.359477124183,4,1,0,80,0,1
125218,-64.1025641025641,4,1,0,80,0,1
125265,-64.9350649350649,4,1,0,80,0,1
125312,-65.7894736842105,4,1,0,80,0,1
125406,-64.5161290322581,4,1,0,80,0,1
125499,-63.2911392405063,4,1,0,80,0,1
125593,-62.111801242236,4,1,0,80,0,1
125640,-62.8930817610063,4,1,0,80,0,1
125687,-63.6942675159236,4,1,0,80,0,1
125781,-62.5,4,1,0,80,0,1
125961,-63.2911392405063,4,1,0,80,0,1
126023,-61.7283950617284,4,1,0,80,0,1
126086,-60.2409638554217,4,1,0,80,0,1
126156,-58.8235294117647,4,1,0,80,0,1
126336,-68.9655172413793,4,1,0,80,0,1
126430,-68.0272108843537,4,1,0,80,0,1
126523,-66.7129209585308,4,1,0,80,0,1
126624,-65.359477124183,4,1,0,80,0,1
126718,-64.1025641025641,4,1,0,80,0,1
126765,-64.9350649350649,4,1,0,80,0,1
126812,-65.7894736842105,4,1,0,80,0,1
126906,-64.5161290322581,4,1,0,80,0,1
126999,-63.2911392405063,4,1,0,80,0,1
127093,-62.111801242236,4,1,0,80,0,1
127140,-62.8930817610063,4,1,0,80,0,1
127187,-63.6942675159236,4,1,0,80,0,1
127281,-62.5,4,1,0,80,0,1
127398,-64.2260757867694,4,1,0,80,0,1
127492,-65.7894736842105,4,1,0,80,0,1
127586,-67.5675675675676,4,1,0,80,0,1
127656,-58.8235294117647,4,1,0,80,0,1
127930,-68.0272108843537,4,1,0,80,0,1
128023,-66.7129209585308,4,1,0,80,0,1
128124,-65.359477124183,4,1,0,80,0,1
128218,-64.1025641025641,4,1,0,80,0,1
128265,-64.9350649350649,4,1,0,80,0,1
128312,-65.7894736842105,4,1,0,80,0,1
128406,-64.5161290322581,4,1,0,80,0,1
128499,-63.2911392405063,4,1,0,80,0,1
128593,-62.111801242236,4,1,0,80,0,1
128640,-62.8930817610063,4,1,0,80,0,1
128687,-63.6942675159236,4,1,0,80,0,1
128781,-62.5,4,1,0,80,0,1
128961,-63.2911392405063,4,1,0,80,0,1
129023,-61.7283950617284,4,1,0,80,0,1
129086,-60.2409638554217,4,1,0,80,0,1
129156,-58.8235294117647,4,1,0,80,0,1
129430,-68.0272108843537,4,1,0,80,0,1
129523,-66.7129209585308,4,1,0,80,0,1
129624,-65.359477124183,4,1,0,80,0,1
129718,-64.1025641025641,4,1,0,80,0,1
129765,-64.9350649350649,4,1,0,80,0,1
129812,-65.7894736842105,4,1,0,80,0,1
129906,-64.5161290322581,4,1,0,80,0,1
129999,-63.2911392405063,4,1,0,80,0,1
130093,-62.111801242236,4,1,0,80,0,1
130140,-62.8930817610063,4,1,0,80,0,1
130187,-63.6942675159236,4,1,0,80,0,1
130281,-62.5,4,1,0,80,0,1
130461,-63.2911392405063,4,1,0,80,0,1
130523,-61.7283950617284,4,1,0,80,0,1
130586,-60.2409638554217,4,1,0,80,0,1
130656,-58.8235294117647,4,1,0,80,0,1
130930,-68.0272108843537,4,1,0,80,0,1
131023,-66.7129209585308,4,1,0,80,0,1
131124,-65.359477124183,4,1,0,80,0,1
131218,-64.1025641025641,4,1,0,80,0,1
131265,-64.9350649350649,4,1,0,80,0,1
131312,-65.7894736842105,4,1,0,80,0,1
131406,-64.5161290322581,4,1,0,80,0,1
131499,-63.2911392405063,4,1,0,80,0,1
131593,-62.111801242236,4,1,0,80,0,1
131640,-62.8930817610063,4,1,0,80,0,1
131687,-63.6942675159236,4,1,0,80,0,1
131805,-62.5,4,1,0,80,0,1
131992,-66.6666666666667,4,1,0,80,0,1
132180,-62.5,4,1,0,80,0,1
132273,-64.2201775944791,4,1,0,80,0,1
132367,-66.0377233891088,4,1,0,80,0,1
132461,-67.9611452540354,4,1,0,80,0,1
132555,-70.0000210000063,4,1,0,80,0,1
132648,-72.1649633329821,4,1,0,80,0,1
132742,-74.4680930285205,4,1,0,80,0,1
132836,-76.9230769230769,4,1,0,80,0,1
132930,-79.5454455061994,4,1,0,80,0,1
133023,-82.3529217993125,4,1,0,80,0,1
133117,-85.3658224271381,4,1,0,80,0,1
133211,-88.6076285851754,4,1,0,80,0,1
133305,-92.1052873961283,4,1,0,80,0,1
133398,-95.8904240945786,4,1,0,80,0,1
133492,-100,4,1,0,30,0,0
134055,-111.111111111111,4,1,0,30,0,0
134336,-116.279069767442,4,1,0,30,0,0
134617,-121.951219512195,4,1,0,30,0,0
134898,-128.205128205128,4,1,0,30,0,0
135555,-119.047619047619,4,1,0,30,0,0
135836,-121.951219512195,4,1,0,30,0,0
136117,-125,4,1,0,30,0,0
136398,-128.205128205128,4,1,0,30,0,0
136961,-111.111111111111,4,1,0,30,0,0
137242,-116.279069767442,4,1,0,30,0,0
137523,-121.951219512195,4,1,0,30,0,0
137804,-128.205128205128,4,1,0,30,0,0
138461,-119.047619047619,4,1,0,30,0,0
138742,-121.951219512195,4,1,0,30,0,0
139023,-125,4,1,0,30,0,0
139304,-128.205128205128,4,1,0,30,0,0
139961,-111.111111111111,4,1,0,40,0,0
140242,-116.279069767442,4,1,0,40,0,0
140523,-121.951219512195,4,1,0,40,0,0
140804,-128.205128205128,4,1,0,40,0,0
141461,-119.047619047619,4,1,0,40,0,0
141742,-121.951219512195,4,1,0,40,0,0
142023,-125,4,1,0,40,0,0
142304,-128.205128205128,4,1,0,40,0,0
142961,-111.111111111111,4,1,0,50,0,0
143242,-116.279069767442,4,1,0,50,0,0
143523,-121.951219512195,4,1,0,50,0,0
143804,-128.205128205128,4,1,0,50,0,0
144461,-119.047619047619,4,1,0,50,0,0
144742,-121.951219512195,4,1,0,40,0,0
145023,-125,4,1,0,30,0,0
145304,-128.205128205128,4,1,0,20,0,0
146055,-125,4,1,0,40,0,0
146242,-128.571391836745,4,1,0,40,0,0
146336,-130.434725897945,4,1,0,40,0,0
146617,-136.363698347136,4,1,0,40,0,0
146898,-142.857142857143,4,1,0,40,0,0
147555,-131.578947368421,4,1,0,40,0,0
147742,-133.928511639057,4,1,0,40,0,0
147836,-135.135135135135,4,1,0,40,0,0
148117,-138.888888888889,4,1,0,40,0,0
148398,-142.857142857143,4,1,0,40,0,0
149023,-125,4,1,0,50,0,0
149210,-128.571391836745,4,1,0,50,0,0
149304,-130.434725897945,4,1,0,50,0,0
149585,-136.363698347136,4,1,0,50,0,0
149866,-142.857142857143,4,1,0,50,0,0
150523,-131.578947368421,4,1,0,50,0,0
150710,-133.928511639057,4,1,0,50,0,0
150804,-135.135135135135,4,1,0,50,0,0
151085,-138.888888888889,4,1,0,50,0,0
151258,-142.857142857143,4,1,0,50,0,0
151445,-147.058823529412,4,1,0,50,0,0
152008,-125,4,1,0,60,0,0
152195,-128.571391836745,4,1,0,60,0,0
152289,-130.434725897945,4,1,0,60,0,0
152570,-136.363698347136,4,1,0,60,0,0
152851,-142.857142857143,4,1,0,60,0,0
153508,-131.578947368421,4,1,0,60,0,0
153695,-133.928511639057,4,1,0,60,0,0
153789,-135.135135135135,4,1,0,60,0,0
154070,-138.888888888889,4,1,0,60,0,0
154351,-142.857142857143,4,1,0,60,0,0
155008,-125,4,1,0,60,0,0
155195,-128.571391836745,4,1,0,60,0,0
155289,-130.434725897945,4,1,0,60,0,0
155570,-136.363698347136,4,1,0,60,0,0
155851,-142.857142857143,4,1,0,60,0,0
156508,-131.578947368421,4,1,0,60,0,0
156695,-133.928511639057,4,1,0,60,0,0
156789,-135.135135135135,4,1,0,60,0,0
157070,-138.888888888889,4,1,0,60,0,0
157258,-142.857142857143,4,1,0,60,0,0
157445,-147.058823529412,4,1,0,60,0,0
158008,-125,4,1,0,60,0,0
158195,-128.571391836745,4,1,0,60,0,0
158289,-130.434725897945,4,1,0,60,0,0
158570,-136.363698347136,4,1,0,60,0,0
158851,-142.857142857143,4,1,0,60,0,0
159508,-131.578947368421,4,1,0,60,0,0
159695,-133.928511639057,4,1,0,60,0,0
159789,-135.135135135135,4,1,0,60,0,0
160070,-138.888888888889,4,1,0,60,0,0
160351,-142.857142857143,4,1,0,60,0,0
161008,-125,4,1,0,60,0,0
161195,-128.571391836745,4,1,0,60,0,0
161289,-130.434725897945,4,1,0,60,0,0
161570,-136.363698347136,4,1,0,60,0,0
161851,-142.857142857143,4,1,0,60,0,0
162508,-131.578947368421,4,1,0,60,0,0
162695,-133.928511639057,4,1,0,60,0,0
162789,-135.135135135135,4,1,0,60,0,0
163070,-138.888888888889,4,1,0,60,0,0
163258,-142.857142857143,4,1,0,60,0,0
163492,-147.058823529412,4,1,0,60,0,0
164008,-125,4,1,0,60,0,0
164195,-128.571391836745,4,1,0,60,0,0
164289,-130.434725897945,4,1,0,60,0,0
164570,-136.363698347136,4,1,0,60,0,0
164851,-142.857142857143,4,1,0,60,0,0
165508,-131.578947368421,4,1,0,60,0,0
165695,-133.928511639057,4,1,0,60,0,0
165789,-135.135135135135,4,1,0,60,0,0
166070,-138.888888888889,4,1,0,60,0,0
166351,-142.857142857143,4,1,0,60,0,0
169305,-100,4,1,0,80,0,0
169675,-71.4285714285714,4,1,0,80,0,0
169768,-83.3333333333333,4,1,0,80,0,0
170425,-71.4285714285714,4,1,0,80,0,0
170518,-83.3333333333333,4,1,0,80,0,0
171175,-71.4285714285714,4,1,0,80,0,0
171268,-83.3333333333333,4,1,0,80,0,0
171925,-71.4285714285714,4,1,0,80,0,0
172018,-83.3333333333333,4,1,0,80,0,0
172633,-71.4285714285714,4,1,0,80,0,0
172726,-83.3333333333333,4,1,0,80,0,0
173383,-71.4285714285714,4,1,0,80,0,0
173476,-83.3333333333333,4,1,0,80,0,0
174133,-71.4285714285714,4,1,0,80,0,0
174226,-83.3333333333333,4,1,0,80,0,0
174883,-71.4285714285714,4,1,0,80,0,0
174976,-83.3333333333333,4,1,0,80,0,0
175648,-71.4285714285714,4,1,0,80,0,0
175741,-83.3333333333333,4,1,0,80,0,0
176398,-71.4285714285714,4,1,0,80,0,0
176491,-83.3333333333333,4,1,0,80,0,0
177148,-71.4285714285714,4,1,0,80,0,0
177241,-83.3333333333333,4,1,0,80,0,0
177898,-71.4285714285714,4,1,0,80,0,0
177991,-83.3333333333333,4,1,0,80,0,0
178648,-71.4285714285714,4,1,0,80,0,0
178741,-83.3333333333333,4,1,0,80,0,0
179398,-71.4285714285714,4,1,0,80,0,0
179491,-83.3333333333333,4,1,0,80,0,0
180148,-71.4285714285714,4,1,0,80,0,0
180241,-83.3333333333333,4,1,0,80,0,0
181305,-83.3333333333333,4,1,0,80,0,0
181367,-81.9672131147541,4,1,0,80,0,0
181430,-80.6451612903226,4,1,0,80,0,0
181492,-79.3650793650794,4,1,0,80,0,0
181555,-78.125,4,1,0,80,0,0
181617,-76.9230769230769,4,1,0,80,0,0
181648,-66.6666666666667,4,1,0,80,0,0
181741,-76.9230769230769,4,1,0,80,0,0
182398,-66.6666666666667,4,1,0,80,0,0
182491,-76.9230769230769,4,1,0,80,0,0
183148,-66.6666666666667,4,1,0,80,0,0
183241,-76.9230769230769,4,1,0,80,0,0
183898,-66.6666666666667,4,1,0,80,0,0
183991,-76.9230769230769,4,1,0,80,0,0
184648,-66.6666666666667,4,1,0,80,0,0
184741,-76.9230769230769,4,1,0,80,0,0
185398,-66.6666666666667,4,1,0,80,0,0
185491,-76.9230769230769,4,1,0,80,0,0
186148,-66.6666666666667,4,1,0,80,0,0
186241,-76.9230769230769,4,1,0,80,0,0
186898,-66.6666666666667,4,1,0,80,0,0
186991,-76.9230769230769,4,1,0,80,0,0
187648,-66.6666666666667,4,1,0,80,0,0
187741,-76.9230769230769,4,1,0,80,0,0
188398,-66.6666666666667,4,1,0,80,0,0
188491,-76.9230769230769,4,1,0,80,0,0
189148,-66.6666666666667,4,1,0,80,0,0
189241,-76.9230769230769,4,1,0,80,0,0
189898,-66.6666666666667,4,1,0,80,0,0
189991,-76.9230769230769,4,1,0,80,0,0
190648,-66.6666666666667,4,1,0,80,0,0
190741,-76.9230769230769,4,1,0,80,0,0
191398,-66.6666666666667,4,1,0,80,0,0
191491,-76.9230769230769,4,1,0,80,0,0
192148,-66.6666666666667,4,1,0,80,0,0
192241,-76.9230769230769,4,1,0,80,0,0
192555,-71.4285714285714,4,1,0,80,0,0
192789,-66.6666666666667,4,1,0,80,0,0
193070,-62.5,4,1,0,80,0,0
193351,-58.8235294117647,4,1,0,80,0,0
193633,-55.5555555555556,4,1,0,80,0,0
195133,-100,4,1,0,80,0,0
196961,-105.263157894737,4,1,0,80,0,0
198180,-100,4,1,0,80,0,0
198930,-100,4,1,0,80,0,0
199117,-97.826108223067,4,1,0,80,0,0
199305,-95.7447215934986,4,1,0,80,0,0
199398,-94.7368022160833,4,1,0,80,0,0
199492,-93.7499707031342,4,1,0,80,0,0
199586,-92.7834860240235,4,1,0,80,0,0
199680,-91.8367253227831,4,1,0,80,0,0
199773,-90.9090909090909,4,1,0,80,0,0
199867,-90.0000090000009,4,1,0,80,0,0
199961,-89.1089285364215,4,1,0,80,0,0
200055,-88.2353200692118,4,1,0,80,0,0
200148,-87.3786747101649,4,1,0,80,0,0
200242,-86.5384282544507,4,1,0,80,0,0
200336,-85.7142612244968,4,1,0,80,0,0
200430,-84.9056443574256,4,1,0,80,0,0
200523,-84.1121416717625,4,1,0,80,0,0
200617,-83.3333333333333,4,1,0,80,0,0
200711,-82.5688149145702,4,1,0,80,0,0
200805,-81.8181966942176,4,1,0,80,0,0
200898,-81.0811029948927,4,1,0,80,0,0
200992,-80.3571715561327,4,1,0,80,0,0
201086,-79.6459895058444,4,1,0,80,0,0
201180,-78.9473476454348,4,1,0,80,0,0
201273,-78.2608559546337,4,1,0,80,0,0
201367,-77.5862002080862,4,1,0,80,0,0
201461,-76.9230769230769,4,1,0,80,0,0
201555,-76.2711929043384,4,1,0,80,0,0
201648,-75.6302648118092,4,1,0,80,0,0
201742,-75.0000187500047,4,1,0,80,0,0
201836,-74.3801898777487,4,1,0,80,0,0
201930,-73.7704676162401,4,1,0,80,0,0
202023,-73.1707138608015,4,1,0,80,0,0
202117,-72.5806334547365,4,1,0,80,0,0
202211,-71.9999942400005,4,1,0,80,0,0
202305,-71.4285714285714,4,1,0,80,0,0
202398,-70.8661473122951,4,1,0,80,0,0
202492,-70.3125109863298,4,1,0,80,0,0
202586,-69.7674580854554,4,1,0,80,0,0
202680,-69.2307905325509,4,1,0,80,0,0
202726,-68.9655172413793,4,1,0,80,0,0
202773,-68.7022690985438,4,1,0,80,0,0
202867,-68.1818026859539,4,1,0,80,0,0
202961,-67.6691627565169,4,1,0,80,0,0
203055,-67.1641740922258,4,1,0,80,0,0
203101,-66.9145180414923,4,1,0,80,0,0
203148,-66.6666666666667,4,1,0,80,0,0
203242,-66.1764754541526,4,1,0,80,0,0
203336,-65.6934402472176,4,1,0,80,0,0
203430,-65.2174054820447,4,1,0,80,0,0
203476,-64.9819447666466,4,1,0,80,0,0
203523,-64.7482200714302,4,1,0,80,0,0
203617,-64.2856959183726,4,1,0,80,0,0
203711,-63.8297736532396,4,1,0,80,0,0
203805,-63.3802727633419,4,1,0,80,0,0
203851,-63.1579080332438,4,1,0,80,0,0
203898,-62.93705853587,4,1,0,80,0,0
203992,-62.5,4,1,0,80,0,0
204180,-83.3333333333333,4,1,0,80,0,0
205258,-50,4,1,0,80,0,0
205680,-62.5,4,1,0,80,0,0
206055,-55.5555555555556,4,1,0,80,0,0
206148,-58.8235294117647,4,1,0,80,0,0
206242,-62.5,4,1,0,80,0,0
206805,-55.5555555555556,4,1,0,80,0,0
206898,-58.8235294117647,4,1,0,80,0,0
206992,-62.5,4,1,0,80,0,0
207367,-62.5,4,1,0,80,0,0
207430,-60.0961538461538,4,1,0,80,0,0
207492,-57.8703703703704,4,1,0,80,0,0
207555,-55.5555555555556,4,1,0,80,0,0
207742,-62.5,4,1,0,80,0,0
207836,-59.9999880000024,4,1,0,80,0,0
207883,-58.8235294117647,4,1,0,80,0,0
207930,-57.6923187869844,4,1,0,80,0,0
208023,-55.5555555555556,4,1,0,80,0,0
208211,-62.5,4,1,0,80,0,0
208305,-59.9999880000024,4,1,0,80,0,0
208398,-57.6923187869844,4,1,0,80,0,0
208445,-56.6037629049504,4,1,0,80,0,0
208492,-55.5555555555556,4,1,0,80,0,0
208680,-62.5,4,1,0,80,0,0
209031,-55.5555555555556,4,1,0,80,0,0
209124,-58.8235294117647,4,1,0,80,0,0
209218,-62.5,4,1,0,80,0,0
209781,-55.5555555555556,4,1,0,80,0,0
209874,-58.8235294117647,4,1,0,80,0,0
209968,-62.5,4,1,0,80,0,0
210343,-62.5,4,1,0,80,0,0
210406,-60.0961538461538,4,1,0,80,0,0
210468,-57.8703703703704,4,1,0,80,0,0
210531,-55.5555555555556,4,1,0,80,0,0
210718,-62.5,4,1,0,80,0,0
210812,-59.9999880000024,4,1,0,80,0,0
210859,-58.8235294117647,4,1,0,80,0,0
210906,-57.6923187869844,4,1,0,80,0,0
211023,-55.5555555555556,4,1,0,80,0,0
211211,-58.8235294117647,4,1,0,80,0,0
211305,-50,4,1,0,80,0,0
211656,-62.5,4,1,0,80,0,0
212031,-55.5555555555556,4,1,0,80,0,0
212124,-58.8235294117647,4,1,0,80,0,0
212218,-62.5,4,1,0,80,0,0
212781,-55.5555555555556,4,1,0,80,0,0
212874,-58.8235294117647,4,1,0,80,0,0
212968,-62.5,4,1,0,80,0,0
213343,-62.5,4,1,0,80,0,0
213406,-60.0961538461538,4,1,0,80,0,0
213468,-57.8703703703704,4,1,0,80,0,0
213531,-55.5555555555556,4,1,0,80,0,0
213718,-62.5,4,1,0,80,0,0
213812,-59.9999880000024,4,1,0,80,0,0
213859,-58.8235294117647,4,1,0,80,0,0
213906,-57.6923187869844,4,1,0,80,0,0
213999,-55.5555555555556,4,1,0,80,0,0
214187,-62.5,4,1,0,80,0,0
214281,-59.9999880000024,4,1,0,80,0,0
214374,-57.6923187869844,4,1,0,80,0,0
214421,-56.6037629049504,4,1,0,80,0,0
214468,-55.5555555555556,4,1,0,80,0,0
214656,-62.5,4,1,0,80,0,0
215031,-55.5555555555556,4,1,0,80,0,0
215124,-58.8235294117647,4,1,0,80,0,0
215218,-62.5,4,1,0,80,0,0
215781,-55.5555555555556,4,1,0,80,0,0
215874,-58.8235294117647,4,1,0,80,0,0
215968,-62.5,4,1,0,80,0,0
216180,-62.5,4,1,0,80,0,0
216367,-64.8148208161871,4,1,0,80,0,0
216555,-67.3077052514818,4,1,0,80,0,0
216742,-70.0000210000063,4,1,0,80,0,0
216930,-72.9166438802155,4,1,0,80,0,0
217117,-76.0869399811,4,1,0,80,0,0
217305,-79.5454455061994,4,1,0,80,0,0
217492,-83.3333333333333,4,1,0,80,0,0
217680,-62.5,4,1,0,80,0,0
218055,-62.5,4,1,0,80,0,0
218148,-60.6435493456561,4,1,0,80,0,0
218242,-58.8942371400016,4,1,0,80,0,0
218336,-57.2429832982148,4,1,0,80,0,0
218430,-55.6818295712833,4,1,0,80,0,0
218617,-62.6598609703005,4,1,0,80,0,0
218805,-55.5555555555556,4,1,0,80,0,0
218898,-58.8235294117647,4,1,0,80,0,0
218992,-62.5,4,1,0,80,0,0
219367,-55.5555555555556,4,1,0,80,0,0
219555,-62.5,4,1,0,80,0,0
219742,-58.8942371400016,4,1,0,80,0,0
219836,-57.2429832982148,4,1,0,80,0,0
219930,-55.6818295712833,4,1,0,80,0,0
220305,-55.5555555555556,4,1,0,80,0,0
220367,-57.6923187869844,4,1,0,80,0,0
220430,-59.9999880000024,4,1,0,80,0,0
220492,-62.5,4,1,0,80,0,0
221055,-62.5,4,1,0,80,0,0
221148,-60.6435493456561,4,1,0,80,0,0
221242,-58.8942371400016,4,1,0,80,0,0
221336,-57.2429832982148,4,1,0,80,0,0
221430,-55.6818295712833,4,1,0,80,0,0
221617,-62.6598609703005,4,1,0,80,0,0
221805,-55.5555555555556,4,1,0,80,0,0
221898,-58.8235294117647,4,1,0,80,0,0
221992,-62.5,4,1,0,80,0,0
222180,-62.5,4,1,0,80,0,0
222273,-60.6435493456561,4,1,0,80,0,0
222367,-58.8942371400016,4,1,0,80,0,0
222461,-57.2429832982148,4,1,0,80,0,0
222555,-55.6818295712833,4,1,0,80,0,0
222742,-58.8235294117647,4,1,0,80,0,0
222836,-57.20823798627,4,1,0,80,0,0
222930,-55.6792873051225,4,1,0,80,0,0
223117,-62.65664160401,4,1,0,80,0,0
223305,-58.9622641509434,4,1,0,80,0,0
223492,-55.5555555555556,4,1,0,80,0,0
223555,-57.6036866359447,4,1,0,80,0,0
223617,-59.8086124401914,4,1,0,80,0,0
223680,-62.1890547263682,4,1,0,80,0,0
224055,-62.5,4,1,0,80,0,0
224242,-58.8942371400016,4,1,0,80,0,0
224336,-57.2429832982148,4,1,0,80,0,0
224430,-55.6818295712833,4,1,0,80,0,0
224617,-62.6598609703005,4,1,0,80,0,0
224805,-55.5555555555556,4,1,0,80,0,0
224898,-58.8235294117647,4,1,0,80,0,0
224992,-62.5,4,1,0,80,0,0
225367,-55.5555555555556,4,1,0,80,0,0
225555,-62.5,4,1,0,80,0,0
225742,-58.8942371400016,4,1,0,80,0,0
225836,-57.2429832982148,4,1,0,80,0,0
225930,-55.6818295712833,4,1,0,80,0,0
226117,-62.6598609703005,4,1,0,80,0,0
226305,-55.5555555555556,4,1,0,80,0,0
226367,-57.6923187869844,4,1,0,80,0,0
226430,-59.9999880000024,4,1,0,80,0,0
226492,-62.5,4,1,0,80,0,0
226680,-62.5,4,1,0,80,0,0
226773,-61.8600577030618,4,1,0,80,0,0
226867,-61.2331249161872,4,1,0,80,0,0
227055,-60.0165525651975,4,1,0,80,0,0
227148,-59.4262161129431,4,1,0,80,0,0
227242,-58.8474145388422,4,1,0,80,0,0
227336,-58.2797451077068,4,1,0,80,0,0
227523,-57.1766403692239,4,1,0,80,0,0
227617,-56.6406327438365,4,1,0,80,0,0
227664,-56.3763640965998,4,1,0,80,0,0
227711,-56.1145499977835,4,1,0,80,0,0
227758,-55.8551564084017,4,1,0,80,0,0
227805,-55.5981499159634,4,1,0,80,0,0
228180,-71.4285714285714,4,1,0,80,0,0
228367,-74.4680930285205,4,1,0,80,0,0
228555,-77.7777950617322,4,1,0,80,0,0
228836,-83.3333333333333,4,1,0,80,0,0
228930,-85.3658224271381,4,1,0,80,0,0
229117,-89.7435667324188,4,1,0,80,0,0
229492,-100,4,1,0,80,0,0
229586,-100,4,1,0,20,0,0
229773,-125,4,1,0,20,0,0
242031,-125,4,1,0,60,0,0
242218,-128.571391836745,4,1,0,60,0,0
242312,-130.434725897945,4,1,0,60,0,0
242593,-136.363698347136,4,1,0,60,0,0
242874,-142.857142857143,4,1,0,60,0,0
243531,-131.578947368421,4,1,0,60,0,0
243718,-133.928511639057,4,1,0,60,0,0
243812,-135.135135135135,4,1,0,60,0,0
244093,-138.888888888889,4,1,0,60,0,0
244374,-142.857142857143,4,1,0,60,0,0
244999,-125,4,1,0,60,0,0
245186,-128.571391836745,4,1,0,60,0,0
245280,-130.434725897945,4,1,0,60,0,0
245561,-136.363698347136,4,1,0,60,0,0
245842,-142.857142857143,4,1,0,60,0,0
246499,-131.578947368421,4,1,0,60,0,0
246686,-133.928511639057,4,1,0,60,0,0
246780,-135.135135135135,4,1,0,60,0,0
247061,-138.888888888889,4,1,0,60,0,0
247234,-142.857142857143,4,1,0,60,0,0
247421,-147.058823529412,4,1,0,60,0,0
247984,-125,4,1,0,60,0,0
248171,-128.571391836745,4,1,0,60,0,0
248265,-130.434725897945,4,1,0,60,0,0
248546,-136.363698347136,4,1,0,60,0,0
248827,-142.857142857143,4,1,0,60,0,0
249484,-131.578947368421,4,1,0,60,0,0
249671,-133.928511639057,4,1,0,60,0,0
249765,-135.135135135135,4,1,0,60,0,0
250046,-138.888888888889,4,1,0,60,0,0
250327,-142.857142857143,4,1,0,60,0,0
253305,-25,4,1,0,60,0,0

[HitObjects]
281,146,1680,5,4,0:0:0:0:
277,138,1867,1,0,0:0:0:0:
282,118,2055,1,8,0:0:0:0:
287,124,2242,1,4,0:0:0:0:
287,124,2430,1,0,0:0:0:0:
286,116,2617,1,8,0:0:0:0:
286,116,2805,1,4,0:0:0:0:
286,116,2992,1,8,0:0:0:0:
286,116,3180,1,4,0:0:0:0:
286,116,3367,1,0,0:0:0:0:
286,116,3555,1,8,0:0:0:0:
286,116,3742,1,4,0:0:0:0:
286,116,3930,1,0,0:0:0:0:
286,116,4117,1,8,0:0:0:0:
286,116,4305,1,4,0:0:0:0:
288,112,4680,1,4,0:0:0:0:
282,105,4867,1,0,0:0:0:0:
282,105,5055,1,8,0:0:0:0:
288,112,5242,1,4,0:0:0:0:
282,105,5430,1,0,0:0:0:0:
283,109,5617,1,8,0:0:0:0:
283,109,5805,1,4,0:0:0:0:
285,131,6180,1,4,0:0:0:0:
285,131,6367,1,0,0:0:0:0:
285,131,6555,1,8,0:0:0:0:
286,131,6742,1,4,0:0:0:0:
286,131,6930,1,0,0:0:0:0:
286,131,7117,1,8,0:0:0:0:
279,126,7305,1,8,0:0:0:0:
279,126,7586,1,8,0:0:0:0:
286,124,7680,1,4,0:0:0:0:
279,126,7867,1,0,0:0:0:0:
284,116,8055,1,8,0:0:0:0:
286,124,8242,1,4,0:0:0:0:
278,132,8430,1,0,0:0:0:0:
284,116,8617,1,8,0:0:0:0:
284,116,8805,1,4,0:0:0:0:
284,116,8992,1,8,0:0:0:0:
278,126,9180,1,4,0:0:0:0:
278,126,9367,1,0,0:0:0:0:
278,126,9555,1,8,0:0:0:0:
278,126,9742,1,4,0:0:0:0:
278,126,9930,1,0,0:0:0:0:
278,126,10117,1,8,0:0:0:0:
278,126,10305,1,4,0:0:0:0:
266,114,10680,1,4,0:0:0:0:
266,114,10867,1,0,0:0:0:0:
266,114,11055,1,8,0:0:0:0:
269,116,11242,1,4,0:0:0:0:
269,116,11430,1,0,0:0:0:0:
269,116,11617,1,8,0:0:0:0:
269,116,11805,1,4,0:0:0:0:
271,107,11992,1,0,0:0:0:0:
271,107,12055,1,0,0:0:0:0:
276,121,12117,1,0,0:0:0:0:
271,107,12180,1,8,0:0:0:0:
271,105,13492,1,8,0:0:0:0:
271,105,13586,1,8,0:0:0:0:
271,105,13680,1,4,0:0:0:0:
271,105,14055,1,8,0:0:0:0:
275,97,14242,1,8,0:0:0:0:
275,97,14336,1,4,0:0:0:0:
277,95,14617,1,8,0:0:0:0:
268,93,14805,1,0,0:0:0:0:
268,93,14898,1,8,0:0:0:0:
268,93,14992,1,8,0:0:0:0:
275,96,15180,1,4,0:0:0:0:
264,88,15555,1,8,0:0:0:0:
276,88,15742,1,8,0:0:0:0:
282,96,15836,1,4,0:0:0:0:
276,88,16117,1,8,0:0:0:0:
276,88,16305,1,0,0:0:0:0:
276,88,16398,1,0,0:0:0:0:
276,88,16492,1,8,0:0:0:0:
283,88,16680,1,4,0:0:0:0:
282,88,17055,1,8,0:0:0:0:
282,88,17242,1,8,0:0:0:0:
282,88,17336,1,4,0:0:0:0:
277,89,17617,1,8,0:0:0:0:
277,89,17805,1,0,0:0:0:0:
277,89,17898,1,8,0:0:0:0:
277,89,17992,1,8,0:0:0:0:
282,88,18180,1,4,0:0:0:0:
282,88,18555,1,8,0:0:0:0:
280,72,18742,1,8,0:0:0:0:
282,88,18836,1,4,0:0:0:0:
280,73,19023,1,0,0:0:0:0:
280,73,19117,1,8,0:0:0:0:
280,73,19305,1,0,0:0:0:0:
280,73,19398,1,8,0:0:0:0:
280,73,19492,1,0,0:0:0:0:
287,88,19680,1,4,0:0:0:0:
283,66,20055,1,8,0:0:0:0:
283,66,20242,1,8,0:0:0:0:
286,88,20336,1,4,0:0:0:0:
283,66,20617,1,8,0:0:0:0:
283,66,20805,1,0,0:0:0:0:
283,66,20898,1,8,0:0:0:0:
283,66,20992,1,8,0:0:0:0:
286,88,21180,1,4,0:0:0:0:
283,65,21555,1,8,0:0:0:0:
283,65,21742,1,8,0:0:0:0:
286,88,21836,1,4,0:0:0:0:
283,65,22117,1,8,0:0:0:0:
283,65,22305,1,0,0:0:0:0:
283,65,22398,1,0,0:0:0:0:
283,65,22492,1,8,0:0:0:0:
286,88,22680,1,4,0:0:0:0:
283,65,23055,1,8,0:0:0:0:
283,65,23242,1,8,0:0:0:0:
286,88,23336,1,4,0:0:0:0:
279,70,23617,1,8,0:0:0:0:
279,70,23805,1,0,0:0:0:0:
279,70,23898,1,8,0:0:0:0:
279,70,23992,1,0,0:0:0:0:
286,88,24180,1,12,0:0:0:0:
279,70,24367,1,0,0:0:0:0:
286,82,24461,1,0,0:0:0:0:
288,81,24555,1,8,0:0:0:0:
286,82,24648,1,0,0:0:0:0:
288,81,24742,1,8,0:0:0:0:
288,81,24930,1,0,0:0:0:0:
288,81,25023,1,8,0:0:0:0:
288,81,25117,1,0,0:0:0:0:
288,81,25211,1,0,0:0:0:0:
288,81,25305,1,8,0:0:0:0:
288,81,25492,1,0,0:0:0:0:
286,100,25539,1,8,0:0:0:0:
277,120,25680,1,4,0:0:0:0:
276,64,26055,1,8,0:0:0:0:
281,80,26242,1,0,0:0:0:0:
281,80,26336,1,8,0:0:0:0:
290,78,26430,1,0,0:0:0:0:
290,78,26617,1,8,0:0:0:0:
282,76,26805,1,0,0:0:0:0:
282,76,26898,1,8,0:0:0:0:
284,59,26992,1,8,0:0:0:0:
285,105,27180,1,4,0:0:0:0:
284,66,27555,1,8,0:0:0:0:
279,74,27742,1,0,0:0:0:0:
279,74,27836,1,0,0:0:0:0:
279,74,27930,1,8,0:0:0:0:
276,66,28117,1,8,0:0:0:0:
276,66,28305,1,0,0:0:0:0:
276,66,28398,1,0,0:0:0:0:
276,66,28492,1,8,0:0:0:0:
282,108,28680,1,4,0:0:0:0:
276,67,29055,1,8,0:0:0:0:
276,67,29242,1,0,0:0:0:0:
276,67,29336,1,8,0:0:0:0:
276,67,29430,1,0,0:0:0:0:
276,67,29617,1,8,0:0:0:0:
276,67,29805,1,0,0:0:0:0:
276,67,29898,1,8,0:0:0:0:
276,67,29992,1,0,0:0:0:0:
281,103,30180,1,4,0:0:0:0:
279,59,30555,1,8,0:0:0:0:
274,65,30742,1,0,0:0:0:0:
274,65,30836,1,0,0:0:0:0:
274,65,30930,1,8,0:0:0:0:
274,65,31117,1,8,0:0:0:0:
274,65,31305,1,0,0:0:0:0:
274,65,31398,1,8,0:0:0:0:
274,65,31492,1,8,0:0:0:0:
274,65,31586,1,8,0:0:0:0:
281,103,31680,1,4,0:0:0:0:
277,65,32055,1,8,0:0:0:0:
277,65,32242,1,0,0:0:0:0:
277,65,32336,1,8,0:0:0:0:
277,65,32430,1,0,0:0:0:0:
277,65,32617,1,8,0:0:0:0:
277,65,32805,1,0,0:0:0:0:
277,65,32898,1,8,0:0:0:0:
277,65,32992,1,8,0:0:0:0:
278,95,33180,1,4,0:0:0:0:
277,65,33555,1,8,0:0:0:0:
277,65,33742,1,0,0:0:0:0:
277,65,33836,1,0,0:0:0:0:
277,65,33930,1,8,0:0:0:0:
277,65,34117,1,8,0:0:0:0:
277,65,34305,1,0,0:0:0:0:
277,65,34398,1,0,0:0:0:0:
277,65,34492,1,8,0:0:0:0:
287,92,34680,1,4,0:0:0:0:
279,69,35055,1,8,0:0:0:0:
279,69,35242,1,0,0:0:0:0:
279,69,35336,1,8,0:0:0:0:
264,76,35430,1,0,0:0:0:0:
265,65,35523,1,0,0:0:0:0:
264,76,35617,1,8,0:0:0:0:
268,63,35805,1,0,0:0:0:0:
268,63,35898,1,8,0:0:0:0:
268,63,35992,1,0,0:0:0:0:
268,63,36086,1,0,0:0:0:0:
280,87,36180,1,12,0:0:0:0:
281,62,36555,1,0,0:0:0:0:
281,62,36836,1,0,0:0:0:0:
281,62,37117,1,0,0:0:0:0:
318,126,37492,1,8,0:0:0:0:
324,123,37539,1,8,0:0:0:0:
280,87,37680,1,4,0:0:0:0:
256,192,37773,12,0,48930,0:0:0:0:
259,114,49117,5,8,0:0:0:0:
256,97,49164,1,0,0:0:0:0:
258,100,49211,1,0,0:0:0:0:
288,107,49398,1,0,0:0:0:0:
271,105,49680,1,12,0:0:0:0:
249,92,50055,1,8,0:0:0:0:
258,101,50336,1,8,0:0:0:0:
244,84,50617,1,0,0:0:0:0:
254,101,50898,1,0,0:0:0:0:
253,101,51555,1,0,0:0:0:0:
253,90,51836,1,8,0:0:0:0:
253,90,52117,1,0,0:0:0:0:
253,90,52398,1,0,0:0:0:0:
256,79,53055,1,8,0:0:0:0:
256,79,53242,1,0,0:0:0:0:
256,79,53336,1,8,0:0:0:0:
263,82,53617,1,0,0:0:0:0:
258,84,53898,1,0,0:0:0:0:
258,83,54555,1,0,0:0:0:0:
258,83,54836,1,8,0:0:0:0:
250,77,54930,1,8,0:0:0:0:
258,83,55117,1,0,0:0:0:0:
249,81,55305,1,8,0:0:0:0:
258,83,55398,1,0,0:0:0:0:
256,72,55680,1,0,0:0:0:0:
256,72,56055,1,8,0:0:0:0:
256,72,56336,1,8,0:0:0:0:
256,72,56617,1,0,0:0:0:0:
256,72,56898,1,0,0:0:0:0:
257,71,57555,1,0,0:0:0:0:
257,71,57836,1,8,0:0:0:0:
261,63,57930,1,8,0:0:0:0:
257,71,58117,1,0,0:0:0:0:
257,71,58398,1,0,0:0:0:0:
260,62,59055,1,8,0:0:0:0:
275,71,59242,1,0,0:0:0:0:
260,62,59336,1,8,0:0:0:0:
264,73,59430,1,8,0:0:0:0:
260,62,59617,1,0,0:0:0:0:
260,62,59898,1,0,0:0:0:0:
259,62,60555,1,0,0:0:0:0:
261,63,60836,1,8,0:0:0:0:
261,63,61117,1,8,0:0:0:0:
261,63,61211,1,8,0:0:0:0:
261,63,61305,1,0,0:0:0:0:
261,63,61492,1,0,0:0:0:0:
261,63,61680,1,4,0:0:0:0:
256,56,62055,1,12,0:0:0:0:
247,59,62336,1,12,0:0:0:0:
250,57,62617,1,4,0:0:0:0:
250,57,62898,1,4,0:0:0:0:
255,55,63180,1,4,0:0:0:0:
242,56,63555,1,4,0:0:0:0:
242,56,63836,1,12,0:0:0:0:
242,56,64117,1,4,0:0:0:0:
242,56,64398,1,4,0:0:0:0:
255,55,64680,1,4,0:0:0:0:
256,56,65055,1,12,0:0:0:0:
247,59,65336,1,12,0:0:0:0:
250,57,65617,1,4,0:0:0:0:
250,57,65898,1,4,0:0:0:0:
255,55,66180,1,4,0:0:0:0:
242,56,66555,1,4,0:0:0:0:
242,56,66836,1,12,0:0:0:0:
242,56,67117,1,4,0:0:0:0:
242,56,67398,1,4,0:0:0:0:
232,50,67492,1,8,0:0:0:0:
242,56,67555,1,8,0:0:0:0:
242,56,67617,1,8,0:0:0:0:
255,55,67680,1,4,0:0:0:0:
256,56,68055,1,12,0:0:0:0:
247,59,68336,1,12,0:0:0:0:
250,57,68617,1,4,0:0:0:0:
250,57,68898,1,4,0:0:0:0:
255,55,69180,1,4,0:0:0:0:
242,56,69555,1,4,0:0:0:0:
242,56,69836,1,12,0:0:0:0:
242,56,70117,1,4,0:0:0:0:
242,56,70398,1,4,0:0:0:0:
255,55,70680,1,4,0:0:0:0:
256,56,71055,1,12,0:0:0:0:
247,59,71336,1,12,0:0:0:0:
250,57,71617,1,4,0:0:0:0:
250,57,71898,1,4,0:0:0:0:
255,55,72180,1,4,0:0:0:0:
242,56,72555,1,4,0:0:0:0:
242,56,72836,1,12,0:0:0:0:
242,56,73117,1,4,0:0:0:0:
242,56,73398,1,4,0:0:0:0:
230,58,73492,1,8,0:0:0:0:
242,56,73555,1,8,0:0:0:0:
242,56,73617,1,8,0:0:0:0:
255,55,73680,1,4,0:0:0:0:
249,43,74055,1,8,0:0:0:0:
249,43,74242,1,0,0:0:0:0:
249,43,74336,1,8,0:0:0:0:
249,43,74430,1,0,0:0:0:0:
249,43,74617,1,8,0:0:0:0:
249,43,74805,1,0,0:0:0:0:
249,43,74898,1,8,0:0:0:0:
249,43,74992,1,8,0:0:0:0:
248,87,75180,1,4,0:0:0:0:
259,56,75555,1,8,0:0:0:0:
259,56,75742,1,0,0:0:0:0:
259,56,75836,1,0,0:0:0:0:
259,56,75930,1,8,0:0:0:0:
259,56,76117,1,8,0:0:0:0:
248,46,76305,1,0,0:0:0:0:
260,40,76398,1,8,0:0:0:0:
260,40,76492,1,8,0:0:0:0:
255,102,76680,1,4,0:0:0:0:
258,41,77055,1,8,0:0:0:0:
266,42,77242,1,0,0:0:0:0:
266,42,77336,1,8,0:0:0:0:
266,42,77430,1,0,0:0:0:0:
266,42,77617,1,8,0:0:0:0:
266,42,77805,1,0,0:0:0:0:
266,42,77898,1,8,0:0:0:0:
266,42,77992,1,8,0:0:0:0:
255,103,78180,1,4,0:0:0:0:
252,49,78555,1,8,0:0:0:0:
252,49,78742,1,0,0:0:0:0:
252,49,78836,1,8,0:0:0:0:
252,49,78930,1,8,0:0:0:0:
252,49,79117,1,8,0:0:0:0:
252,49,79305,1,0,0:0:0:0:
261,36,79398,1,0,0:0:0:0:
305,71,79492,1,8,0:0:0:0:
305,71,79555,1,8,0:0:0:0:
305,71,79617,1,8,0:0:0:0:
255,103,79680,1,4,0:0:0:0:
269,50,80055,1,8,0:0:0:0:
269,50,80242,1,0,0:0:0:0:
264,40,80336,1,8,0:0:0:0:
264,40,80430,1,0,0:0:0:0:
264,40,80617,1,8,0:0:0:0:
264,40,80805,1,0,0:0:0:0:
264,40,80898,1,8,0:0:0:0:
264,40,80992,1,8,0:0:0:0:
255,103,81180,1,4,0:0:0:0:
257,71,81555,1,8,0:0:0:0:
257,71,81742,1,0,0:0:0:0:
257,71,81836,1,0,0:0:0:0:
257,71,81930,1,8,0:0:0:0:
257,71,82117,1,8,0:0:0:0:
257,71,82305,1,0,0:0:0:0:
257,71,82398,1,8,0:0:0:0:
257,71,82492,1,8,0:0:0:0:
255,103,82680,1,4,0:0:0:0:
256,68,83055,1,8,0:0:0:0:
259,78,83242,1,0,0:0:0:0:
259,78,83336,1,8,0:0:0:0:
259,78,83430,1,0,0:0:0:0:
257,68,83617,1,8,0:0:0:0:
257,68,83805,1,0,0:0:0:0:
257,68,83898,1,8,0:0:0:0:
257,68,83992,1,8,0:0:0:0:
255,103,84180,1,4,0:0:0:0:
261,66,84555,1,8,0:0:0:0:
261,66,84742,1,0,0:0:0:0:
261,66,84836,1,8,0:0:0:0:
261,66,84930,1,8,0:0:0:0:
261,66,85117,1,8,0:0:0:0:
261,66,85305,1,0,0:0:0:0:
261,66,85398,1,0,0:0:0:0:
247,65,85492,1,8,0:0:0:0:
248,65,85555,1,8,0:0:0:0:
248,65,85617,1,8,0:0:0:0:
256,103,85680,1,4,0:0:0:0:
268,99,85961,1,0,0:0:0:0:
245,134,88680,5,0,0:0:0:0:
268,99,88961,1,0,0:0:0:0:
246,99,91680,5,0,0:0:0:0:
264,132,91773,1,0,0:0:0:0:
262,130,91867,1,0,0:0:0:0:
264,132,91961,1,0,0:0:0:0:
262,130,92055,1,0,0:0:0:0:
262,130,92148,1,0,0:0:0:0:
262,130,92242,1,0,0:0:0:0:
262,130,92336,1,0,0:0:0:0:
262,130,92430,1,0,0:0:0:0:
262,130,92523,1,0,0:0:0:0:
262,130,92617,1,0,0:0:0:0:
262,130,92711,1,0,0:0:0:0:
262,130,92805,1,0,0:0:0:0:
262,130,92898,1,0,0:0:0:0:
262,130,92992,1,0,0:0:0:0:
262,130,93086,1,0,0:0:0:0:
262,130,93180,1,0,0:0:0:0:
262,130,93273,1,0,0:0:0:0:
262,130,93367,1,0,0:0:0:0:
262,130,93461,1,0,0:0:0:0:
262,130,93555,1,0,0:0:0:0:
260,117,93648,1,0,0:0:0:0:
262,130,93742,1,0,0:0:0:0:
262,130,93836,1,0,0:0:0:0:
260,116,93930,1,8,0:0:0:0:
259,115,94023,1,8,0:0:0:0:
260,116,94117,1,8,0:0:0:0:
259,115,94211,1,8,0:0:0:0:
260,116,94305,1,8,0:0:0:0:
260,116,94398,1,8,0:0:0:0:
259,115,94492,1,8,0:0:0:0:
260,116,94586,1,8,0:0:0:0:
271,93,94680,1,0,0:0:0:0:
248,80,94805,1,0,0:0:0:0:
254,78,94930,1,0,0:0:0:0:
254,78,95055,1,8,0:0:0:0:
254,78,95180,1,0,0:0:0:0:
254,78,95305,1,0,0:0:0:0:
254,78,95430,1,8,0:0:0:0:
254,78,95523,1,8,0:0:0:0:
254,78,95617,1,0,0:0:0:0:
253,56,95711,1,0,0:0:0:0:
260,57,95805,1,8,0:0:0:0:
237,60,95867,1,0,0:0:0:0:
253,56,95930,1,0,0:0:0:0:
253,57,95992,1,8,0:0:0:0:
253,57,96055,1,0,0:0:0:0:
253,56,96117,1,0,0:0:0:0:
253,57,96180,1,8,0:0:0:0:
268,77,97117,1,8,0:0:0:0:
268,77,97211,1,8,0:0:0:0:
268,77,97305,1,0,0:0:0:0:
268,77,97492,1,0,0:0:0:0:
268,77,97680,1,12,0:0:0:0:
266,75,98055,1,8,0:0:0:0:
259,67,98148,1,8,0:0:0:0:
259,67,98242,1,0,0:0:0:0:
252,81,98289,1,0,0:0:0:0:
273,78,98336,1,0,0:0:0:0:
273,76,98430,1,8,0:0:0:0:
273,78,98523,1,0,0:0:0:0:
273,76,98617,1,8,0:0:0:0:
287,69,98664,1,8,0:0:0:0:
286,69,98711,1,0,0:0:0:0:
272,62,98805,1,8,0:0:0:0:
268,62,98898,1,0,0:0:0:0:
272,62,98992,1,8,0:0:0:0:
272,62,99055,1,8,0:0:0:0:
275,55,99117,1,8,0:0:0:0:
275,55,99180,1,4,0:0:0:0:
277,66,99555,1,8,0:0:0:0:
277,66,99648,1,0,0:0:0:0:
285,82,99742,1,8,0:0:0:0:
285,81,99789,1,8,0:0:0:0:
285,79,99836,1,0,0:0:0:0:
285,82,99930,1,8,0:0:0:0:
275,70,100023,1,0,0:0:0:0:
282,74,100117,1,8,0:0:0:0:
281,70,100164,1,8,0:0:0:0:
282,71,100211,1,8,0:0:0:0:
280,65,100305,1,0,0:0:0:0:
281,70,100398,1,8,0:0:0:0:
280,65,100461,1,8,0:0:0:0:
280,65,100523,1,0,0:0:0:0:
281,70,100586,1,0,0:0:0:0:
280,65,100680,1,12,0:0:0:0:
286,65,101055,1,8,0:0:0:0:
293,50,101148,1,8,0:0:0:0:
286,65,101242,1,0,0:0:0:0:
286,65,101289,1,0,0:0:0:0:
286,55,101336,1,0,0:0:0:0:
289,52,101430,1,8,0:0:0:0:
288,52,101523,1,0,0:0:0:0:
289,52,101617,1,8,0:0:0:0:
289,52,101664,1,8,0:0:0:0:
288,52,101711,1,0,0:0:0:0:
289,52,101805,1,8,0:0:0:0:
289,52,101898,1,0,0:0:0:0:
296,44,101992,1,8,0:0:0:0:
279,63,102055,1,8,0:0:0:0:
283,60,102117,1,8,0:0:0:0:
312,57,102180,1,4,0:0:0:0:
282,48,102555,1,8,0:0:0:0:
304,52,102648,1,0,0:0:0:0:
299,47,102742,1,8,0:0:0:0:
299,47,102789,1,8,0:0:0:0:
304,52,102836,1,0,0:0:0:0:
299,47,102930,1,8,0:0:0:0:
299,47,103023,1,0,0:0:0:0:
299,47,103117,1,8,0:0:0:0:
299,47,103164,1,8,0:0:0:0:
299,47,103211,1,8,0:0:0:0:
299,47,103305,1,0,0:0:0:0:
299,47,103398,1,0,0:0:0:0:
299,47,103492,1,8,0:0:0:0:
299,47,103586,1,0,0:0:0:0:
299,47,103680,1,12,0:0:0:0:
300,59,104055,1,8,0:0:0:0:
300,59,104148,1,8,0:0:0:0:
284,70,104242,1,0,0:0:0:0:
285,70,104289,1,0,0:0:0:0:
285,70,104336,1,0,0:0:0:0:
305,62,104430,1,8,0:0:0:0:
305,62,104523,1,0,0:0:0:0:
305,62,104617,1,8,0:0:0:0:
305,62,104664,1,8,0:0:0:0:
305,62,104711,1,0,0:0:0:0:
305,62,104805,1,8,0:0:0:0:
305,62,104898,1,0,0:0:0:0:
305,62,104992,1,8,0:0:0:0:
296,74,105055,1,8,0:0:0:0:
299,71,105117,1,8,0:0:0:0:
299,71,105180,1,4,0:0:0:0:
303,64,105555,1,8,0:0:0:0:
288,60,105648,1,0,0:0:0:0:
303,64,105742,1,8,0:0:0:0:
303,64,105789,1,8,0:0:0:0:
303,58,105836,1,0,0:0:0:0:
312,58,105930,1,8,0:0:0:0:
312,58,106023,1,0,0:0:0:0:
302,55,106117,1,8,0:0:0:0:
302,56,106164,1,8,0:0:0:0:
302,56,106211,1,8,0:0:0:0:
302,55,106305,1,0,0:0:0:0:
302,56,106398,1,8,0:0:0:0:
281,47,106461,1,8,0:0:0:0:
280,48,106523,1,0,0:0:0:0:
280,48,106586,1,0,0:0:0:0:
307,58,106680,1,12,0:0:0:0:
297,57,107055,1,8,0:0:0:0:
297,57,107148,1,8,0:0:0:0:
298,68,107242,1,0,0:0:0:0:
298,68,107289,1,0,0:0:0:0:
298,68,107336,1,0,0:0:0:0:
298,68,107430,1,8,0:0:0:0:
321,65,107523,1,0,0:0:0:0:
312,62,107617,1,8,0:0:0:0:
318,66,107664,1,8,0:0:0:0:
324,49,107711,1,0,0:0:0:0:
323,55,107805,1,0,0:0:0:0:
323,55,107992,1,8,0:0:0:0:
301,46,108055,1,0,0:0:0:0:
301,46,108117,1,0,0:0:0:0:
323,55,108180,1,8,0:0:0:0:
316,57,108273,1,8,0:0:0:0:
330,57,108367,1,0,0:0:0:0:
321,46,108461,1,8,0:0:0:0:
321,46,108555,1,0,0:0:0:0:
321,46,108648,1,0,0:0:0:0:
321,46,108742,1,8,0:0:0:0:
316,54,108836,1,8,0:0:0:0:
316,54,108930,1,0,0:0:0:0:
316,54,109023,1,8,0:0:0:0:
316,54,109117,1,0,0:0:0:0:
316,54,109211,1,0,0:0:0:0:
316,54,109305,1,8,0:0:0:0:
316,54,109398,1,8,0:0:0:0:
316,54,109492,1,0,0:0:0:0:
317,46,109680,1,8,0:0:0:0:
309,47,110055,1,8,0:0:0:0:
309,47,110148,1,8,0:0:0:0:
292,54,110242,1,0,0:0:0:0:
299,51,110289,1,0,0:0:0:0:
299,51,110336,1,0,0:0:0:0:
302,49,110430,1,8,0:0:0:0:
304,45,110523,1,0,0:0:0:0:
315,53,110617,1,8,0:0:0:0:
315,53,110664,1,8,0:0:0:0:
315,53,110711,1,0,0:0:0:0:
315,53,110805,1,0,0:0:0:0:
315,53,110851,1,8,0:0:0:0:
315,53,110898,1,8,0:0:0:0:
315,53,110992,1,0,0:0:0:0:
315,53,111039,1,0,0:0:0:0:
315,53,111086,1,8,0:0:0:0:
315,53,111180,1,4,0:0:0:0:
313,44,111555,1,8,0:0:0:0:
313,44,111648,1,0,0:0:0:0:
313,44,111742,1,8,0:0:0:0:
313,44,111789,1,8,0:0:0:0:
313,44,111836,1,0,0:0:0:0:
314,52,111930,1,8,0:0:0:0:
333,66,112023,1,0,0:0:0:0:
316,59,112117,1,8,0:0:0:0:
314,52,112164,1,8,0:0:0:0:
316,57,112211,1,8,0:0:0:0:
316,59,112305,1,0,0:0:0:0:
314,52,112398,1,8,0:0:0:0:
302,52,112461,1,8,0:0:0:0:
302,52,112523,1,0,0:0:0:0:
302,52,112586,1,0,0:0:0:0:
319,39,112680,1,12,0:0:0:0:
309,47,113055,1,8,0:0:0:0:
309,47,113148,1,8,0:0:0:0:
292,54,113242,1,0,0:0:0:0:
299,51,113289,1,0,0:0:0:0:
299,51,113336,1,0,0:0:0:0:
302,49,113430,1,8,0:0:0:0:
304,45,113523,1,0,0:0:0:0:
315,53,113617,1,8,0:0:0:0:
315,53,113664,1,8,0:0:0:0:
315,53,113711,1,0,0:0:0:0:
315,53,113805,1,0,0:0:0:0:
315,53,113851,1,8,0:0:0:0:
315,53,113898,1,8,0:0:0:0:
315,53,113992,1,0,0:0:0:0:
315,53,114039,1,0,0:0:0:0:
315,53,114086,1,8,0:0:0:0:
315,53,114180,1,4,0:0:0:0:
313,44,114555,1,8,0:0:0:0:
313,44,114648,1,0,0:0:0:0:
313,44,114742,1,8,0:0:0:0:
313,44,114789,1,8,0:0:0:0:
313,44,114836,1,0,0:0:0:0:
314,52,114930,1,8,0:0:0:0:
333,66,115023,1,0,0:0:0:0:
316,59,115117,1,8,0:0:0:0:
314,52,115164,1,8,0:0:0:0:
316,57,115211,1,8,0:0:0:0:
316,59,115305,1,0,0:0:0:0:
311,58,115398,1,8,0:0:0:0:
302,52,115492,1,8,0:0:0:0:
302,65,115586,1,0,0:0:0:0:
319,39,115680,1,12,0:0:0:0:
309,47,116055,1,8,0:0:0:0:
309,47,116148,1,8,0:0:0:0:
292,54,116242,1,0,0:0:0:0:
299,51,116289,1,0,0:0:0:0:
299,51,116336,1,0,0:0:0:0:
302,49,116430,1,8,0:0:0:0:
304,45,116523,1,0,0:0:0:0:
315,53,116617,1,8,0:0:0:0:
315,53,116664,1,8,0:0:0:0:
315,53,116711,1,0,0:0:0:0:
315,53,116805,1,0,0:0:0:0:
315,53,116851,1,8,0:0:0:0:
315,53,116898,1,8,0:0:0:0:
315,53,116992,1,0,0:0:0:0:
315,53,117039,1,0,0:0:0:0:
315,53,117086,1,8,0:0:0:0:
315,53,117180,1,4,0:0:0:0:
313,44,117555,1,8,0:0:0:0:
313,44,117648,1,0,0:0:0:0:
313,44,117742,1,8,0:0:0:0:
313,44,117789,1,8,0:0:0:0:
313,44,117836,1,0,0:0:0:0:
314,52,117930,1,8,0:0:0:0:
333,66,118023,1,0,0:0:0:0:
316,59,118117,1,8,0:0:0:0:
314,52,118164,1,8,0:0:0:0:
316,57,118211,1,8,0:0:0:0:
316,59,118305,1,0,0:0:0:0:
314,52,118398,1,8,0:0:0:0:
302,52,118461,1,8,0:0:0:0:
302,52,118523,1,0,0:0:0:0:
302,52,118586,1,0,0:0:0:0:
319,39,118680,1,12,0:0:0:0:
303,113,119055,1,8,0:0:0:0:
298,75,119148,1,8,0:0:0:0:
298,75,119242,1,0,0:0:0:0:
298,75,119289,1,0,0:0:0:0:
298,75,119336,1,0,0:0:0:0:
298,75,119430,1,8,0:0:0:0:
298,75,119523,1,0,0:0:0:0:
298,75,119617,1,8,0:0:0:0:
298,75,119664,1,8,0:0:0:0:
298,75,119711,1,0,0:0:0:0:
298,75,119805,1,0,0:0:0:0:
298,75,119992,1,8,0:0:0:0:
298,75,120055,1,0,0:0:0:0:
290,71,120117,1,0,0:0:0:0:
298,75,120180,1,8,0:0:0:0:
298,75,120273,1,8,0:0:0:0:
298,75,120367,1,0,0:0:0:0:
298,75,120461,1,8,0:0:0:0:
298,75,120555,1,0,0:0:0:0:
298,75,120648,1,0,0:0:0:0:
298,75,120742,1,8,0:0:0:0:
298,75,120836,1,8,0:0:0:0:
298,75,120930,1,0,0:0:0:0:
298,75,121023,1,8,0:0:0:0:
290,77,121117,1,0,0:0:0:0:
289,77,121211,1,0,0:0:0:0:
290,77,121305,1,8,0:0:0:0:
293,65,121398,1,8,0:0:0:0:
301,65,121492,1,0,0:0:0:0:
290,66,121680,1,12,0:0:0:0:
256,85,121961,1,0,0:0:0:0:
281,59,122055,1,8,0:0:0:0:
276,63,122148,1,8,0:0:0:0:
282,67,122242,1,0,0:0:0:0:
281,59,122289,1,0,0:0:0:0:
276,63,122336,1,0,0:0:0:0:
282,67,122430,1,8,0:0:0:0:
281,59,122523,1,8,0:0:0:0:
282,67,122617,1,0,0:0:0:0:
282,67,122664,1,0,0:0:0:0:
281,59,122711,1,0,0:0:0:0:
282,67,122805,1,8,0:0:0:0:
273,62,122992,1,0,0:0:0:0:
279,58,123055,1,8,0:0:0:0:
279,58,123117,1,8,0:0:0:0:
281,58,123180,1,4,0:0:0:0:
281,59,123461,1,0,0:0:0:0:
280,75,123555,1,8,0:0:0:0:
281,59,123648,1,8,0:0:0:0:
282,65,123742,1,0,0:0:0:0:
298,72,123789,1,0,0:0:0:0:
298,72,123836,1,0,0:0:0:0:
290,68,123930,1,8,0:0:0:0:
293,58,124023,1,0,0:0:0:0:
290,68,124117,1,8,0:0:0:0:
290,68,124164,1,8,0:0:0:0:
293,58,124211,1,0,0:0:0:0:
296,73,124305,1,8,0:0:0:0:
287,71,124492,1,8,0:0:0:0:
270,86,124555,1,0,0:0:0:0:
270,86,124617,1,0,0:0:0:0:
261,121,124680,1,12,0:0:0:0:
271,93,124961,1,0,0:0:0:0:
271,93,125055,1,8,0:0:0:0:
271,93,125148,1,8,0:0:0:0:
276,85,125242,1,0,0:0:0:0:
271,93,125289,1,0,0:0:0:0:
283,85,125336,1,0,0:0:0:0:
276,85,125430,1,8,0:0:0:0:
284,94,125523,1,8,0:0:0:0:
275,95,125617,1,0,0:0:0:0:
275,95,125664,1,0,0:0:0:0:
275,95,125711,1,0,0:0:0:0:
275,95,125805,1,8,0:0:0:0:
275,77,125992,1,0,0:0:0:0:
275,77,126055,1,8,0:0:0:0:
275,77,126117,1,8,0:0:0:0:
269,81,126180,1,4,0:0:0:0:
282,93,126367,1,8,0:0:0:0:
276,81,126461,1,0,0:0:0:0:
276,81,126555,1,8,0:0:0:0:
276,81,126648,1,8,0:0:0:0:
276,81,126742,1,0,0:0:0:0:
276,81,126789,1,0,0:0:0:0:
276,81,126836,1,0,0:0:0:0:
276,81,126930,1,8,0:0:0:0:
276,81,127023,1,0,0:0:0:0:
276,81,127117,1,8,0:0:0:0:
276,81,127164,1,8,0:0:0:0:
276,81,127211,1,0,0:0:0:0:
276,81,127305,1,8,0:0:0:0:
276,81,127398,1,0,0:0:0:0:
276,81,127492,1,8,0:0:0:0:
276,81,127586,1,0,0:0:0:0:
276,81,127680,1,12,0:0:0:0:
289,74,127961,1,0,0:0:0:0:
281,59,128055,1,8,0:0:0:0:
276,63,128148,1,8,0:0:0:0:
282,67,128242,1,0,0:0:0:0:
281,59,128289,1,0,0:0:0:0:
276,63,128336,1,0,0:0:0:0:
282,67,128430,1,8,0:0:0:0:
281,59,128523,1,8,0:0:0:0:
282,67,128617,1,0,0:0:0:0:
282,67,128664,1,0,0:0:0:0:
281,59,128711,1,0,0:0:0:0:
282,67,128805,1,8,0:0:0:0:
273,62,128992,1,0,0:0:0:0:
279,58,129055,1,8,0:0:0:0:
279,58,129117,1,8,0:0:0:0:
281,58,129180,1,4,0:0:0:0:
281,59,129461,1,0,0:0:0:0:
280,75,129555,1,8,0:0:0:0:
281,59,129648,1,8,0:0:0:0:
282,65,129742,1,0,0:0:0:0:
298,72,129789,1,0,0:0:0:0:
298,72,129836,1,0,0:0:0:0:
290,68,129930,1,8,0:0:0:0:
293,58,130023,1,0,0:0:0:0:
290,68,130117,1,8,0:0:0:0:
290,68,130164,1,8,0:0:0:0:
293,58,130211,1,0,0:0:0:0:
296,73,130305,1,8,0:0:0:0:
287,71,130492,1,8,0:0:0:0:
270,86,130555,1,0,0:0:0:0:
270,86,130617,1,0,0:0:0:0:
261,121,130680,1,12,0:0:0:0:
271,93,130961,1,0,0:0:0:0:
271,93,131055,1,8,0:0:0:0:
271,93,131148,1,8,0:0:0:0:
276,85,131242,1,0,0:0:0:0:
271,93,131289,1,0,0:0:0:0:
283,85,131336,1,0,0:0:0:0:
276,85,131430,1,8,0:0:0:0:
284,94,131523,1,8,0:0:0:0:
275,95,131617,1,0,0:0:0:0:
275,95,131664,1,0,0:0:0:0:
275,95,131711,1,0,0:0:0:0:
275,95,131805,1,8,0:0:0:0:
274,74,131992,1,0,0:0:0:0:
274,74,132180,1,8,0:0:0:0:
271,62,132273,1,8,0:0:0:0:
270,61,132367,1,0,0:0:0:0:
271,62,132461,1,8,0:0:0:0:
270,61,132555,1,0,0:0:0:0:
271,62,132648,1,0,0:0:0:0:
270,61,132742,1,8,0:0:0:0:
271,62,132836,1,8,0:0:0:0:
270,61,132930,1,0,0:0:0:0:
271,62,133023,1,8,0:0:0:0:
270,61,133117,1,0,0:0:0:0:
271,62,133211,1,0,0:0:0:0:
270,61,133305,1,8,0:0:0:0:
271,62,133398,1,8,0:0:0:0:
270,61,133492,1,0,0:0:0:0:
269,135,134055,5,8,0:0:0:0:
261,137,134336,1,8,0:0:0:0:
259,137,134617,1,0,0:0:0:0:
258,137,134898,1,0,0:0:0:0:
266,133,135555,1,0,0:0:0:0:
266,133,135836,1,8,0:0:0:0:
266,133,136117,1,0,0:0:0:0:
267,133,136398,1,0,0:0:0:0:
279,128,137055,1,8,0:0:0:0:
280,137,137336,1,8,0:0:0:0:
278,136,137617,1,0,0:0:0:0:
278,136,137898,1,0,0:0:0:0:
282,138,138555,1,0,0:0:0:0:
282,138,138836,1,8,0:0:0:0:
280,133,139117,1,0,0:0:0:0:
283,132,139398,1,0,0:0:0:0:
277,124,140055,1,8,0:0:0:0:
276,114,140336,1,8,0:0:0:0:
281,124,140617,1,0,0:0:0:0:
281,125,140898,1,0,0:0:0:0:
278,123,141555,1,0,0:0:0:0:
279,115,141836,1,8,0:0:0:0:
279,123,142117,1,0,0:0:0:0:
280,123,142398,1,0,0:0:0:0:
278,116,143055,1,8,0:0:0:0:
278,116,143336,1,8,0:0:0:0:
276,117,143617,1,0,0:0:0:0:
276,117,143898,1,0,0:0:0:0:
269,120,144555,1,0,0:0:0:0:
266,121,144836,1,8,0:0:0:0:
266,121,145117,1,0,0:0:0:0:
266,121,145398,1,0,0:0:0:0:
269,135,146055,5,8,0:0:0:0:
266,100,146242,1,0,0:0:0:0:
261,137,146336,1,8,0:0:0:0:
259,137,146617,1,0,0:0:0:0:
258,137,146898,1,0,0:0:0:0:
266,133,147555,1,0,0:0:0:0:
259,111,147742,1,0,0:0:0:0:
266,133,147836,1,8,0:0:0:0:
266,133,148117,1,0,0:0:0:0:
267,133,148398,1,0,0:0:0:0:
279,128,149055,1,8,0:0:0:0:
260,111,149242,1,0,0:0:0:0:
280,137,149336,1,8,0:0:0:0:
278,136,149617,1,0,0:0:0:0:
278,136,149898,1,0,0:0:0:0:
282,138,150555,1,0,0:0:0:0:
260,110,150742,1,0,0:0:0:0:
282,138,150836,1,8,0:0:0:0:
280,133,151117,1,0,0:0:0:0:
283,132,151305,1,8,0:0:0:0:
271,112,151492,1,0,0:0:0:0:
277,124,152055,1,8,0:0:0:0:
268,123,152242,1,0,0:0:0:0:
276,114,152336,1,8,0:0:0:0:
281,124,152617,1,0,0:0:0:0:
281,125,152898,1,0,0:0:0:0:
278,123,153555,1,0,0:0:0:0:
268,123,153742,1,0,0:0:0:0:
279,115,153836,1,8,0:0:0:0:
279,123,154117,1,0,0:0:0:0:
280,123,154398,1,0,0:0:0:0:
278,116,155055,1,8,0:0:0:0:
268,123,155242,1,0,0:0:0:0:
278,116,155336,1,8,0:0:0:0:
276,117,155617,1,0,0:0:0:0:
276,117,155898,1,0,0:0:0:0:
269,120,156555,1,0,0:0:0:0:
269,120,156742,1,0,0:0:0:0:
266,121,156836,1,8,0:0:0:0:
266,121,157117,1,0,0:0:0:0:
266,121,157305,1,8,0:0:0:0:
268,108,157492,1,0,0:0:0:0:
269,135,158055,5,8,0:0:0:0:
266,100,158242,1,0,0:0:0:0:
261,137,158336,1,8,0:0:0:0:
259,137,158617,1,0,0:0:0:0:
258,137,158898,1,0,0:0:0:0:
266,133,159555,1,0,0:0:0:0:
259,111,159742,1,0,0:0:0:0:
266,133,159836,1,8,0:0:0:0:
266,133,160117,1,0,0:0:0:0:
267,133,160398,1,0,0:0:0:0:
279,128,161055,1,8,0:0:0:0:
260,111,161242,1,0,0:0:0:0:
280,137,161336,1,8,0:0:0:0:
278,136,161617,1,0,0:0:0:0:
278,136,161898,1,0,0:0:0:0:
282,138,162555,1,0,0:0:0:0:
260,110,162742,1,0,0:0:0:0:
282,138,162836,1,8,0:0:0:0:
280,133,163117,1,0,0:0:0:0:
283,132,163305,1,8,0:0:0:0:
271,112,163492,1,0,0:0:0:0:
277,124,164055,1,8,0:0:0:0:
268,123,164242,1,0,0:0:0:0:
276,114,164336,1,8,0:0:0:0:
281,124,164617,1,0,0:0:0:0:
281,125,164898,1,0,0:0:0:0:
278,123,165555,1,0,0:0:0:0:
268,123,165742,1,0,0:0:0:0:
279,115,165836,1,8,0:0:0:0:
279,123,166117,1,0,0:0:0:0:
280,123,166398,1,0,0:0:0:0:
257,117,168180,1,8,0:0:0:0:
257,117,168273,1,8,0:0:0:0:
250,121,168461,1,0,0:0:0:0:
250,121,168555,1,8,0:0:0:0:
253,102,168836,1,8,0:0:0:0:
223,269,168930,2,0,L|231:258,4,12.2499996261597
275,136,169305,1,8,0:0:0:0:
275,136,169492,1,0,0:0:0:0:
275,136,169586,1,8,0:0:0:0:
265,125,169680,1,4,0:0:0:0:
264,102,169961,1,8,0:0:0:0:
264,102,170055,1,0,0:0:0:0:
264,102,170242,1,8,0:0:0:0:
275,101,170430,1,4,0:0:0:0:
266,102,170711,1,8,0:0:0:0:
266,102,170805,1,0,0:0:0:0:
266,102,170992,1,8,0:0:0:0:
275,153,171180,1,4,0:0:0:0:
268,102,171461,1,0,0:0:0:0:
268,102,171555,1,8,0:0:0:0:
268,102,171742,1,8,0:0:0:0:
267,152,171930,1,4,0:0:0:0:
268,102,172211,1,0,0:0:0:0:
257,88,172305,1,8,0:0:0:0:
268,102,172492,1,0,0:0:0:0:
267,152,172680,1,4,0:0:0:0:
257,89,172961,1,8,0:0:0:0:
257,89,173055,1,0,0:0:0:0:
257,89,173242,1,8,0:0:0:0:
267,152,173430,1,4,0:0:0:0:
257,88,173711,1,8,0:0:0:0:
257,88,173805,1,0,0:0:0:0:
257,88,173992,1,8,0:0:0:0:
267,152,174180,1,4,0:0:0:0:
252,78,174461,1,0,0:0:0:0:
252,78,174555,1,8,0:0:0:0:
252,78,174742,1,8,0:0:0:0:
267,152,174930,1,4,0:0:0:0:
247,85,175211,1,0,0:0:0:0:
253,78,175305,1,8,0:0:0:0:
247,85,175492,1,0,0:0:0:0:
247,85,175586,1,8,0:0:0:0:
247,85,175633,1,8,0:0:0:0:
253,136,175680,1,4,0:0:0:0:
245,77,175961,1,8,0:0:0:0:
245,77,176055,1,0,0:0:0:0:
245,77,176242,1,8,0:0:0:0:
253,136,176430,1,4,0:0:0:0:
246,69,176711,1,8,0:0:0:0:
246,69,176805,1,0,0:0:0:0:
246,69,176992,1,8,0:0:0:0:
252,137,177180,1,4,0:0:0:0:
244,64,177461,1,0,0:0:0:0:
244,64,177555,1,8,0:0:0:0:
244,64,177742,1,8,0:0:0:0:
252,137,177930,1,4,0:0:0:0:
244,64,178211,1,0,0:0:0:0:
244,64,178305,1,8,0:0:0:0:
244,64,178492,1,0,0:0:0:0:
252,137,178680,1,4,0:0:0:0:
244,64,178961,1,8,0:0:0:0:
244,64,179055,1,0,0:0:0:0:
244,64,179242,1,8,0:0:0:0:
252,137,179430,1,4,0:0:0:0:
242,61,179711,1,8,0:0:0:0:
242,61,179805,1,0,0:0:0:0:
242,61,179992,1,8,0:0:0:0:
252,137,180180,1,4,0:0:0:0:
242,61,180461,1,0,0:0:0:0:
242,61,180555,1,8,0:0:0:0:
242,61,180742,1,8,0:0:0:0:
242,61,180930,1,0,0:0:0:0:
242,61,181023,1,0,0:0:0:0:
242,61,181117,1,8,0:0:0:0:
242,61,181305,1,8,0:0:0:0:
278,111,181367,1,8,0:0:0:0:
281,98,181430,1,8,0:0:0:0:
281,98,181492,1,8,0:0:0:0:
281,98,181555,1,8,0:0:0:0:
281,98,181617,1,8,0:0:0:0:
278,111,181680,1,4,0:0:0:0:
265,90,181961,1,8,0:0:0:0:
265,90,182055,1,0,0:0:0:0:
265,90,182242,1,8,0:0:0:0:
265,90,182336,1,8,0:0:0:0:
266,117,182430,1,4,0:0:0:0:
280,105,182711,1,8,0:0:0:0:
256,90,182805,1,0,0:0:0:0:
262,90,182898,1,0,0:0:0:0:
256,90,182992,1,8,0:0:0:0:
266,116,183180,1,4,0:0:0:0:
273,90,183461,1,0,0:0:0:0:
273,90,183555,1,8,0:0:0:0:
273,90,183742,1,8,0:0:0:0:
273,90,183836,1,8,0:0:0:0:
266,116,183930,1,4,0:0:0:0:
267,91,184211,1,0,0:0:0:0:
267,91,184305,1,8,0:0:0:0:
267,91,184398,1,8,0:0:0:0:
267,91,184492,1,0,0:0:0:0:
266,116,184680,1,4,0:0:0:0:
265,97,184961,1,8,0:0:0:0:
265,97,185055,1,0,0:0:0:0:
265,97,185242,1,8,0:0:0:0:
265,97,185336,1,8,0:0:0:0:
266,116,185430,1,4,0:0:0:0:
265,97,185711,1,8,0:0:0:0:
265,97,185805,1,0,0:0:0:0:
270,88,185898,1,0,0:0:0:0:
265,97,185992,1,8,0:0:0:0:
266,116,186180,1,4,0:0:0:0:
260,92,186461,1,0,0:0:0:0:
260,92,186555,1,8,0:0:0:0:
260,92,186742,1,8,0:0:0:0:
260,92,186836,1,8,0:0:0:0:
266,116,186930,1,4,0:0:0:0:
259,90,187211,1,0,0:0:0:0:
259,90,187305,1,8,0:0:0:0:
259,90,187492,1,0,0:0:0:0:
261,96,187586,1,8,0:0:0:0:
263,96,187633,1,8,0:0:0:0:
266,116,187680,1,4,0:0:0:0:
286,95,187961,1,8,0:0:0:0:
268,98,188055,1,0,0:0:0:0:
268,98,188242,1,8,0:0:0:0:
268,98,188336,1,8,0:0:0:0:
266,116,188430,1,4,0:0:0:0:
266,85,188711,1,8,0:0:0:0:
266,85,188805,1,0,0:0:0:0:
266,85,188898,1,0,0:0:0:0:
266,85,188992,1,8,0:0:0:0:
266,116,189180,1,4,0:0:0:0:
266,86,189461,1,0,0:0:0:0:
266,86,189555,1,8,0:0:0:0:
266,86,189742,1,8,0:0:0:0:
266,86,189836,1,8,0:0:0:0:
266,115,189930,1,4,0:0:0:0:
266,86,190211,1,0,0:0:0:0:
258,92,190305,1,8,0:0:0:0:
259,91,190398,1,8,0:0:0:0:
258,92,190492,1,0,0:0:0:0:
266,115,190680,1,4,0:0:0:0:
270,83,190961,1,8,0:0:0:0:
270,83,191055,1,0,0:0:0:0:
270,83,191242,1,8,0:0:0:0:
270,83,191336,1,8,0:0:0:0:
266,115,191430,1,4,0:0:0:0:
266,85,191711,1,8,0:0:0:0:
266,85,191805,1,0,0:0:0:0:
266,85,191898,1,0,0:0:0:0:
266,85,191992,1,8,0:0:0:0:
265,114,192180,1,4,0:0:0:0:
263,86,192555,1,0,0:0:0:0:
263,86,192836,1,8,0:0:0:0:
263,86,193117,1,0,0:0:0:0:
263,86,193398,1,0,0:0:0:0:
245,102,193445,1,0,0:0:0:0:
248,100,193492,1,0,0:0:0:0:
248,100,193539,1,0,0:0:0:0:
264,112,193680,1,12,0:0:0:0:
264,112,196680,1,0,0:0:0:0:
264,112,196961,1,0,0:0:0:0:
247,111,198930,1,0,0:0:0:0:
246,93,199117,1,0,0:0:0:0:
246,93,199305,1,0,0:0:0:0:
246,93,199398,1,0,0:0:0:0:
246,93,199492,1,0,0:0:0:0:
246,93,199586,1,0,0:0:0:0:
246,93,199680,1,8,0:0:0:0:
246,93,199773,1,8,0:0:0:0:
246,93,199867,1,0,0:0:0:0:
246,93,199961,1,0,0:0:0:0:
246,93,200055,1,8,0:0:0:0:
246,93,200148,1,0,0:0:0:0:
246,93,200242,1,0,0:0:0:0:
246,93,200336,1,0,0:0:0:0:
246,93,200430,1,8,0:0:0:0:
246,93,200523,1,0,0:0:0:0:
246,93,200617,1,0,0:0:0:0:
246,93,200711,1,0,0:0:0:0:
246,93,200805,1,8,0:0:0:0:
246,93,200898,1,0,0:0:0:0:
246,93,200992,1,0,0:0:0:0:
246,93,201086,1,0,0:0:0:0:
246,93,201180,1,8,0:0:0:0:
250,77,201273,1,8,0:0:0:0:
250,77,201367,1,0,0:0:0:0:
250,77,201461,1,0,0:0:0:0:
250,77,201555,1,8,0:0:0:0:
250,77,201648,1,8,0:0:0:0:
250,77,201742,1,0,0:0:0:0:
250,77,201836,1,0,0:0:0:0:
250,77,201930,1,8,0:0:0:0:
250,77,202023,1,8,0:0:0:0:
250,77,202117,1,0,0:0:0:0:
250,77,202211,1,0,0:0:0:0:
250,77,202305,1,8,0:0:0:0:
250,77,202398,1,8,0:0:0:0:
250,77,202492,1,8,0:0:0:0:
250,77,202586,1,8,0:0:0:0:
250,77,202680,1,0,0:0:0:0:
259,56,202726,1,0,0:0:0:0:
259,56,202773,1,0,0:0:0:0:
256,59,202867,1,8,0:0:0:0:
259,56,202961,1,8,0:0:0:0:
256,59,203055,1,0,0:0:0:0:
256,59,203101,1,0,0:0:0:0:
253,60,203148,1,0,0:0:0:0:
256,59,203242,1,8,0:0:0:0:
256,59,203336,1,8,0:0:0:0:
256,59,203430,1,0,0:0:0:0:
256,59,203476,1,0,0:0:0:0:
256,59,203523,1,0,0:0:0:0:
256,59,203617,1,8,0:0:0:0:
256,59,203711,1,8,0:0:0:0:
256,59,203805,1,0,0:0:0:0:
256,59,203851,1,0,0:0:0:0:
256,59,203898,1,0,0:0:0:0:
256,59,203992,1,8,0:0:0:0:
293,93,204180,5,0,0:0:0:0:
289,76,204273,1,0,0:0:0:0:
297,78,204367,1,0,0:0:0:0:
297,78,204555,1,8,0:0:0:0:
297,78,204742,1,0,0:0:0:0:
297,78,204836,1,0,0:0:0:0:
290,82,205023,1,0,0:0:0:0:
290,82,205117,1,0,0:0:0:0:
290,82,205305,1,12,0:0:0:0:
290,85,205680,1,0,0:0:0:0:
291,76,206055,1,8,0:0:0:0:
291,76,206148,1,0,0:0:0:0:
291,76,206242,1,0,0:0:0:0:
286,75,206617,1,0,0:0:0:0:
286,75,206805,1,8,0:0:0:0:
286,75,206898,1,8,0:0:0:0:
286,75,206992,1,0,0:0:0:0:
286,75,207180,1,0,0:0:0:0:
286,75,207367,1,8,0:0:0:0:
286,75,207430,1,0,0:0:0:0:
286,75,207492,1,0,0:0:0:0:
286,75,207555,1,8,0:0:0:0:
294,70,207742,1,0,0:0:0:0:
297,60,207836,1,8,0:0:0:0:
287,72,207883,1,8,0:0:0:0:
283,65,207930,1,0,0:0:0:0:
283,65,208023,1,8,0:0:0:0:
283,65,208211,1,8,0:0:0:0:
283,65,208305,1,8,0:0:0:0:
283,65,208398,1,0,0:0:0:0:
283,65,208445,1,0,0:0:0:0:
283,65,208492,1,8,0:0:0:0:
283,65,208680,1,0,0:0:0:0:
282,70,209055,1,8,0:0:0:0:
282,70,209148,1,0,0:0:0:0:
282,70,209242,1,0,0:0:0:0:
280,69,209617,1,0,0:0:0:0:
280,69,209805,1,8,0:0:0:0:
280,69,209898,1,8,0:0:0:0:
280,69,209992,1,0,0:0:0:0:
291,78,210180,1,0,0:0:0:0:
282,76,210367,1,8,0:0:0:0:
298,66,210430,1,0,0:0:0:0:
282,76,210492,1,0,0:0:0:0:
282,69,210555,1,8,0:0:0:0:
282,76,210742,1,0,0:0:0:0:
286,61,210836,1,8,0:0:0:0:
279,65,210883,1,8,0:0:0:0:
279,65,210930,1,0,0:0:0:0:
295,68,211023,1,8,0:0:0:0:
295,68,211211,1,0,0:0:0:0:
295,68,211305,1,12,0:0:0:0:
294,52,211680,1,0,0:0:0:0:
292,66,212055,1,8,0:0:0:0:
292,66,212148,1,0,0:0:0:0:
292,66,212242,1,0,0:0:0:0:
292,66,212617,1,0,0:0:0:0:
292,66,212805,1,8,0:0:0:0:
292,66,212898,1,8,0:0:0:0:
292,66,212992,1,0,0:0:0:0:
292,66,213180,1,0,0:0:0:0:
292,66,213367,1,8,0:0:0:0:
319,67,213430,1,0,0:0:0:0:
316,68,213492,1,0,0:0:0:0:
309,69,213555,1,8,0:0:0:0:
315,65,213742,1,0,0:0:0:0:
300,68,213836,1,8,0:0:0:0:
300,68,213883,1,8,0:0:0:0:
300,68,213930,1,0,0:0:0:0:
300,68,214023,1,8,0:0:0:0:
300,68,214211,1,8,0:0:0:0:
300,68,214305,1,8,0:0:0:0:
300,68,214398,1,0,0:0:0:0:
300,68,214445,1,0,0:0:0:0:
300,68,214492,1,8,0:0:0:0:
291,92,214680,1,0,0:0:0:0:
351,67,215055,1,8,0:0:0:0:
351,67,215148,1,0,0:0:0:0:
351,67,215242,1,0,0:0:0:0:
361,63,215617,1,0,0:0:0:0:
361,63,215805,1,8,0:0:0:0:
361,63,215898,1,8,0:0:0:0:
348,61,215992,1,0,0:0:0:0:
357,62,216180,1,0,0:0:0:0:
357,62,216367,1,8,0:0:0:0:
357,62,216555,1,0,0:0:0:0:
357,62,216742,1,0,0:0:0:0:
357,62,216930,1,8,0:0:0:0:
357,62,217117,1,0,0:0:0:0:
357,62,217305,1,8,0:0:0:0:
357,62,217492,1,8,0:0:0:0:
357,62,217680,1,0,0:0:0:0:
358,70,218055,1,8,0:0:0:0:
349,54,218148,1,0,0:0:0:0:
349,48,218242,1,0,0:0:0:0:
354,49,218336,1,0,0:0:0:0:
362,64,218430,1,8,0:0:0:0:
362,64,218617,1,0,0:0:0:0:
362,64,218805,1,8,0:0:0:0:
356,57,218898,1,0,0:0:0:0:
356,58,218992,1,8,0:0:0:0:
356,58,219180,1,0,0:0:0:0:
356,58,219367,1,8,0:0:0:0:
364,49,219555,1,0,0:0:0:0:
355,55,219742,1,0,0:0:0:0:
360,57,219836,1,0,0:0:0:0:
360,57,219930,1,8,0:0:0:0:
351,46,220117,1,0,0:0:0:0:
351,46,220305,1,8,0:0:0:0:
361,49,220367,1,8,0:0:0:0:
361,49,220430,1,0,0:0:0:0:
361,49,220492,1,0,0:0:0:0:
357,55,220680,1,0,0:0:0:0:
352,55,221055,1,8,0:0:0:0:
352,55,221148,1,0,0:0:0:0:
352,55,221242,1,0,0:0:0:0:
352,55,221336,1,0,0:0:0:0:
352,55,221430,1,8,0:0:0:0:
352,55,221617,1,0,0:0:0:0:
352,55,221805,1,8,0:0:0:0:
352,55,221898,1,0,0:0:0:0:
352,55,221992,1,8,0:0:0:0:
364,57,222180,1,0,0:0:0:0:
364,57,222273,1,0,0:0:0:0:
364,57,222367,1,8,0:0:0:0:
364,57,222461,1,0,0:0:0:0:
363,49,222555,1,8,0:0:0:0:
369,63,222742,1,0,0:0:0:0:
369,63,222836,1,0,0:0:0:0:
369,63,222930,1,8,0:0:0:0:
364,57,223117,1,0,0:0:0:0:
364,57,223305,1,8,0:0:0:0:
364,57,223492,1,8,0:0:0:0:
364,64,223555,1,8,0:0:0:0:
363,64,223617,1,8,0:0:0:0:
362,63,223680,1,0,0:0:0:0:
368,54,223773,1,0,0:0:0:0:
368,54,223867,1,0,0:0:0:0:
352,62,224055,1,8,0:0:0:0:
352,62,224242,1,0,0:0:0:0:
352,62,224336,1,0,0:0:0:0:
352,62,224430,1,8,0:0:0:0:
352,62,224617,1,0,0:0:0:0:
352,62,224805,1,8,0:0:0:0:
352,62,224898,1,0,0:0:0:0:
357,51,224992,1,8,0:0:0:0:
357,51,225180,1,0,0:0:0:0:
357,51,225367,1,8,0:0:0:0:
357,51,225555,1,0,0:0:0:0:
357,51,225742,1,0,0:0:0:0:
357,51,225836,1,0,0:0:0:0:
357,51,225930,1,8,0:0:0:0:
357,51,226117,1,0,0:0:0:0:
357,51,226305,1,8,0:0:0:0:
349,66,226367,1,8,0:0:0:0:
349,66,226430,1,0,0:0:0:0:
349,66,226492,1,0,0:0:0:0:
349,66,226680,1,0,0:0:0:0:
344,62,226773,1,0,0:0:0:0:
344,62,226867,1,0,0:0:0:0:
350,59,227055,1,8,0:0:0:0:
350,59,227148,1,0,0:0:0:0:
350,59,227242,1,0,0:0:0:0:
350,59,227336,1,0,0:0:0:0:
347,50,227523,1,8,0:0:0:0:
331,53,227617,1,0,0:0:0:0:
336,52,227664,1,0,0:0:0:0:
336,52,227711,1,0,0:0:0:0:
354,58,227758,1,0,0:0:0:0:
354,58,227805,1,8,0:0:0:0:
335,42,228180,1,0,0:0:0:0:
346,51,228367,1,8,0:0:0:0:
346,51,228555,1,0,0:0:0:0:
346,51,228836,1,0,0:0:0:0:
346,51,228930,1,8,0:0:0:0:
346,63,229117,1,0,0:0:0:0:
358,56,229492,1,8,0:0:0:0:
256,192,229680,12,0,241680,0:0:0:0:
269,135,242055,5,8,0:0:0:0:
266,100,242242,1,0,0:0:0:0:
261,137,242336,1,8,0:0:0:0:
259,137,242617,1,0,0:0:0:0:
258,137,242898,1,0,0:0:0:0:
266,133,243555,1,0,0:0:0:0:
259,111,243742,1,0,0:0:0:0:
266,133,243836,1,8,0:0:0:0:
266,133,244117,1,0,0:0:0:0:
267,133,244398,1,0,0:0:0:0:
279,128,245055,1,8,0:0:0:0:
260,111,245242,1,0,0:0:0:0:
280,137,245336,1,8,0:0:0:0:
278,136,245617,1,0,0:0:0:0:
278,136,245898,1,0,0:0:0:0:
282,138,246555,1,0,0:0:0:0:
260,110,246742,1,0,0:0:0:0:
282,138,246836,1,8,0:0:0:0:
280,133,247117,1,0,0:0:0:0:
283,132,247305,1,8,0:0:0:0:
271,112,247492,1,0,0:0:0:0:
277,124,248055,1,8,0:0:0:0:
268,123,248242,1,0,0:0:0:0:
276,114,248336,1,8,0:0:0:0:
281,124,248617,1,0,0:0:0:0:
281,125,248898,1,0,0:0:0:0:
278,123,249555,1,0,0:0:0:0:
268,123,249742,1,0,0:0:0:0:
279,115,249836,1,8,0:0:0:0:
279,123,250117,1,0,0:0:0:0:
280,123,250398,1,0,0:0:0:0:
291,97,252180,1,8,0:0:0:0:
298,106,252273,1,0,0:0:0:0:
286,98,252461,1,0,0:0:0:0:
275,95,252555,1,8,0:0:0:0:
267,139,252836,1,8,0:0:0:0:
325,218,252930,2,0,L|291:242,3,24.4999992523194
173,206,253305,2,4,L|338:193,34,140
