osu file format v14

[General]
AudioFilename: audio.mp3
AudioLeadIn: 0
PreviewTime: 79102
Countdown: 0
SampleSet: Soft
StackLeniency: 0.7
Mode: 0
LetterboxInBreaks: 1
EpilepsyWarning: 1
WidescreenStoryboard: 1

[Editor]
Bookmarks: 50896,101719
DistanceSpacing: 1.2
BeatDivisor: 3
GridSize: 16
TimelineZoom: 2.6

[Metadata]
Title:Glacierfall (Park Remix)
TitleUnicode:Glacierfall (Park Remix)
Artist:sakuraburst
ArtistUnicode:sakuraburst
Creator:ScubDomino
Version:h*rd
Source:
Tags:english electronic instrumental drumstep glacier fall cinematic edm dubstep glitch dnb drum and & bass drum&bass parkdtc paark paarkdtc sakura_burst sylvir sylvirsylvir coldpine S5 EP A Collection of Three Weapons natsume shiki anime girl natsume_shiki anime_girl scub domino jungkyuyoung [keqing] 8972308 celine citreum bws bwsnoob -bws miraculous 3545579 haruto -haruto aizawa haruto_aizawa 3772301 ancelysia True3L3CTRO iiOkward Celsius 7118575 woduf1121 [white music] hwamyu wm milr_ 4485933 Itsuki Hako hokichi hoki holekeycheese 6607303 munehime mune ningguang 8500334 he's hes going crazy get fucked up
BeatmapID:2755237
BeatmapSetID:1329045

[Difficulty]
HPDrainRate:3
CircleSize:3
OverallDifficulty:6
ApproachRate:8
SliderMultiplier:1.3
SliderTickRate:0.5

[Events]
//Background and Video events
0,0,"Remedy-Games-XboxOneX-Quantum-Break-1846655.jpg",0,0
//Break Periods
2,12802,16264
2,19508,21911
2,24096,27558
2,101919,106616
//Storyboard Layer 0 (Background)
//Storyboard Layer 1 (Fail)
//Storyboard Layer 2 (Pass)
//Storyboard Layer 3 (Foreground)
Sprite,Foreground,Centre,"sb\c.png",0,0 M,0,11367,,145,128 C,0,11367,,168,217,202 F,0,11367,12072,1,0 S,7,11367,12072,0.1,0.175 P,0,11367,12072,A M,0,12249,,110,238 C,0,12249,,168,217,202 F,0,12249,12954,1,0 S,7,12249,12954,0.1,0.175 P,0,12249,12954,A M,0,17014,,495,368 C,0,17014,,90,177,140 F,0,17014,17719,1,0 S,7,17014,17719,0.1,0.175 P,0,17014,17719,A M,0,17896,,530,258 C,0,17896,,90,177,140 F,0,17896,18601,1,0 S,7,17896,18601,0.1,0.175 P,0,17896,18601,A M,0,18602,,519,249 C,0,18602,,255,0,0 F,0,18602,19307,1,0 S,7,18602,19307,0.1,0.175 P,0,18602,19307,A M,0,19308,,530,258 C,0,19308,,255,0,0 F,0,19308,20013,1,0 S,7,19308,20013,0.1,0.175 P,0,19308,20013,A M,0,22661,,442,92 C,0,22661,,169,81,71 F,0,22661,23366,1,0 S,7,22661,23366,0.1,0.175 P,0,22661,23366,A M,0,23543,,332,57 C,0,23543,,169,81,71 F,0,23543,24248,1,0 S,7,23543,24248,0.1,0.175 P,0,23543,24248,A M,0,28308,,198,92 C,0,28308,,168,217,202 F,0,28308,29013,1,0 S,7,28308,29013,0.1,0.175 P,0,28308,29013,A M,0,29190,,308,57 C,0,29190,,168,217,202 F,0,29190,29895,1,0 S,7,29190,29895,0.1,0.175 P,0,29190,29895,A M,0,29896,,357,129 C,0,29896,,90,177,140 F,0,29896,30601,1,0 S,7,29896,30601,0.1,0.175 P,0,29896,30601,A M,0,30602,,444,251 C,0,30602,,90,177,140 F,0,30602,31307,1,0 S,7,30602,31307,0.1,0.175 P,0,30602,31307,A
Sprite,Foreground,Centre,"sb\c.png",0,0 M,0,11896,,145,128 C,0,11896,,168,217,202 F,0,11896,12601,1,0 S,7,11896,12601,0.1,0.175 P,0,11896,12601,A M,0,12602,,133,354 C,0,12602,,168,217,202 F,0,12602,13307,1,0 S,7,12602,13307,0.1,0.175 P,0,12602,13307,A M,0,17543,,495,368 C,0,17543,,90,177,140 F,0,17543,18248,1,0 S,7,17543,18248,0.1,0.175 P,0,17543,18248,A M,0,18249,,507,142 C,0,18249,,255,0,0 F,0,18249,18954,1,0 S,7,18249,18954,0.1,0.175 P,0,18249,18954,A M,0,18955,,423,201 C,0,18955,,255,0,0 F,0,18955,19660,1,0 S,7,18955,19660,0.1,0.175 P,0,18955,19660,A M,0,23190,,442,92 C,0,23190,,169,81,71 F,0,23190,23895,1,0 S,7,23190,23895,0.1,0.175 P,0,23190,23895,A M,0,23896,,216,80 C,0,23896,,169,81,71 F,0,23896,24601,1,0 S,7,23896,24601,0.1,0.175 P,0,23896,24601,A M,0,28837,,198,92 C,0,28837,,168,217,202 F,0,28837,29542,1,0 S,7,28837,29542,0.1,0.175 P,0,28837,29542,A M,0,29543,,424,80 C,0,29543,,90,177,140 F,0,29543,30248,1,0 S,7,29543,30248,0.1,0.175 P,0,29543,30248,A M,0,30249,,366,213 C,0,30249,,90,177,140 F,0,30249,30954,1,0 S,7,30249,30954,0.1,0.175 P,0,30249,30954,A M,0,31131,,320,248 C,0,31131,,90,177,140 F,0,31131,31836,1,0 S,7,31131,31836,0.1,0.175 P,0,31131,31836,A
Sprite,Foreground,Centre,"sb\c.png",0,0 M,0,50896,,576,178 F,0,50896,51601,0.9,0 S,7,50896,51601,0.1,0.175 P,0,50896,51601,A M,0,51602,,369,206 F,0,51602,52307,0.9,0 S,7,51602,52307,0.1,0.175 P,0,51602,52307,A M,0,52308,,573,191 F,0,52308,53013,0.9,0 S,7,52308,53013,0.1,0.175 P,0,52308,53013,A M,0,53014,,366,219 F,0,53014,53719,0.9,0 S,7,53014,53719,0.1,0.175 P,0,53014,53719,A M,0,54425,,366,238 F,0,54425,55130,0.9,0 S,7,54425,55130,0.1,0.175 P,0,54425,55130,A
Sprite,Foreground,Centre,"sb\c.png",0,0 M,0,53719,,573,210 F,0,53719,54424,0.9,0 S,7,53719,54424,0.1,0.175 P,0,53719,54424,A
Sprite,Foreground,Centre,"sb\c.png",0,0 M,0,132778,,412,211 C,0,132778,,168,217,202 F,0,132778,133483,1,0 S,7,132778,133483,0.2,0.35 P,0,132778,133483,A M,0,134896,,216,113 C,0,134896,,168,217,202 F,0,134896,135601,1,0 S,7,134896,135601,0.2,0.35 P,0,134896,135601,A
Sprite,Foreground,Centre,"sb\c.png",0,0 M,0,135249,,355,78 C,0,135249,,168,217,202 F,0,135249,135954,1,0 S,7,135249,135954,0.2,0.35 P,0,135249,135954,A
Sprite,Foreground,Centre,"sb\cir.png",0,0 F,16,36778,37130,0,1 M,30,36778,37131,560,440,480,440 C,0,36778,37131,169,81,71 S,30,36778,37483,0.015,0.15 P,0,36778,39611,A M,30,37131,37484,480,440,400,440 C,0,37131,37484,169,81,71 M,30,37484,37837,400,440,320,440 C,0,37484,37837,169,81,71 M,30,37837,38190,320,440,240,440 C,0,37837,38190,169,81,71 M,30,38190,38543,240,440,160,440 C,0,38190,38543,169,81,71 M,30,38543,38896,160,440,80,440 C,0,38543,38896,169,81,71 M,0,38896,38940,80,440,80,423.75 M,0,38940,38984,80,423.75,80,408 M,30,38984,39602,80,408,80,248 C,0,38984,39602,169,81,71,168,217,202 F,15,39258,39611,1,0 S,15,39258,39611,0.15,0.015 M,0,39602,39646,80,248,91.49049,236.5095 M,0,39646,39690,91.49049,236.5095,102.981,238.981 M,0,39690,39734,102.981,238.981,114.4715,245.5285 M,0,39734,39778,114.4715,245.5285,125.9619,234.0381 M,0,39778,39822,125.9619,234.0381,133.9782,243.9565 M,0,39822,39866,133.9782,243.9565,141.2455,258.4909 M,0,39866,39910,141.2455,258.4909,148.5127,254.9746 M,0,39910,39954,148.5127,254.9746,155.7799,240.4402 M,0,39954,39999,155.7799,240.4402,164.8179,236.8179 M,0,39999,40043,164.8179,236.8179,176.3901,247.8049 M,0,40043,40087,176.3901,247.8049,190.9246,240.5377 M,0,40087,40131,190.9246,240.5377,205.459,233.2705 M,0,40131,40175,205.459,233.2705,213.9967,243.9934 M,0,40175,40219,213.9967,243.9934,221.2639,258.5279 M,0,40219,40263,221.2639,258.5279,231.1644,256.8356 M,0,40263,40307,231.1644,256.8356,243.3582,249.6791 M,0,40307,40352,243.3582,249.6791,257.8926,256.9463 M,0,40352,40396,257.8926,256.9463,272.2135,263.5729 M,0,40396,40440,272.2135,263.5729,279.4808,249.0385 M,0,40440,40484,279.4808,249.0385,286.748,234.504 M,0,40484,40528,286.748,234.504,294.0152,244.0304 M,0,40528,40572,294.0152,244.0304,301.2824,258.5648 M,0,40572,40616,301.2824,258.5648,311.1936,256.8064 M,0,40616,40660,311.1936,256.8064,322.6841,250.6841 M,0,40660,40704,322.6841,250.6841,334.1746,262.1746 M,0,40704,40749,334.1746,262.1746,345.6651,273.6651 M,0,40749,40793,345.6651,273.6651,354.3056,273.0831 M,0,40793,40837,354.3056,273.0831,359.4443,257.667 M,0,40837,40881,359.4443,257.667,364.583,242.2509 M,0,40881,40925,364.583,242.2509,371.8499,235.8499 M,0,40925,40969,371.8499,235.8499,383.3404,247.3404 M,0,40969,41013,383.3404,247.3404,397.7001,241.1499 M,0,41013,41057,397.7001,241.1499,412.2346,233.8827 M,0,41057,41102,412.2346,233.8827,421.3845,242.769 M,0,41102,41146,421.3845,242.769,428.6517,257.3034 M,0,41146,41190,428.6517,257.3034,438.1964,257.8036 M,0,41190,41234,438.1964,257.8036,449.6869,249.6869 M,0,41234,41278,449.6869,249.6869,461.1774,261.1774 M,0,41278,41322,461.1774,261.1774,470.7996,253.8006 M,0,41322,41366,470.7996,253.8006,479.8135,240.2798 M,0,41366,41410,479.8135,240.2798,488.8274,226.7589 M,0,41410,41454,488.8274,226.7589,497.4845,218.9689 M,0,41454,41499,497.4845,218.9689,504.7517,233.5034 M,0,41499,41543,504.7517,233.5034,512.0299,247.9701 M,0,41543,41587,512.0299,247.9701,523.5204,236.4796 M,0,41587,41631,523.5204,236.4796,536.8681,236.4341 M,0,41631,41675,536.8681,236.4341,551.4026,243.7013 M,0,41675,41719,551.4026,243.7013,566.6378,248
Sprite,Foreground,Centre,"sb\cir.png",0,0 F,16,42425,42777,0,1 M,30,42425,42778,576,56,512,104 C,0,42425,42778,90,177,140 S,30,42425,43130,0.015,0.15 P,0,42425,43837,A M,30,42778,43131,512,104,448,152 C,0,42778,43131,90,177,140 M,30,43131,43484,448,152,384,200 C,0,43131,43484,90,177,140 F,15,43484,43837,1,0 S,15,43484,43837,0.15,0.015
Sprite,Foreground,Centre,"sb\p.png",0,0 M,0,45955,,434,341 R,0,45955,,-0.3802601 V,0,45955,46307,10,854,0,854 M,0,46661,,297,349 R,0,46661,,0.4279506 V,0,46661,47013,10,854,0,854 M,0,47366,,124,399 R,0,47366,,-0.4021357 V,0,47366,47718,10,854,0,854 M,0,48072,,80,167 R,0,48072,,0.2922525 V,0,48072,48424,10,854,0,854 M,0,48778,,230,86 R,0,48778,,-0.1078787 V,0,48778,49130,10,854,0,854 M,0,49484,,400,56 R,0,49484,,0.2926314 V,0,49484,49836,10,854,0,854 M,0,50190,,553,56 R,0,50190,,-0.4743946 V,0,50190,50542,10,854,0,854 M,0,50896,,576,178 R,0,50896,,0.2315238 V,0,50896,51248,10,854,0,854 M,0,51602,,369,206 R,0,51602,,-0.5118439 V,0,51602,51954,10,854,0,854 M,0,52308,,573,191 R,0,52308,,0.1433113 V,0,52308,52660,10,854,0,854 M,0,53014,,366,219 R,0,53014,,-0.1528418 V,0,53014,53366,10,854,0,854 M,0,53719,,573,210 R,0,53719,,0.2446854 V,0,53719,54071,10,854,0,854 M,0,54425,,366,238 R,0,54425,,-0.3312595 V,0,54425,54777,10,854,0,854
Sprite,Foreground,Centre,"sb\p.png",0,0 M,0,135602,,539,179 R,0,135602,,-0.2458358 V,0,135602,135954,10,854,0,854 M,0,135955,,381,250 R,0,135955,,0.5142532 V,0,135955,136307,10,854,0,854 M,0,136308,,540,275 R,0,136308,,-0.01590012 V,0,136308,136660,10,854,0,854 M,0,136661,,382,338 R,0,136661,,0.451536 V,0,136661,137013,10,854,0,854 M,0,137014,,421,440 R,0,137014,,-0.5211625 V,0,137014,137366,10,854,0,854 M,0,137719,,85,359 R,0,137719,,-0.1647199 V,0,137719,138071,10,854,0,854 M,0,138425,,184,439 R,0,138425,,0.427732 V,0,138425,138777,10,854,0,854 M,0,138778,,310,319 R,0,138778,,-0.4440389 V,0,138778,139130,10,854,0,854 M,0,139131,,191,331 R,0,139131,,0.5193588 V,0,139131,139483,10,854,0,854 M,0,139484,,304,213 R,0,139484,,-0.01708251 V,0,139484,139836,10,854,0,854 M,0,139837,,130,244 R,0,139837,,0.3664888 V,0,139837,140189,10,854,0,854 M,0,140190,,161,166 R,0,140190,,-0.2755617 V,0,140190,140542,10,854,0,854 M,0,140543,,356,133 R,0,140543,,0.489051 V,0,140543,140895,10,854,0,854 M,0,140896,,273,117 R,0,140896,,-0.3600371 V,0,140896,141248,10,854,0,854 M,0,141249,,506,164 R,0,141249,,0.2863119 V,0,141249,141601,10,854,0,854 M,0,141602,,420,359 R,0,141602,,-0.04246907 V,0,141602,141954,10,854,0,854 M,0,141955,,356,133 R,0,141955,,0.0979782 V,0,141955,142307,10,854,0,854 M,0,142308,,281,344 R,0,142308,,-0.2373616 V,0,142308,142660,10,854,0,854 M,0,142661,,178,299 R,0,142661,,0.1555988 V,0,142661,143013,10,854,0,854 M,0,143014,,116,197 R,0,143014,,-0.5176003 V,0,143014,143366,10,854,0,854 M,0,143719,,236,74 R,0,143719,,-0.3994868 V,0,143719,144071,10,854,0,854
Sprite,Foreground,Centre,"sb\p.png",0,0 M,0,137366,,302,399 R,0,137366,,0.3545712 V,0,137366,137718,10,854,0,854 M,0,143366,,150,77 R,0,143366,,0.3365156 V,0,143366,143718,10,854,0,854
Sprite,Foreground,Centre,"sb\p.png",0,0 M,0,146896,,403,404 R,0,146896,,-0.01591441 V,0,146896,147248,10,854,0,854 M,0,147249,,537,370 R,0,147249,,0.1994935 V,0,147249,147601,10,854,0,854 M,0,147602,,359,299 R,0,147602,,-0.1796687 V,0,147602,147954,10,854,0,854 M,0,147955,,523,260 R,0,147955,,0.5013223 V,0,147955,148307,10,854,0,854 M,0,148308,,318,191 R,0,148308,,-0.264485 V,0,148308,148660,10,854,0,854 M,0,148661,,518,150 R,0,148661,,0.3748823 V,0,148661,149013,10,854,0,854 M,0,149014,,388,67 R,0,149014,,-0.06228612 V,0,149014,149366,10,854,0,854 M,0,149719,,248,108 R,0,149719,,0.1431789 V,0,149719,150071,10,854,0,854 M,0,150072,,215,218 R,0,150072,,-0.4749554 V,0,150072,150424,10,854,0,854 M,0,150425,,85,303 R,0,150425,,0.4161383 V,0,150425,150777,10,854,0,854 M,0,150778,,305,271 R,0,150778,,-0.1765367 V,0,150778,151130,10,854,0,854 M,0,151131,,483,316 R,0,151131,,0.239394 V,0,151131,151483,10,854,0,854 M,0,151484,,306,394 R,0,151484,,-0.07687741 V,0,151484,151836,10,854,0,854 M,0,151837,,510,407 R,0,151837,,0.1158801 V,0,151837,152189,10,854,0,854 M,0,152543,,501,320 R,0,152543,,-0.2147139 V,0,152543,152895,10,854,0,854 M,0,152896,,359,285 R,0,152896,,0.3763245 V,0,152896,153248,10,854,0,854 M,0,153249,,217,210 R,0,153249,,-0.3245424 V,0,153249,153601,10,854,0,854 M,0,153602,,358,174 R,0,153602,,0.2554995 V,0,153602,153954,10,854,0,854 M,0,153955,,525,99 R,0,153955,,-0.1020564 V,0,153955,154307,10,854,0,854 M,0,154308,,383,64 R,0,154308,,0.45982 V,0,154308,154660,10,854,0,854
Sprite,Foreground,Centre,"sb\p.png",0,0 M,0,140896,,273,117 R,0,140896,,-0.4321906 V,0,140896,141248,10,854,0,854
Sprite,Foreground,Centre,"sb\p.png",0,0 M,0,143719,,236,74 R,0,143719,,-0.3850532 V,0,143719,144071,10,854,0,854
Sprite,Foreground,Centre,"sb\p.png",0,0 M,0,154661,,242,179 R,0,154661,,-0.4493625 V,0,154661,155013,10,854,0,854 M,0,155014,,160,121 R,0,155014,,0.3559158 V,0,155014,155366,10,854,0,854
Sprite,Foreground,Centre,"sb\cir.png",0,0 S,0,50896,,0.2 M,0,50896,50984,576,178,544.3889,185.5489 P,0,50896,51525,A M,0,50984,51072,544.3889,185.5489,512.7777,193.0979 M,0,51072,51160,512.7777,193.0979,544.3889,185.5489 M,0,51160,51248,544.3889,185.5489,576,178 M,0,51248,51337,576,178,544.3889,185.5489 M,0,51337,51425,544.3889,185.5489,512.7777,193.0979 F,2,51425,51525,1,0
Sprite,Foreground,Centre,"sb\cir.png",0,0 S,0,51602,,0.2 M,0,51602,51690,369,206,400.6111,213.5489 P,0,51602,52231,A M,0,51690,51778,400.6111,213.5489,432.2223,221.0979 M,0,51778,51866,432.2223,221.0979,400.6111,213.5489 M,0,51866,51954,400.6111,213.5489,369,206 M,0,51954,52043,369,206,400.6111,213.5489 M,0,52043,52131,400.6111,213.5489,432.2223,221.0979 F,2,52131,52231,1,0
Sprite,Foreground,Centre,"sb\cir.png",0,0 S,0,52308,,0.2 M,0,52308,52396,573,191,541.3889,198.5489 P,0,52308,52937,A M,0,52396,52484,541.3889,198.5489,509.7777,206.0979 M,0,52484,52572,509.7777,206.0979,541.3889,198.5489 M,0,52572,52660,541.3889,198.5489,573,191 M,0,52660,52749,573,191,541.3889,198.5489 M,0,52749,52837,541.3889,198.5489,509.7777,206.0979 F,2,52837,52937,1,0
Sprite,Foreground,Centre,"sb\cir.png",0,0 S,0,53014,,0.2 M,0,53014,53102,366,219,397.6111,226.5489 P,0,53014,53643,A M,0,53102,53190,397.6111,226.5489,429.2223,234.0979 M,0,53190,53278,429.2223,234.0979,397.6111,226.5489 M,0,53278,53366,397.6111,226.5489,366,219 M,0,53366,53455,366,219,397.6111,226.5489 M,0,53455,53543,397.6111,226.5489,429.2223,234.0979 F,2,53543,53643,1,0
Sprite,Foreground,Centre,"sb\cir.png",0,0 S,0,53719,,0.2 M,0,53719,53807,573,210,541.3889,217.5489 P,0,53719,54348,A M,0,53807,53895,541.3889,217.5489,509.7777,225.0979 M,0,53895,53983,509.7777,225.0979,541.3889,217.5489 M,0,53983,54071,541.3889,217.5489,573,210 M,0,54071,54160,573,210,541.3889,217.5489 M,0,54160,54248,541.3889,217.5489,509.7777,225.0979 F,2,54248,54348,1,0
Sprite,Foreground,Centre,"sb\cir.png",0,0 S,0,54425,,0.2 M,0,54425,54513,366,238,397.6111,245.5489 P,0,54425,55054,A M,0,54513,54601,397.6111,245.5489,429.2223,253.0979 M,0,54601,54689,429.2223,253.0979,397.6111,245.5489 M,0,54689,54777,397.6111,245.5489,366,238 M,0,54777,54866,366,238,397.6111,245.5489 M,0,54866,54954,397.6111,245.5489,429.2223,253.0979 F,2,54954,55054,1,0
Sprite,Foreground,Centre,"sb\cir.png",191,159 S,0,144072,,0.3 F,2,144072,144172,0.5,0 P,0,144072,144172,A
Sprite,Foreground,Centre,"sb\cir.png",0,0 S,0,144425,,0.3 M,0,144425,144513,441,85,461.4648,95.08904 P,0,144425,144701,A M,0,144513,144601,461.4648,95.08904,412.8718,98.99883 F,2,144601,144701,0.5,0
Sprite,Foreground,Centre,"sb\cir.png",412,213 S,0,144778,,0.3 F,2,144778,144878,0.5,0 P,0,144778,144878,A
Sprite,Foreground,Centre,"sb\cir.png",0,0 S,0,145131,,0.3 M,0,145131,145219,162,145,141.5352,155.0891 P,0,145131,145407,A M,0,145219,145307,141.5352,155.0891,190.1282,158.9988 F,2,145307,145407,0.5,0
Sprite,Foreground,Centre,"sb\cir.png",190,273 S,0,145484,,0.3 F,2,145484,145584,0.5,0 P,0,145484,145584,A
Sprite,Foreground,Centre,"sb\cir.png",0,0 S,0,145837,,0.3 M,0,145837,145925,440,199,460.4648,209.0891 P,0,145837,146113,A M,0,145925,146013,460.4648,209.0891,411.8718,212.9988 F,2,146013,146113,0.5,0
Sprite,Foreground,Centre,"sb\spotlight.png",0,240 F,0,56543,,1 C,0,56543,,169,81,71 MX,0,56543,,274 V,0,56543,,1,0.7272727 MX,0,56543,56587,274,252.6488 P,0,56543,57248,A MX,0,56587,56631,252.6488,231.2975 MX,0,56631,56675,231.2975,209.9463 MX,0,56675,56719,209.9463,195.2932 MX,0,56719,56763,195.2932,180.5 MX,0,56763,56807,180.5,156.2092 MX,0,56807,56851,156.2092,133.6688 MX,0,56851,56895,133.6688,111.8671 F,0,56895,57248,1,0 F,0,57249,,1 C,0,57249,,169,81,71 MX,0,57249,,304 MX,0,57249,57293,304,319.3707 P,0,57249,57954,A MX,0,57293,57337,319.3707,337.0231 MX,0,57337,57381,337.0231,359.7906 MX,0,57381,57425,359.7906,366.0799 MX,0,57425,57469,366.0799,371.5713 MX,0,57469,57513,371.5713,385.9991 MX,0,57513,57557,385.9991,400.4268 MX,0,57557,57601,400.4268,414.8546 F,0,57601,57954,1,0 F,0,57955,,1 C,0,57955,,169,81,71 MX,0,57955,,566 MX,0,57955,57999,566,561.102 P,0,57955,58660,A MX,0,57999,58043,561.102,556.204 MX,0,58043,58087,556.204,551.306 MX,0,58087,58131,551.306,556.0714 MX,0,58131,58175,556.0714,560.1888 MX,0,58175,58219,560.1888,542.9531 MX,0,58219,58263,542.9531,533.3043 MX,0,58263,58307,533.3043,527.6585 F,0,58307,58660,1,0 F,0,58661,,1 C,0,58661,,169,81,71 MX,0,58661,,487 MX,0,58661,58705,487,474.9214 P,0,58661,59190,A MX,0,58705,58749,474.9214,462.8429 MX,0,58749,58793,462.8429,450.7643 MX,0,58793,58837,450.7643,438.6858 F,0,58837,59190,1,0 F,0,59366,,1 C,0,59366,,168,217,202 MX,0,59366,,197 MX,0,59366,59410,197,218.6467 P,0,59366,60071,A MX,0,59410,59454,218.6467,240.2934 MX,0,59454,59498,240.2934,261.9402 MX,0,59498,59542,261.9402,283.7869 MX,0,59542,59586,283.7869,296.5283 MX,0,59586,59630,296.5283,310.4871 MX,0,59630,59674,310.4871,334.8116 MX,0,59674,59718,334.8116,359 F,0,59718,60071,1,0 F,0,60072,,1 C,0,60072,,168,217,202 MX,0,60072,,142 MX,0,60072,60116,142,163.6467 P,0,60072,60777,A MX,0,60116,60160,163.6467,185.2934 MX,0,60160,60204,185.2934,206.9402 MX,0,60204,60248,206.9402,228.7869 MX,0,60248,60292,228.7869,241.5283 MX,0,60292,60336,241.5283,255.4871 MX,0,60336,60380,255.4871,279.8116 MX,0,60380,60424,279.8116,304 F,0,60424,60777,1,0 F,0,60778,,1 C,0,60778,,168,217,202 MX,0,60778,,94 MX,0,60778,60822,94,115.6467 P,0,60778,61483,A MX,0,60822,60866,115.6467,137.2934 MX,0,60866,60910,137.2934,158.9402 MX,0,60910,60954,158.9402,180.7869 MX,0,60954,60998,180.7869,193.5283 MX,0,60998,61042,193.5283,207.4871 MX,0,61042,61086,207.4871,231.8116 MX,0,61086,61130,231.8116,256 F,0,61130,61483,1,0 C,0,61484,,168,217,202 MX,0,61484,,118 F,0,61484,61836,1,0 P,0,61484,61836,A C,0,61837,,168,217,202 MX,0,61837,,352 F,0,61837,62189,1,0 P,0,61837,62189,A F,0,62190,,1 C,0,62190,,90,177,140 MX,0,62190,,314 MX,0,62190,62234,314,319.7318 P,0,62190,62895,A MX,0,62234,62278,319.7318,325.4636 MX,0,62278,62322,325.4636,327.0627 MX,0,62322,62366,327.0627,322.0048 MX,0,62366,62410,322.0048,340.7077 MX,0,62410,62454,340.7077,350.5805 MX,0,62454,62498,350.5805,356.9655 MX,0,62498,62542,356.9655,363.3506 F,0,62542,62895,1,0 F,0,62896,,1 C,0,62896,,90,177,140 MX,0,62896,,116 MX,0,62896,62940,116,139.6915 P,0,62896,63601,A MX,0,62940,62984,139.6915,163.383 MX,0,62984,63028,163.383,187.1331 MX,0,63028,63072,187.1331,210.9775 MX,0,63072,63116,210.9775,226.5898 MX,0,63116,63160,226.5898,247.8754 MX,0,63160,63204,247.8754,271.3993 MX,0,63204,63248,271.3993,294.9232 F,0,63248,63601,1,0 F,0,63602,,1 C,0,63602,,90,177,140 MX,0,63602,,168 MX,0,63602,63646,168,162.2682 P,0,63602,64307,A MX,0,63646,63690,162.2682,156.5364 MX,0,63690,63734,156.5364,154.9373 MX,0,63734,63778,154.9373,159.9952 MX,0,63778,63822,159.9952,141.2923 MX,0,63822,63866,141.2923,131.4195 MX,0,63866,63910,131.4195,125.0345 MX,0,63910,63954,125.0345,118.6494 F,0,63954,64307,1,0 F,0,64308,,1 C,0,64308,,90,177,140 MX,0,64308,,94 MX,0,64308,64352,94,97.39799 P,0,64308,64837,A MX,0,64352,64396,97.39799,100.796 MX,0,64396,64440,100.796,97.39799 MX,0,64440,64484,97.39799,94 F,0,64484,64837,1,0 C,0,65014,,255,0,0 MX,0,65014,,261 F,0,65014,65366,1,0 P,0,65014,65366,A C,0,65719,,169,81,71 MX,0,65719,,365 F,0,65719,66071,1,0 P,0,65719,66071,A C,0,66425,,168,217,202 MX,0,66425,,464 F,0,66425,66777,1,0 P,0,66425,66777,A F,0,67131,,1 C,0,67131,,168,217,202 MX,0,67131,,548 MX,0,67131,67175,548,571.3192 P,0,67131,67748,A MX,0,67175,67219,571.3192,589.2749 MX,0,67219,67263,589.2749,589.6667 MX,0,67263,67307,589.6667,572.3335 MX,0,67307,67351,572.3335,549.1946 MX,0,67351,67395,549.1946,536 F,0,67395,67748,1,0 F,0,67837,,1 C,0,67837,,90,177,140 MX,0,67837,,486 MX,0,67837,67881,486,479.1014 P,0,67837,68542,A MX,0,67881,67925,479.1014,472.2029 MX,0,67925,67969,472.2029,461.6098 MX,0,67969,68013,461.6098,443.7509 MX,0,68013,68057,443.7509,420.8215 MX,0,68057,68101,420.8215,397.8922 MX,0,68101,68145,397.8922,374.9629 MX,0,68145,68189,374.9629,352.0335 F,0,68189,68542,1,0 F,0,68543,,1 C,0,68543,,90,177,140 MX,0,68543,,367 MX,0,68543,68587,367,360.1014 P,0,68543,69248,A MX,0,68587,68631,360.1014,353.2029 MX,0,68631,68675,353.2029,342.6098 MX,0,68675,68719,342.6098,324.7509 MX,0,68719,68763,324.7509,301.8215 MX,0,68763,68807,301.8215,278.8922 MX,0,68807,68851,278.8922,255.9629 MX,0,68851,68895,255.9629,233.0335 F,0,68895,69248,1,0 F,0,69249,,1 C,0,69249,,90,177,140 MX,0,69249,,249 MX,0,69249,69293,249,242.1015 P,0,69249,69954,A MX,0,69293,69337,242.1015,235.2029 MX,0,69337,69381,235.2029,224.6098 MX,0,69381,69425,224.6098,206.7509 MX,0,69425,69469,206.7509,183.8215 MX,0,69469,69513,183.8215,160.8922 MX,0,69513,69557,160.8922,137.9629 MX,0,69557,69601,137.9629,115.0335 F,0,69601,69954,1,0 F,0,69955,,1 C,0,69955,,90,177,140 MX,0,69955,,106 MX,0,69955,69999,106,130.2925 P,0,69955,70660,A MX,0,69999,70043,130.2925,154.5109 MX,0,70043,70087,154.5109,178.0941 MX,0,70087,70131,178.0941,200.4649 MX,0,70131,70175,200.4649,221.0755 MX,0,70175,70219,221.0755,239.4215 MX,0,70219,70263,239.4215,255.0536 MX,0,70263,70307,255.0536,267.7187 F,0,70307,70660,1,0 F,0,70661,,1 C,0,70661,,255,0,0 MX,0,70661,,206 MX,0,70661,70705,206,188.7967 P,0,70661,71366,A MX,0,70705,70749,188.7967,183.8147 MX,0,70749,70793,183.8147,193.3285 MX,0,70793,70837,193.3285,213.6607 MX,0,70837,70881,213.6607,236.9489 MX,0,70881,70925,236.9489,254.1841 MX,0,70925,70969,254.1841,258.6949 MX,0,70969,71013,258.6949,248.7284 F,0,71013,71366,1,0 F,0,71719,,1 C,0,71719,,255,0,0 MX,0,71719,,328 MX,0,71719,71763,328,348.9989 P,0,71719,72866,A F,0,71719,73484,0 F,0,71719,73484,0 F,0,71719,73484,0 F,0,71719,73484,0 F,0,71719,73484,0 F,0,71719,73484,0 F,0,71719,73484,0 F,0,71719,73484,0 F,0,71719,73484,0 F,0,71719,73484,0 F,0,71719,73484,0 F,0,71719,73484,0 F,0,71719,73484,0 F,0,71719,73484,0 F,0,71719,73484,0 F,0,71719,73484,0 F,0,71719,73484,0 F,0,71719,73484,0 F,0,71719,73484,0 F,0,71719,73484,0 F,0,71719,73484,0 F,0,71719,73484,0 F,0,71719,73484,0 MX,0,71763,71807,348.9989,356.196 MX,0,71807,71851,356.196,344.6685 MX,0,71851,71895,344.6685,322.3677 MX,0,71895,71939,322.3677,304.678 MX,0,71939,71983,304.678,302.8257 MX,0,71983,72027,302.8257,304.678 MX,0,72027,72071,304.678,322.3677 MX,0,72071,72116,322.3677,344.6684 MX,0,72116,72160,344.6684,356.196 MX,0,72160,72204,356.196,348.999 MX,0,72204,72248,348.999,328 MX,0,72248,72292,328,348.9989 MX,0,72292,72336,348.9989,356.196 MX,0,72336,72380,356.196,344.6685 MX,0,72380,72424,344.6685,322.3677 MX,0,72424,72469,322.3677,304.678 MX,0,72469,72513,304.678,302.8257 F,0,72513,72866,1,0 C,0,73131,,255,0,0 MX,0,73131,,576 F,0,73131,73483,1,0 P,0,73131,73483,A F,0,73484,,1 C,0,73484,,169,81,71 MX,0,73484,,529 MX,0,73484,73528,529,550.9026 P,0,73484,74189,A MX,0,73528,73572,550.9026,571.8442 MX,0,73572,73616,571.8442,567.6083 MX,0,73616,73660,567.6083,563.3723 MX,0,73660,73704,563.3723,559.1362 MX,0,73704,73748,559.1362,554.9002 MX,0,73748,73792,554.9002,540.3116 MX,0,73792,73836,540.3116,522.9292 F,0,73836,74189,1,0 F,0,74190,,1 C,0,74190,,169,81,71 MX,0,74190,,305 MX,0,74190,74234,305,326.9026 P,0,74190,74895,A MX,0,74234,74278,326.9026,347.8443 MX,0,74278,74322,347.8443,343.6083 MX,0,74322,74366,343.6083,339.3723 MX,0,74366,74410,339.3723,335.1362 MX,0,74410,74454,335.1362,330.9002 MX,0,74454,74498,330.9002,316.3116 MX,0,74498,74542,316.3116,298.9292 F,0,74542,74895,1,0 F,0,74896,,1 C,0,74896,,169,81,71 MX,0,74896,,81 MX,0,74896,74940,81,102.9026 P,0,74896,75601,A MX,0,74940,74984,102.9026,123.8443 MX,0,74984,75028,123.8443,119.6083 MX,0,75028,75072,119.6083,115.3722 MX,0,75072,75116,115.3722,111.1362 MX,0,75116,75160,111.1362,106.9002 MX,0,75160,75204,106.9002,92.31158 MX,0,75204,75248,92.31158,74.92917 F,0,75248,75601,1,0 F,0,75602,,1 C,0,75602,,169,81,71 MX,0,75602,,217 MX,0,75602,75646,217,213.4301 P,0,75602,76307,A MX,0,75646,75690,213.4301,210.0539 MX,0,75690,75734,210.0539,206.8721 MX,0,75734,75778,206.8721,204 MX,0,75778,75822,204,206.8721 MX,0,75822,75866,206.8721,210.0539 MX,0,75866,75910,210.0539,213.4301 MX,0,75910,75954,213.4301,217 F,0,75954,76307,1,0 C,0,76308,,169,81,71 MX,0,76308,,320 P,0,76308,78071,A F,0,77719,78071,1,0
Sprite,Foreground,Centre,"sb\spotlight.png",0,240 C,0,58484,,169,81,71 MX,0,58484,,561 V,0,58484,,1,0.7272727 F,0,58484,58836,1,0 P,0,58484,58836,A C,0,59014,,169,81,71 MX,0,59014,,360 F,0,59014,59366,1,0 P,0,59014,59366,A C,0,62014,,168,217,202 MX,0,62014,,352 F,0,62014,62366,1,0 P,0,62014,62366,A C,0,64131,,90,177,140 MX,0,64131,,72 F,0,64131,64483,1,0 P,0,64131,64483,A F,0,64661,,1 C,0,64661,,90,177,140 MX,0,64661,,118 MX,0,64661,64705,118,140.9657 P,0,64661,65278,A MX,0,64705,64749,140.9657,165.1104 MX,0,64749,64793,165.1104,189.3271 MX,0,64793,64837,189.3271,212.506 MX,0,64837,64881,212.506,233.5846 MX,0,64881,64925,233.5846,251.5974 F,0,64925,65278,1,0 F,0,65896,,1 C,0,65896,,169,81,71 MX,0,65896,,340 MX,0,65896,65940,340,351.9 P,0,65896,66601,A MX,0,65940,65984,351.9,363.7999 MX,0,65984,66028,363.7999,375.6999 MX,0,66028,66072,375.6999,387.5999 MX,0,66072,66116,387.5999,399.4998 MX,0,66116,66160,399.4998,411.3998 MX,0,66160,66204,411.3998,423.2997 MX,0,66204,66248,423.2997,435.1997 F,0,66248,66601,1,0 F,0,66602,,1 C,0,66602,,168,217,202 MX,0,66602,,353 MX,0,66602,66646,353,364.9 P,0,66602,67307,A MX,0,66646,66690,364.9,376.7999 MX,0,66690,66734,376.7999,388.6999 MX,0,66734,66778,388.6999,400.5999 MX,0,66778,66822,400.5999,412.4998 MX,0,66822,66866,412.4998,424.3998 MX,0,66866,66910,424.3998,436.2997 MX,0,66910,66954,436.2997,448.1997 F,0,66954,67307,1,0 F,0,67484,,1 C,0,67484,,168,217,202 MX,0,67484,,464 MX,0,67484,67528,464,455.4593 P,0,67484,68013,A MX,0,67528,67572,455.4593,452.0905 MX,0,67572,67616,452.0905,454.3887 MX,0,67616,67660,454.3887,462.233 F,0,67660,68013,1,0 C,0,69778,,90,177,140 MX,0,69778,,73 F,0,69778,70130,1,0 P,0,69778,70130,A C,0,71366,,255,0,0 MX,0,71366,,212 F,0,71366,71718,1,0 P,0,71366,71718,A F,0,71719,73484,0 F,0,71719,73484,0 F,0,71719,73484,0 F,0,71719,73484,0 F,0,71719,73484,0 F,0,71719,73484,0 F,0,71719,73484,0 F,0,71719,73484,0 F,0,71719,73484,0 F,0,71719,73484,0 C,0,72778,,255,0,0 MX,0,72778,,418 F,0,72778,73130,1,0 P,0,72778,73130,A C,0,73308,,255,0,0 MX,0,73308,,576 F,0,73308,73660,1,0 P,0,73308,73660,A C,0,75425,,169,81,71 MX,0,75425,,205 F,0,75425,75777,1,0 P,0,75425,75777,A
Sprite,Foreground,Centre,"sb\spotlight.png",0,240 F,0,65190,,1 C,0,65190,,255,0,0 MX,0,65190,,328 V,0,65190,,1,0.7272727 MX,0,65190,65234,328,339.9 P,0,65190,65895,A MX,0,65234,65278,339.9,351.7999 MX,0,65278,65322,351.7999,363.6999 MX,0,65322,65366,363.6999,375.5999 MX,0,65366,65410,375.5999,387.4998 MX,0,65410,65454,387.4998,399.3998 MX,0,65454,65498,399.3998,411.2997 MX,0,65498,65542,411.2997,423.1997 F,0,65542,65895,1,0 F,0,71719,73484,0
Sprite,Foreground,Centre,"sb\spotlight.png",0,240 F,0,113014,,1 C,0,113014,,255,0,0 MX,0,113014,,204 V,0,113014,,1,0.7272727 MX,0,113014,113058,204,201.8617 P,0,113014,113631,A MX,0,113058,113102,201.8617,199.7234 MX,0,113102,113146,199.7234,197.585 MX,0,113146,113190,197.585,195.4467 MX,0,113190,113234,195.4467,193.3084 MX,0,113234,113278,193.3084,191.1701 F,0,113278,113631,1,0 F,0,113719,,1 C,0,113719,,169,81,71 MX,0,113719,,289 MX,0,113719,113763,289,286.8617 P,0,113719,114336,A MX,0,113763,113807,286.8617,284.7234 MX,0,113807,113851,284.7234,282.585 MX,0,113851,113895,282.585,280.4467 MX,0,113895,113939,280.4467,278.3084 MX,0,113939,113983,278.3084,276.17 F,0,113983,114336,1,0 F,0,114425,,1 C,0,114425,,168,217,202 MX,0,114425,,378 MX,0,114425,114469,378,375.8617 P,0,114425,115042,A MX,0,114469,114513,375.8617,373.7234 MX,0,114513,114557,373.7234,371.585 MX,0,114557,114601,371.585,369.4467 MX,0,114601,114645,369.4467,367.3084 MX,0,114645,114689,367.3084,365.1701 F,0,114689,115042,1,0 F,0,115131,,1 C,0,115131,,168,217,202 MX,0,115131,,461 MX,0,115131,115175,461,459.5254 P,0,115131,116072,A MX,0,115175,115219,459.5254,470.5403 MX,0,115219,115263,470.5403,476.5166 MX,0,115263,115307,476.5166,459.0339 MX,0,115307,115351,459.0339,460.5085 MX,0,115351,115395,460.5085,460.017 MX,0,115395,115439,460.017,464.564 MX,0,115439,115483,464.564,482.4929 MX,0,115483,115528,482.4929,464.564 MX,0,115528,115572,464.564,460.017 MX,0,115572,115616,460.017,460.5085 MX,0,115616,115660,460.5085,459.0339 MX,0,115660,115704,459.0339,476.5166 MX,0,115704,115719,476.5166,482.4929 F,0,115719,116072,1,0 C,0,116278,,90,177,140 MX,0,116278,,454 F,0,116278,116630,1,0 P,0,116278,116630,A C,0,116983,,255,0,0 MX,0,116983,,334 F,0,116983,117335,1,0 P,0,116983,117335,A C,0,117689,,169,81,71 MX,0,117689,,208 F,0,117689,118041,1,0 P,0,117689,118041,A C,0,118043,,168,217,202 MX,0,118043,,88 F,0,118043,118395,1,0 P,0,118043,118395,A F,0,118661,,1 C,0,118661,,90,177,140 MX,0,118661,,116 MX,0,118661,118705,116,131.671 P,0,118661,119278,A MX,0,118705,118749,131.671,147.342 MX,0,118749,118793,147.342,163.013 MX,0,118793,118837,163.013,178.684 MX,0,118837,118881,178.684,194.355 MX,0,118881,118925,194.355,210.026 F,0,118925,119278,1,0 F,0,119366,,1 C,0,119366,,255,0,0 MX,0,119366,,357 MX,0,119366,119410,357,341.329 P,0,119366,119983,A MX,0,119410,119454,341.329,325.658 MX,0,119454,119498,325.658,309.987 MX,0,119498,119542,309.987,294.316 MX,0,119542,119586,294.316,278.645 MX,0,119586,119630,278.645,262.974 F,0,119630,119983,1,0 F,0,120072,,1 C,0,120072,,169,81,71 MX,0,120072,,116 MX,0,120072,120116,116,131.671 P,0,120072,120689,A MX,0,120116,120160,131.671,147.342 MX,0,120160,120204,147.342,163.013 MX,0,120204,120248,163.013,178.684 MX,0,120248,120292,178.684,194.355 MX,0,120292,120336,194.355,210.026 F,0,120336,120689,1,0 F,0,120778,,1 C,0,120778,,168,217,202 MX,0,120778,,238 MX,0,120778,120822,238,252.1211 P,0,120778,121719,A MX,0,120822,120866,252.1211,261.3381 MX,0,120866,120910,261.3381,255.4181 MX,0,120910,120954,255.4181,259.444 MX,0,120954,120998,259.444,238.4386 MX,0,120998,121042,238.4386,243.9719 MX,0,121042,121086,243.9719,262.9576 MX,0,121086,121130,262.9576,246.9647 MX,0,121130,121175,246.9647,262.9576 MX,0,121175,121219,262.9576,243.9719 MX,0,121219,121263,243.9719,238.4386 MX,0,121263,121307,238.4386,259.444 MX,0,121307,121351,259.444,255.4181 MX,0,121351,121366,255.4181,246.9647 F,0,121366,121719,1,0 C,0,121925,,90,177,140 MX,0,121925,,522 F,0,121925,122277,1,0 P,0,121925,122277,A C,0,122631,,255,0,0 MX,0,122631,,184 F,0,122631,122983,1,0 P,0,122631,122983,A C,0,123337,,169,81,71 MX,0,123337,,522 F,0,123337,123689,1,0 P,0,123337,123689,A C,0,123690,,168,217,202 MX,0,123690,,393 F,0,123690,124042,1,0 P,0,123690,124042,A C,0,124308,,90,177,140 MX,0,124308,,274 F,0,124308,124660,1,0 P,0,124308,124660,A C,0,125014,,255,0,0 MX,0,125014,,191 F,0,125014,125366,1,0 P,0,125014,125366,A C,0,125720,,169,81,71 MX,0,125720,,108 F,0,125720,126072,1,0 P,0,125720,126072,A F,0,126425,,1 C,0,126425,,168,217,202 MX,0,126425,,64 MX,0,126425,126469,64,87.99871 P,0,126425,127366,A MX,0,126469,126513,87.99871,106.2606 MX,0,126513,126557,106.2606,98.94959 MX,0,126557,126601,98.94959,95.99829 MX,0,126601,126645,95.99829,71.99957 MX,0,126645,126689,71.99957,79.99914 MX,0,126689,126733,79.99914,103.9978 MX,0,126733,126777,103.9978,91.63861 MX,0,126777,126822,91.63861,103.9979 MX,0,126822,126866,103.9979,79.99915 MX,0,126866,126910,79.99915,71.99956 MX,0,126910,126954,71.99956,95.99828 MX,0,126954,126998,95.99828,98.9496 MX,0,126998,127013,98.9496,91.6386 F,0,127013,127366,1,0 F,0,127396,,1 C,0,127396,,90,177,140 MX,0,127396,,270 MX,0,127396,127440,270,275.1265 P,0,127396,127925,A MX,0,127440,127484,275.1265,274.3458 MX,0,127484,127528,274.3458,267.3414 MX,0,127528,127572,267.3414,254.5812 F,0,127572,127925,1,0 F,0,128102,,1 C,0,128102,,255,0,0 MX,0,128102,,390 MX,0,128102,128146,390,395.1265 P,0,128102,128631,A MX,0,128146,128190,395.1265,394.3458 MX,0,128190,128234,394.3458,387.3414 MX,0,128234,128278,387.3414,374.5812 F,0,128278,128631,1,0 F,0,128808,,1 C,0,128808,,169,81,71 MX,0,128808,,510 MX,0,128808,128852,510,515.1265 P,0,128808,129337,A MX,0,128852,128896,515.1265,514.3458 MX,0,128896,128940,514.3458,507.3414 MX,0,128940,128984,507.3414,494.5812 F,0,128984,129337,1,0 C,0,129425,,168,217,202 MX,0,129425,,540 F,0,129425,129777,1,0 P,0,129425,129777,A C,0,129955,,90,177,140 MX,0,129955,,316 F,0,129955,130307,1,0 P,0,129955,130307,A C,0,130661,,255,0,0 MX,0,130661,,92 F,0,130661,131013,1,0 P,0,130661,131013,A C,0,131366,,169,81,71 MX,0,131366,,307 F,0,131366,131718,1,0 P,0,131366,131718,A C,0,132072,,169,81,71 MX,0,132072,,460 F,0,132072,132424,1,0 P,0,132072,132424,A F,0,132425,,1 C,0,132425,,169,81,71 MX,0,132425,,307 MX,0,132425,132469,307,322.9944 P,0,132425,133042,A MX,0,132469,132513,322.9944,338.9888 MX,0,132513,132557,338.9888,353.2946 MX,0,132557,132601,353.2946,369.2746 MX,0,132601,132645,369.2746,385.2546 MX,0,132645,132689,385.2546,401.2345 F,0,132689,133042,1,0
Sprite,Foreground,Centre,"sb\spotlight.png",0,240 C,0,113455,,255,0,0 MX,0,113455,,175 V,0,113455,,1,0.7272727 F,0,113455,113807,1,0 P,0,113455,113807,A C,0,114160,,169,81,71 MX,0,114160,,260 F,0,114160,114512,1,0 P,0,114160,114512,A C,0,114866,,168,217,202 MX,0,114866,,349 F,0,114866,115218,1,0 P,0,114866,115218,A F,0,115837,,1 C,0,115837,,90,177,140 MX,0,115837,,483 MX,0,115837,115881,483,480.8617 P,0,115837,116454,A MX,0,115881,115925,480.8617,478.7234 MX,0,115925,115969,478.7234,476.585 MX,0,115969,116013,476.585,474.4467 MX,0,116013,116057,474.4467,472.3084 MX,0,116057,116101,472.3084,470.1701 F,0,116101,116454,1,0 F,0,116543,,1 C,0,116543,,255,0,0 MX,0,116543,,363 MX,0,116543,116587,363,360.8617 P,0,116543,117160,A MX,0,116587,116631,360.8617,358.7234 MX,0,116631,116675,358.7234,356.585 MX,0,116675,116719,356.585,354.4467 MX,0,116719,116763,354.4467,352.3084 MX,0,116763,116807,352.3084,350.1701 F,0,116807,117160,1,0 F,0,117249,,1 C,0,117249,,169,81,71 MX,0,117249,,237 MX,0,117249,117293,237,234.8617 P,0,117249,117866,A MX,0,117293,117337,234.8617,232.7234 MX,0,117337,117381,232.7234,230.585 MX,0,117381,117425,230.585,228.4467 MX,0,117425,117469,228.4467,226.3084 MX,0,117469,117513,226.3084,224.1701 F,0,117513,117866,1,0 C,0,117955,,168,217,202 MX,0,117955,,73 F,0,117955,118307,1,0 P,0,117955,118307,A F,0,118308,,1 C,0,118308,,168,217,202 MX,0,118308,,135 MX,0,118308,118352,135,141.2931 P,0,118308,118925,A MX,0,118352,118396,141.2931,144.9383 MX,0,118396,118440,144.9383,145.4175 MX,0,118440,118484,145.4175,142.7109 MX,0,118484,118528,142.7109,136.9231 MX,0,118528,118572,136.9231,128.2784 F,0,118572,118925,1,0 C,0,119102,,90,177,140 MX,0,119102,,293 F,0,119102,119454,1,0 P,0,119102,119454,A C,0,119807,,255,0,0 MX,0,119807,,180 F,0,119807,120159,1,0 P,0,119807,120159,A C,0,120513,,169,81,71 MX,0,120513,,293 F,0,120513,120865,1,0 P,0,120513,120865,A F,0,121484,,1 C,0,121484,,90,177,140 MX,0,121484,,345 MX,0,121484,121528,345,360.671 P,0,121484,122101,A MX,0,121528,121572,360.671,376.342 MX,0,121572,121616,376.342,392.013 MX,0,121616,121660,392.013,407.684 MX,0,121660,121704,407.684,423.355 MX,0,121704,121748,423.355,439.026 F,0,121748,122101,1,0 F,0,122190,,1 C,0,122190,,255,0,0 MX,0,122190,,361 MX,0,122190,122234,361,345.329 P,0,122190,122807,A MX,0,122234,122278,345.329,329.658 MX,0,122278,122322,329.658,313.987 MX,0,122322,122366,313.987,298.316 MX,0,122366,122410,298.316,282.645 MX,0,122410,122454,282.645,266.974 F,0,122454,122807,1,0 F,0,122896,,1 C,0,122896,,169,81,71 MX,0,122896,,345 MX,0,122896,122940,345,360.671 P,0,122896,123513,A MX,0,122940,122984,360.671,376.342 MX,0,122984,123028,376.342,392.013 MX,0,123028,123072,392.013,407.684 MX,0,123072,123116,407.684,423.355 MX,0,123116,123160,423.355,439.026 F,0,123160,123513,1,0 C,0,123602,,168,217,202 MX,0,123602,,377 F,0,123602,123954,1,0 P,0,123602,123954,A F,0,124572,,1 C,0,124572,,90,177,140 MX,0,124572,,439 MX,0,124572,124616,439,443.0085 P,0,124572,125101,A MX,0,124616,124660,443.0085,447.0171 MX,0,124660,124704,447.0171,443.0085 MX,0,124704,124748,443.0085,439 F,0,124748,125101,1,0 F,0,125278,,1 C,0,125278,,255,0,0 MX,0,125278,,356 MX,0,125278,125322,356,360.0085 P,0,125278,125807,A MX,0,125322,125366,360.0085,364.0171 MX,0,125366,125410,364.0171,360.0085 MX,0,125410,125454,360.0085,356 F,0,125454,125807,1,0 F,0,125984,,1 C,0,125984,,169,81,71 MX,0,125984,,273 MX,0,125984,126028,273,277.0085 P,0,125984,126513,A MX,0,126028,126072,277.0085,281.0171 MX,0,126072,126116,281.0171,277.0085 MX,0,126116,126160,277.0085,273 F,0,126160,126513,1,0 C,0,127131,,90,177,140 MX,0,127131,,160 F,0,127131,127483,1,0 P,0,127131,127483,A C,0,127837,,255,0,0 MX,0,127837,,280 F,0,127837,128189,1,0 P,0,127837,128189,A C,0,128543,,169,81,71 MX,0,128543,,400 F,0,128543,128895,1,0 P,0,128543,128895,A C,0,129249,,168,217,202 MX,0,129249,,576 F,0,129249,129601,1,0 P,0,129249,129601,A F,0,129602,,1 C,0,129602,,168,217,202 MX,0,129602,,505 MX,0,129602,129646,505,494.6627 P,0,129602,130219,A MX,0,129646,129690,494.6627,478.9162 MX,0,129690,129734,478.9162,458.6516 MX,0,129734,129778,458.6516,435.4977 MX,0,129778,129822,435.4977,411.3159 MX,0,129822,129866,411.3159,387.9066 F,0,129866,130219,1,0 F,0,130925,,1 C,0,130925,,255,0,0 MX,0,130925,,101 MX,0,130925,130969,101,106.8544 P,0,130925,131454,A MX,0,130969,131013,106.8544,112.7088 MX,0,131013,131057,112.7088,118.5632 MX,0,131057,131101,118.5632,124.4176 F,0,131101,131454,1,0 F,0,131631,,1 C,0,131631,,169,81,71 MX,0,131631,,298 MX,0,131631,131675,298,292.1456 P,0,131631,132160,A MX,0,131675,131719,292.1456,286.2912 MX,0,131719,131763,286.2912,280.4368 MX,0,131763,131807,280.4368,274.5824 F,0,131807,132160,1,0
Sprite,Foreground,Centre,"sb\spotlight.png",0,240 C,0,118131,,168,217,202 MX,0,118131,,104 V,0,118131,,1,0.7272727 F,0,118131,118483,1,0 P,0,118131,118483,A C,0,123778,,168,217,202 MX,0,123778,,409 F,0,123778,124130,1,0 P,0,123778,124130,A C,0,129337,,168,217,202 MX,0,129337,,558 F,0,129337,129689,1,0 P,0,129337,129689,A F,0,130219,,1 C,0,130219,,90,177,140 MX,0,130219,,307 MX,0,130219,130263,307,301.1456 P,0,130219,130748,A MX,0,130263,130307,301.1456,295.2912 MX,0,130307,130351,295.2912,289.4368 MX,0,130351,130395,289.4368,283.5824 F,0,130395,130748,1,0
Sprite,Foreground,Centre,"sb\spotlight.png",0,240 C,0,118219,,168,217,202 MX,0,118219,,120 V,0,118219,,1,0.7272727 F,0,118219,118571,1,0 P,0,118219,118571,A C,0,123866,,168,217,202 MX,0,123866,,425 F,0,123866,124218,1,0 P,0,123866,124218,A C,0,129513,,168,217,202 MX,0,129513,,523 F,0,129513,129865,1,0 P,0,129513,129865,A
Sprite,Foreground,Centre,"sb\spotlight.png",0,240 C,0,123954,,168,217,202 MX,0,123954,,441 V,0,123954,,1,0.7272727 F,0,123954,124306,1,0 P,0,123954,124306,A
Sprite,Foreground,Centre,"sb\f\c\r\0073.png",0,240.65 S,0,11366,,0.3 F,0,11366,12071,0,1 MX,19,11366,17014,139.4,85.21996 F,0,15690,16396,1,0
Sprite,Foreground,Centre,"sb\f\c\r\0065.png",0,240.65 S,0,11395,,0.3 F,0,11395,12101,0,1 MX,19,11395,17014,155,105.5 F,0,15719,16425,1,0
Sprite,Foreground,Centre,"sb\f\c\r\0074.png",0,240.65 S,0,11424,,0.3 F,0,11424,12130,0,1 MX,19,11424,17014,168.65,123.2449 F,0,15749,16455,1,0
Sprite,Foreground,Centre,"sb\f\c\r\0068.png",0,240.65 S,0,11454,,0.3 F,0,11454,12160,0,1 MX,19,11454,17014,193.4,155.42 F,0,15778,16484,1,0
Sprite,Foreground,Centre,"sb\f\c\r\006f.png",0,240.65 S,0,11483,,0.3 F,0,11483,12189,0,1 MX,19,11483,17014,209.6,176.48 F,0,15808,16514,1,0
Sprite,Foreground,Centre,"sb\f\c\r\0073.png",0,240.65 S,0,11513,,0.3 F,0,11513,12218,0,1 MX,19,11513,17014,225.2,196.7599 F,0,15837,16543,1,0
Sprite,Foreground,Centre,"sb\f\c\r\0074.png",0,240.65 S,0,11542,,0.3 F,0,11542,12248,0,1 MX,19,11542,17014,238.25,213.725 F,0,15866,16572,1,0
Sprite,Foreground,Centre,"sb\f\c\r\0065.png",0,240.65 S,0,11571,,0.3 F,0,11571,12277,0,1 MX,19,11571,17014,251.9,231.47 F,0,15896,16602,1,0
Sprite,Foreground,Centre,"sb\f\c\r\0064.png",0,240.65 S,0,11601,,0.3 F,0,11601,12307,0,1 MX,19,11601,17014,268.1,252.53 F,0,15925,16631,1,0
Sprite,Foreground,Centre,"sb\f\c\r\0062.png",0,240.65 S,0,11630,,0.3 F,0,11630,12336,0,1 MX,19,11630,17014,295.4,288.02 F,0,15955,16661,1,0
Sprite,Foreground,Centre,"sb\f\c\r\0079.png",0,240.65 S,0,11660,,0.3 F,0,11660,12366,0,1 MX,19,11660,17014,311,308.3 F,0,15984,16690,1,0
Sprite,Foreground,Centre,"sb\f\c\b\0053.png",0,240.8 S,0,11689,,0.3 F,0,11689,12395,0,1 MX,19,11689,17014,338.75,344.375 F,0,16013,16719,1,0
Sprite,Foreground,Centre,"sb\f\c\b\0063.png",0,240.8 S,0,11718,,0.3 F,0,11718,12424,0,1 MX,19,11718,17014,356,366.8 F,0,16043,16749,1,0
Sprite,Foreground,Centre,"sb\f\c\b\0075.png",0,240.8 S,0,11748,,0.3 F,0,11748,12454,0,1 MX,19,11748,17014,372.65,388.445 F,0,16072,16778,1,0
Sprite,Foreground,Centre,"sb\f\c\b\0062.png",0,240.8 S,0,11777,,0.3 F,0,11777,12483,0,1 MX,19,11777,17014,389.75,410.675 F,0,16102,16808,1,0
Sprite,Foreground,Centre,"sb\f\c\b\0044.png",0,240.8 S,0,11807,,0.3 F,0,11807,12513,0,1 MX,19,11807,17014,407.9,434.27 F,0,16131,16837,1,0
Sprite,Foreground,Centre,"sb\f\c\b\006f.png",0,240.8 S,0,11836,,0.3 F,0,11836,12542,0,1 MX,19,11836,17014,426.05,457.865 F,0,16161,16866,1,0
Sprite,Foreground,Centre,"sb\f\c\b\006d.png",0,240.8 S,0,11866,,0.3 F,0,11866,12571,0,1 MX,19,11866,17014,445.7,483.4101 F,0,16190,16896,1,0
Sprite,Foreground,Centre,"sb\f\c\b\0069.png",0,240.8 S,0,11895,,0.3 F,0,11895,12601,0,1 MX,19,11895,17014,462.35,505.0551 F,0,16219,16925,1,0
Sprite,Foreground,Centre,"sb\f\c\b\006e.png",0,240.8 S,0,11924,,0.3 F,0,11924,12630,0,1 MX,19,11924,17014,476.45,523.3851 F,0,16249,16955,1,0
Sprite,Foreground,Centre,"sb\f\c\b\006f.png",0,240.8 S,0,11954,,0.3 F,0,11954,12660,0,1 MX,19,11954,17014,493.55,545.6151 F,0,16278,16984,1,0
Sprite,Foreground,Centre,"sb\f\c\r\0064.png",0,240.65 S,0,17014,,0.3 F,0,17014,17719,0,1 MX,19,17014,22661,92.44996,24.18495 F,0,21131,21837,1,0
Sprite,Foreground,Centre,"sb\f\c\r\0069.png",0,240.65 S,0,17043,,0.3 F,0,17043,17749,0,1 MX,19,17043,22661,105.65,41.34494 F,0,21161,21866,1,0
Sprite,Foreground,Centre,"sb\f\c\r\0066.png",0,240.65 S,0,17072,,0.3 F,0,17072,17778,0,1 MX,19,17072,22661,116.3,55.18995 F,0,21190,21896,1,0
Sprite,Foreground,Centre,"sb\f\c\r\0066.png",0,240.65 S,0,17102,,0.3 F,0,17102,17808,0,1 MX,19,17102,22661,127.4,69.61994 F,0,21219,21925,1,0
Sprite,Foreground,Centre,"sb\f\c\r\0069.png",0,240.65 S,0,17131,,0.3 F,0,17131,17837,0,1 MX,19,17131,22661,138.05,83.46494 F,0,21249,21955,1,0
Sprite,Foreground,Centre,"sb\f\c\r\0063.png",0,240.65 S,0,17161,,0.3 F,0,17161,17866,0,1 MX,19,17161,22661,150.6499,99.84493 F,0,21278,21984,1,0
Sprite,Foreground,Centre,"sb\f\c\r\0075.png",0,240.65 S,0,17190,,0.3 F,0,17190,17896,0,1 MX,19,17190,22661,166.25,120.1249 F,0,21308,22013,1,0
Sprite,Foreground,Centre,"sb\f\c\r\006c.png",0,240.65 S,0,17219,,0.3 F,0,17219,17925,0,1 MX,19,17219,22661,179.45,137.2849 F,0,21337,22043,1,0
Sprite,Foreground,Centre,"sb\f\c\r\0074.png",0,240.65 S,0,17249,,0.3 F,0,17249,17955,0,1 MX,19,17249,22661,190.0999,151.1299 F,0,21366,22072,1,0
Sprite,Foreground,Centre,"sb\f\c\r\0079.png",0,240.65 S,0,17278,,0.3 F,0,17278,17984,0,1 MX,19,17278,22661,203.1499,168.0949 F,0,21396,22102,1,0
Sprite,Foreground,Centre,"sb\f\c\r\006d.png",0,240.65 S,0,17308,,0.3 F,0,17308,18013,0,1 MX,19,17308,22661,232.25,205.9249 F,0,21425,22131,1,0
Sprite,Foreground,Centre,"sb\f\c\r\0061.png",0,240.65 S,0,17337,,0.3 F,0,17337,18043,0,1 MX,19,17337,22661,250.85,230.1049 F,0,21455,22161,1,0
Sprite,Foreground,Centre,"sb\f\c\r\0070.png",0,240.65 S,0,17366,,0.3 F,0,17366,18072,0,1 MX,19,17366,22661,267.05,251.1649 F,0,21484,22190,1,0
Sprite,Foreground,Centre,"sb\f\c\r\0070.png",0,240.65 S,0,17396,,0.3 F,0,17396,18102,0,1 MX,19,17396,22661,283.25,272.225 F,0,21513,22219,1,0
Sprite,Foreground,Centre,"sb\f\c\r\0065.png",0,240.65 S,0,17425,,0.3 F,0,17425,18131,0,1 MX,19,17425,22661,299.45,293.285 F,0,21543,22249,1,0
Sprite,Foreground,Centre,"sb\f\c\r\0064.png",0,240.65 S,0,17455,,0.3 F,0,17455,18161,0,1 MX,19,17455,22661,315.65,314.345 F,0,21572,22278,1,0
Sprite,Foreground,Centre,"sb\f\c\r\0062.png",0,240.65 S,0,17484,,0.3 F,0,17484,18190,0,1 MX,19,17484,22661,342.95,349.835 F,0,21602,22308,1,0
Sprite,Foreground,Centre,"sb\f\c\r\0079.png",0,240.65 S,0,17514,,0.3 F,0,17514,18219,0,1 MX,19,17514,22661,358.55,370.115 F,0,21631,22337,1,0
Sprite,Foreground,Centre,"sb\f\c\b\0053.png",0,240.8 S,0,17543,,0.3 F,0,17543,18249,0,1 MX,19,17543,22661,386.3,406.19 F,0,21661,22366,1,0
Sprite,Foreground,Centre,"sb\f\c\b\0063.png",0,240.8 S,0,17572,,0.3 F,0,17572,18278,0,1 MX,19,17572,22661,403.55,428.615 F,0,21690,22396,1,0
Sprite,Foreground,Centre,"sb\f\c\b\0075.png",0,240.8 S,0,17602,,0.3 F,0,17602,18308,0,1 MX,19,17602,22661,420.2,450.26 F,0,21719,22425,1,0
Sprite,Foreground,Centre,"sb\f\c\b\0062.png",0,240.8 S,0,17631,,0.3 F,0,17631,18337,0,1 MX,19,17631,22661,437.3,472.49 F,0,21749,22455,1,0
Sprite,Foreground,Centre,"sb\f\c\b\0044.png",0,240.8 S,0,17661,,0.3 F,0,17661,18366,0,1 MX,19,17661,22661,455.45,496.0851 F,0,21778,22484,1,0
Sprite,Foreground,Centre,"sb\f\c\b\006f.png",0,240.8 S,0,17690,,0.3 F,0,17690,18396,0,1 MX,19,17690,22661,473.6,519.6801 F,0,21808,22513,1,0
Sprite,Foreground,Centre,"sb\f\c\b\006d.png",0,240.8 S,0,17719,,0.3 F,0,17719,18425,0,1 MX,19,17719,22661,493.2501,545.2251 F,0,21837,22543,1,0
Sprite,Foreground,Centre,"sb\f\c\b\0069.png",0,240.8 S,0,17749,,0.3 F,0,17749,18455,0,1 MX,19,17749,22661,509.9001,566.8701 F,0,21866,22572,1,0
Sprite,Foreground,Centre,"sb\f\c\b\006e.png",0,240.8 S,0,17778,,0.3 F,0,17778,18484,0,1 MX,19,17778,22661,524.0001,585.2001 F,0,21896,22602,1,0
Sprite,Foreground,Centre,"sb\f\c\b\006f.png",0,240.8 S,0,17808,,0.3 F,0,17808,18513,0,1 MX,19,17808,22661,541.1,607.4301 F,0,21925,22631,1,0
Sprite,Foreground,Centre,"sb\f\c\r\0073.png",0,240.65 S,0,22661,,0.3 F,0,22661,23366,0,1 MX,19,22661,28308,114.35,52.65495 F,0,26896,27602,1,0
Sprite,Foreground,Centre,"sb\f\c\r\0074.png",0,240.65 S,0,22690,,0.3 F,0,22690,23396,0,1 MX,19,22690,28308,127.4,69.61995 F,0,26925,27631,1,0
Sprite,Foreground,Centre,"sb\f\c\r\006f.png",0,240.65 S,0,22719,,0.3 F,0,22719,23425,0,1 MX,19,22719,28308,141.05,87.36497 F,0,26955,27660,1,0
Sprite,Foreground,Centre,"sb\f\c\r\0072.png",0,240.65 S,0,22749,,0.3 F,0,22749,23455,0,1 MX,19,22749,28308,155.15,105.695 F,0,26984,27690,1,0
Sprite,Foreground,Centre,"sb\f\c\r\0079.png",0,240.65 S,0,22778,,0.3 F,0,22778,23484,0,1 MX,19,22778,28308,168.65,123.2449 F,0,27013,27719,1,0
Sprite,Foreground,Centre,"sb\f\c\r\0062.png",0,240.65 S,0,22808,,0.3 F,0,22808,23513,0,1 MX,19,22808,28308,184.25,143.525 F,0,27043,27749,1,0
Sprite,Foreground,Centre,"sb\f\c\r\006f.png",0,240.65 S,0,22837,,0.3 F,0,22837,23543,0,1 MX,19,22837,28308,200.45,164.585 F,0,27072,27778,1,0
Sprite,Foreground,Centre,"sb\f\c\r\0061.png",0,240.65 S,0,22866,,0.3 F,0,22866,23572,0,1 MX,19,22866,28308,216.65,185.645 F,0,27102,27808,1,0
Sprite,Foreground,Centre,"sb\f\c\r\0072.png",0,240.65 S,0,22896,,0.3 F,0,22896,23602,0,1 MX,19,22896,28308,230.75,203.9749 F,0,27131,27837,1,0
Sprite,Foreground,Centre,"sb\f\c\r\0064.png",0,240.65 S,0,22925,,0.3 F,0,22925,23631,0,1 MX,19,22925,28308,244.85,222.3049 F,0,27160,27866,1,0
Sprite,Foreground,Centre,"sb\f\c\r\0062.png",0,240.65 S,0,22955,,0.3 F,0,22955,23660,0,1 MX,19,22955,28308,272.15,257.795 F,0,27190,27896,1,0
Sprite,Foreground,Centre,"sb\f\c\r\0079.png",0,240.65 S,0,22984,,0.3 F,0,22984,23690,0,1 MX,19,22984,28308,287.75,278.075 F,0,27219,27925,1,0
Sprite,Foreground,Centre,"sb\f\c\b\0048.png",0,240.8 S,0,23013,,0.3 F,0,23013,23719,0,1 MX,19,23013,28308,315.95,314.735 F,0,27249,27955,1,0
Sprite,Foreground,Centre,"sb\f\c\b\006f.png",0,240.8 S,0,23043,,0.3 F,0,23043,23749,0,1 MX,19,23043,28308,334.1,338.33 F,0,27278,27984,1,0
Sprite,Foreground,Centre,"sb\f\c\b\006b.png",0,240.8 S,0,23072,,0.3 F,0,23072,23778,0,1 MX,19,23072,28308,350.75,359.975 F,0,27308,28013,1,0
Sprite,Foreground,Centre,"sb\f\c\b\0069.png",0,240.8 S,0,23102,,0.3 F,0,23102,23808,0,1 MX,19,23102,28308,364.4,377.72 F,0,27337,28043,1,0
Sprite,Foreground,Centre,"sb\f\c\b\0063.png",0,240.8 S,0,23131,,0.3 F,0,23131,23837,0,1 MX,19,23131,28308,378.05,395.465 F,0,27366,28072,1,0
Sprite,Foreground,Centre,"sb\f\c\b\0068.png",0,240.8 S,0,23161,,0.3 F,0,23161,23866,0,1 MX,19,23161,28308,394.7,417.11 F,0,27396,28102,1,0
Sprite,Foreground,Centre,"sb\f\c\b\0069.png",0,240.8 S,0,23190,,0.3 F,0,23190,23896,0,1 MX,19,23190,28308,408.8,435.44 F,0,27425,28131,1,0
Sprite,Foreground,Centre,"sb\f\c\b\0026.png",0,240.8 S,0,23219,,0.3 F,0,23219,23925,0,1 MX,19,23219,28308,435.05,469.5651 F,0,27455,28160,1,0
Sprite,Foreground,Centre,"sb\f\c\b\004d.png",0,240.8 S,0,23249,,0.3 F,0,23249,23955,0,1 MX,19,23249,28308,466.2501,510.1251 F,0,27484,28190,1,0
Sprite,Foreground,Centre,"sb\f\c\b\0075.png",0,240.8 S,0,23278,,0.3 F,0,23278,23984,0,1 MX,19,23278,28308,485.3,534.8901 F,0,27513,28219,1,0
Sprite,Foreground,Centre,"sb\f\c\b\006e.png",0,240.8 S,0,23308,,0.3 F,0,23308,24013,0,1 MX,19,23308,28308,502.4001,557.1201 F,0,27543,28249,1,0
Sprite,Foreground,Centre,"sb\f\c\b\0065.png",0,240.8 S,0,23337,,0.3 F,0,23337,24043,0,1 MX,19,23337,28308,519.05,578.7651 F,0,27572,28278,1,0
//Storyboard Layer 4 (Overlay)
//Storyboard Sound Samples

[TimingPoints]
11367,352.941176470588,4,2,1,75,1,0
11455,-100,4,2,42,30,0,0
11896,-100,4,2,42,40,0,0
11984,-100,4,2,42,50,0,0
12072,-100,4,2,42,40,0,0
17543,-100,4,2,42,30,0,0
17631,-100,4,2,42,40,0,0
17719,-100,4,2,42,50,0,0
22661,-100,4,2,1,75,0,0
22749,-100,4,2,42,40,0,0
23190,-100,4,2,42,30,0,0
23278,-100,4,2,42,40,0,0
23366,-100,4,2,42,50,0,0
28837,-100,4,2,42,30,0,0
28925,-100,4,2,42,40,0,0
29013,-100,4,2,42,50,0,0
33955,-100,4,2,1,85,0,0
36778,-100,4,2,1,45,0,0
39602,-100,4,2,1,85,0,0
42425,-100,4,2,1,45,0,0
45249,-100,4,2,1,65,0,0
50896,-100,4,2,1,70,0,0
55131,-100,4,2,1,65,0,0
55308,-100,4,2,1,60,0,0
56366,-100,4,2,1,70,0,0
56543,-66.6666666666667,4,2,1,70,0,0
58661,-133.333333333333,4,2,1,70,0,0
59366,-66.6666666666667,4,2,1,70,0,0
61484,-133.333333333333,4,2,1,70,0,0
62190,-66.6666666666667,4,2,1,70,0,0
64308,-133.333333333333,4,2,1,70,0,0
64661,-66.6666666666667,4,2,1,70,0,0
65190,-133.333333333333,4,2,1,70,0,0
67131,-66.6666666666667,4,2,1,70,0,0
70308,-133.333333333333,4,2,1,70,0,0
70661,-66.6666666666667,4,2,1,70,0,0
71719,-66.6666666666667,4,2,1,85,0,0
71741,-66.6666666666667,4,2,43,5,0,0
71764,-66.6666666666667,4,2,42,15,0,0
71786,-66.6666666666667,4,2,43,25,0,0
71808,-66.6666666666667,4,2,42,35,0,0
71830,-66.6666666666667,4,2,43,45,0,0
71852,-66.6666666666667,4,2,42,55,0,0
71874,-66.6666666666667,4,2,43,65,0,0
71896,-66.6666666666667,4,2,42,75,0,0
71918,-66.6666666666667,4,2,43,85,0,0
71940,-66.6666666666667,4,2,42,85,0,0
71962,-66.6666666666667,4,2,43,85,0,0
71984,-66.6666666666667,4,2,42,85,0,0
72006,-66.6666666666667,4,2,43,5,0,0
72029,-66.6666666666667,4,2,42,15,0,0
72051,-66.6666666666667,4,2,43,25,0,0
72073,-66.6666666666667,4,2,42,35,0,0
72095,-66.6666666666667,4,2,43,45,0,0
72117,-66.6666666666667,4,2,42,55,0,0
72139,-66.6666666666667,4,2,43,65,0,0
72161,-66.6666666666667,4,2,42,75,0,0
72183,-66.6666666666667,4,2,43,85,0,0
72205,-66.6666666666667,4,2,42,85,0,0
72227,-66.6666666666667,4,2,43,85,0,0
72249,-66.6666666666667,4,2,42,85,0,0
72271,-66.6666666666667,4,2,43,5,0,0
72294,-66.6666666666667,4,2,42,15,0,0
72316,-66.6666666666667,4,2,43,25,0,0
72338,-66.6666666666667,4,2,42,35,0,0
72360,-66.6666666666667,4,2,43,45,0,0
72382,-66.6666666666667,4,2,42,55,0,0
72404,-66.6666666666667,4,2,43,65,0,0
72426,-66.6666666666667,4,2,42,75,0,0
72448,-66.6666666666667,4,2,43,85,0,0
72470,-66.6666666666667,4,2,42,85,0,0
72492,-66.6666666666667,4,2,43,85,0,0
72514,-66.6666666666667,4,2,44,85,0,0
72537,-66.6666666666667,4,2,42,15,0,0
72559,-66.6666666666667,4,2,43,25,0,0
72581,-66.6666666666667,4,2,42,35,0,0
72603,-66.6666666666667,4,2,43,45,0,0
72625,-66.6666666666667,4,2,42,55,0,0
72647,-66.6666666666667,4,2,43,65,0,0
72669,-66.6666666666667,4,2,42,75,0,0
72691,-66.6666666666667,4,2,43,85,0,0
72713,-66.6666666666667,4,2,42,85,0,0
72735,-66.6666666666667,4,2,43,85,0,0
72757,-66.6666666666667,4,2,1,85,0,0
75602,-100,4,2,1,85,0,0
77719,-100,4,2,99,65,0,0
79131,-66.6666666666667,4,2,1,85,0,0
102072,-66.6666666666667,4,2,1,60,0,0
107366,-66.6666666666667,4,2,1,70,0,0
111602,-66.6666666666667,4,2,1,50,0,0
112131,-66.6666666666667,4,2,1,60,0,0
112661,-100,4,2,1,80,0,0
115131,-66.6666666666667,4,2,1,80,0,0
115837,-100,4,2,1,80,0,0
120778,-58.8235294117647,4,2,1,80,0,0
121484,-100,4,2,1,80,0,0
126425,-66.6666666666667,4,2,1,80,0,0
132425,-100,4,2,1,80,0,0
132778,-111.111111111111,4,2,1,40,0,0
134190,-111.111111111111,4,2,1,50,0,0
134543,-111.111111111111,4,2,1,60,0,0
134896,-111.111111111111,4,2,1,70,0,0
135249,-111.111111111111,4,2,1,85,0,0
135602,-66.6666666666667,4,2,1,85,0,0
137719,-50,4,2,1,85,0,0
138425,-66.6666666666667,4,2,1,85,0,0
146190,-66.6666666666667,4,2,1,60,0,0
146896,-50,4,2,1,85,0,0
154661,-100,4,2,1,85,0,0
155366,-100,4,2,1,75,0,0
156072,-100,4,2,1,65,0,0
156778,-133.333333333333,4,2,99,55,0,0
156866,-133.333333333333,4,2,1,45,0,0
157484,-400,4,2,1,45,0,0

[Colours]
Combo1 : 169,81,71
Combo2 : 168,217,202
Combo3 : 90,177,140
Combo4 : 255,0,0

[HitObjects]
81,72,11367,5,2,0:1:0:0:
81,72,11896,2,0,L|86:106,2,32.5,0|0|2,2:2|2:2|2:2,0:0:0:0:
46,182,12249,1,0,3:0:0:0:
69,298,12602,1,2,2:0:0:0:
431,312,17014,5,0,2:0:0:0:
431,312,17543,2,0,L|426:278,2,32.5,0|0|2,2:2|2:2|2:2,0:0:0:0:
466,202,17896,1,0,3:0:0:0:
443,86,18249,5,2,2:0:0:0:
455,193,18602,1,2,2:2:0:0:
359,145,18955,1,2,2:0:0:0:
466,202,19308,1,0,2:0:0:0:
378,36,22661,5,2,0:1:0:0:
378,36,23190,2,0,L|344:41,2,32.5,0|0|2,2:2|2:2|2:2,0:0:0:0:
268,1,23543,1,0,3:0:0:0:
152,24,23896,1,2,2:0:0:0:
134,36,28308,5,0,2:0:0:0:
134,36,28837,2,0,L|168:41,2,32.5,0|0|2,2:2|2:2|2:2,0:0:0:0:
244,1,29190,1,0,3:0:0:0:
360,24,29543,5,2,2:0:0:0:
293,73,29896,1,2,2:2:0:0:
302,157,30249,1,2,2:0:0:0:
380,195,30602,1,2,2:0:0:0:
256,192,31131,12,0,33249,2:0:0:0:
16,192,33955,6,2,B|32:208|32:208|48:192|48:192|64:208|64:208|80:176|80:176|96:208|96:208|112:192|112:192|144:208|144:208|160:176|160:176|176:192|176:192|208:176|208:176|224:208|224:208|240:176|240:176|256:192|256:192|288:160|288:160|304:208|304:208|320:192|320:192|352:208|352:208|368:176|368:176|384:192|384:192|400:176|400:176|432:224|432:224|448:192|448:192|464:208|464:208|496:192|496:192|528:192,1,780,2|0,1:0|0:0,0:2:0:0:
496,384,36778,5,2,2:1:0:0:
416,384,37131,1,2,3:2:0:0:
336,384,37484,1,2,3:2:0:0:
256,384,37837,1,2,3:2:0:0:
176,384,38190,1,2,3:2:0:0:
96,384,38543,1,2,3:2:0:0:
16,384,38896,2,0,L|16:352,1,32.5,2|0,3:3|0:0,0:0:0:0:
16,192,39602,6,2,B|32:176|32:176|48:192|48:192|64:176|64:176|80:208|80:208|96:176|96:176|112:192|112:192|144:176|144:176|160:208|160:208|176:192|176:192|208:208|208:208|224:176|224:176|240:208|240:208|256:192|256:192|288:224|288:224|304:176|304:176|320:192|320:192|352:176|352:176|368:208|368:208|384:192|384:192|400:208|400:208|432:160|432:160|448:192|448:192|464:176|464:176|496:192|496:192|528:192,1,780,0|0,2:2|0:0,0:2:0:0:
512,0,42425,5,2,0:1:0:0:
448,48,42778,1,2,0:2:0:0:
384,96,43131,1,2,0:2:0:0:
320,144,43484,1,2,0:2:0:0:
256,192,43837,1,2,0:2:0:0:
384,96,44543,2,0,P|432:56|400:160,1,260,0|2,0:0|1:0,0:0:0:0:
445,174,45602,5,2,2:2:0:0:
370,285,45955,2,0,B|364:215|364:215|408:278,1,130,2|2,1:2|2:2,0:0:0:0:
233,293,46661,2,0,B|227:223|227:223|300:269,1,130,0|2,1:2|2:2,0:0:0:0:
60,343,47366,2,0,B|54:273|54:273|153:293,1,130,2|2,1:2|2:2,0:0:0:0:
16,111,48072,2,0,B|76:108|76:108|70:178,1,130,0|2,1:2|2:2,0:0:0:0:
166,30,48778,2,0,B|223:44|223:44|217:114,1,130,2|2,1:2|2:2,0:0:0:0:
336,0,49484,2,0,B|380:40|380:40|374:110,1,130,0|2,1:2|2:2,0:0:0:0:
489,0,50190,2,0,B|518:52|518:52|512:122,1,130,2|2,1:2|2:2,0:0:0:0:
512,122,50896,6,0,L|445:138,3,65,2|0|2|0,1:2|3:0|1:2|3:0,0:0:0:0:
305,150,51602,2,0,L|372:166,3,65,2|0|2|0,1:2|3:0|1:2|0:0,0:0:0:0:
509,135,52308,6,0,L|442:151,3,65,2|0|2|0,1:2|0:0|1:2|3:0,0:0:0:0:
302,163,53014,2,0,L|369:179,3,65,2|0|2|0,1:2|3:0|1:2|3:0,0:0:0:0:
509,154,53719,6,0,L|442:170,3,65,2|0|2|0,1:2|3:0|1:2|3:0,0:0:0:0:
302,182,54425,2,0,L|369:198,3,65,2|0|2|0,1:2|3:0|1:2|0:0,0:0:0:0:
313,281,55131,5,2,1:2:0:0:
315,301,55219,1,0,3:0:0:0:
318,321,55307,1,0,3:0:0:0:
320,341,55395,1,0,3:0:0:0:
323,360,55484,2,0,P|296:361|279:356,3,32.5,2|0|0|0,3:2|3:0|3:0|3:0,0:0:0:0:
210,375,55837,1,2,3:2:0:0:
210,375,56543,6,0,B|141:337|141:337|121:304|121:304|85:307|85:307|45:287,1,195,0|2,1:0|3:0,0:0:0:0:
240,165,57249,2,0,B|266:197|266:197|300:210|300:210|304:248|304:248|351:312,1,195,8|2,1:2|3:0,0:0:0:0:
502,315,57955,2,0,B|486:237|486:237|499:201|499:201|473:175|473:175|463:133,1,195,0|2,1:2|3:0,0:0:0:0:
497,52,58484,1,2,1:2:0:0:
423,10,58661,2,2,L|371:3,1,48.750001859665,8|0,0:0|0:0,0:2:0:0:
296,32,59014,1,0,1:0:0:0:
133,94,59366,6,0,B|218:50|218:50|232:50|232:50|233:27|233:27|295:31,1,195.00000743866,0|2,1:0|3:0,0:0:0:0:
78,238,60072,2,0,B|163:194|163:194|177:194|177:194|178:171|178:171|240:175,1,195.00000743866,8|2,1:2|3:0,0:0:0:0:
30,384,60778,2,0,B|115:340|115:340|129:340|129:340|130:317|130:317|192:321,1,195.00000743866,0|2,1:2|3:0,0:0:0:0:
54,271,61484,1,8,0:0:0:0:
288,343,61837,1,0,1:0:0:0:
288,343,62014,1,2,0:3:0:0:
250,252,62190,6,0,B|265:190|265:190|258:157|258:157|282:137|282:137|301:67,1,195.00000743866,0|2,1:0|3:0,0:0:0:0:
52,197,62896,2,0,B|114:212|114:212|147:205|147:205|167:229|167:229|237:248,1,195.00000743866,8|2,1:2|3:0,0:0:0:0:
104,0,63602,2,0,B|89:62|89:62|96:95|96:95|72:115|72:115|53:185,1,195.00000743866,0|2,1:2|3:0,0:0:0:0:
8,250,64131,1,2,1:2:0:0:
30,329,64308,2,2,L|39:360,2,24.3750009298325,8|0|0,0:0|0:0|0:0,0:2:0:0:
54,178,64661,2,2,P|104:167|205:231,1,146.250005578995,0|0,1:0|0:0,0:1:0:0:
197,215,65014,5,0,1:0:0:0:
264,329,65190,2,0,L|368:352,1,97.50000371933,2|2,0:0|3:0,0:0:0:0:
301,180,65719,5,8,1:2:0:0:
276,321,65896,2,0,L|380:344,1,97.50000371933,2|2,0:0|3:0,0:0:0:0:
400,237,66425,5,0,1:2:0:0:
289,315,66602,2,0,L|393:338,1,97.50000371933,2|2,0:0|1:2,0:0:0:0:
484,255,67131,2,2,P|526:290|472:286,1,146.250005578995,8|0,0:0|0:0,0:2:0:0:
400,237,67484,2,0,P|389:172|415:118,1,97.50000371933,2|2,1:3|1:3,0:0:0:0:
422,26,67837,6,0,B|404:87|404:87|385:108|385:108|263:152,1,195.00000743866,0|2,1:0|3:0,0:0:0:0:
303,18,68543,2,0,B|285:79|285:79|266:100|266:100|144:144,1,195.00000743866,8|2,1:2|3:0,0:0:0:0:
185,12,69249,2,0,B|167:73|167:73|148:94|148:94|26:138,1,195.00000743866,0|2,1:2|3:0,0:0:0:0:
9,207,69778,1,2,1:2:0:0:
42,296,69955,2,2,P|147:318|205:383,1,195.00000743866,8|0,0:0|1:0,0:2:0:0:
142,256,70661,6,0,P|149:183|170:257,1,195.00000743866,0|2,1:0|3:0,0:0:0:0:
106,29,71366,1,8,1:2:0:0:
264,144,71719,2,2,P|281:92|239:127,3,146.250005578995,2|2|2|2,0:3|0:0|0:0|0:0,0:1:0:0:
354,196,72778,1,10,1:2:0:0:
512,199,73131,1,2,1:3:0:0:
512,199,73308,1,2,0:3:0:0:
465,271,73484,6,0,B|508:250|508:250|490:352|490:352|431:294,1,195.00000743866,0|2,1:0|3:0,0:0:0:0:
241,276,74190,2,0,B|284:255|284:255|266:357|266:357|207:299,1,195.00000743866,8|2,1:2|3:0,0:0:0:0:
17,281,74896,2,0,B|60:260|60:260|42:362|42:362|-17:304,1,195.00000743866,0|2,1:2|3:0,0:0:0:0:
141,320,75425,1,2,1:2:0:0:
153,230,75602,2,2,P|146:198|140:167,2,65,8|0|0,0:0|0:0|1:0,0:2:0:0:
256,192,76308,12,10,77719,1:2:0:0:
80,288,79131,6,0,L|216:316,1,97.50000371933,6|2,1:1|0:0,0:0:0:0:
183,319,79396,1,2,3:2:0:0:
192,330,79484,1,2,3:3:0:0:
331,359,79661,2,0,L|282:365,1,48.750001859665,0|0,1:0|0:0,0:0:0:0:
271,367,79837,6,0,L|152:207,1,195.00000743866,10|2,0:0|1:2,0:0:0:0:
230,85,80366,2,0,L|270:304,1,195.00000743866,8|0,0:0|1:0,0:0:0:0:
333,178,80896,2,0,L|363:66,1,97.50000371933,2|0,1:2|3:0,0:0:0:0:
468,2,81249,6,0,L|391:16,3,48.750001859665,8|0|0|0,0:0|3:0|3:0|3:0,0:0:0:0:
411,11,81602,1,0,1:0:0:0:
230,85,81955,6,0,L|105:64,1,97.50000371933,2|2,1:2|0:0,0:0:0:0:
124,57,82219,1,2,3:2:0:0:
116,45,82308,2,0,L|-4:62,1,97.50000371933,2|0,3:3|1:0,0:0:0:0:
75,204,82661,6,0,L|243:74,1,195.00000743866,10|2,0:0|1:2,0:0:0:0:
313,127,83190,2,0,L|251:339,1,195.00000743866,8|0,0:0|1:0,0:0:0:0:
368,384,83719,2,0,L|358:266,1,97.50000371933,2|0,1:2|3:0,0:0:0:0:
349,200,84072,5,8,0:0:0:0:
466,38,84425,1,0,1:0:0:0:
432,233,84778,6,0,L|495:107,1,97.50000371933,2|2,1:2|0:0,0:0:0:0:
485,136,85043,1,2,3:2:0:0:
474,133,85131,2,0,L|337:108,1,97.50000371933,2|0,3:3|1:0,0:0:0:0:
306,0,85484,6,0,L|156:181,1,195.00000743866,10|2,0:0|1:2,0:0:0:0:
57,226,86014,2,0,L|121:37,1,195.00000743866,8|0,0:0|1:0,0:0:0:0:
11,3,86543,2,0,L|0:116,1,97.50000371933,2|0,1:2|3:2,0:0:0:0:
57,226,86896,6,0,L|113:238,3,48.750001859665,8|0|0|0,0:0|3:0|3:0|3:0,0:0:0:0:
116,240,87249,1,0,1:0:0:0:
192,384,87602,6,2,P|191:309|314:270,1,195.00000743866,6|2,1:2|3:0,0:2:0:0:
271,343,88131,1,2,3:2:0:0:
196,380,88308,6,2,P|195:305|318:266,1,195.00000743866,6|2,1:2|3:0,0:2:0:0:
275,339,88837,1,2,3:2:0:0:
200,376,89014,6,2,P|199:301|322:262,1,195.00000743866,6|2,1:2|3:0,0:2:0:0:
279,335,89543,1,2,3:2:0:0:
360,310,89719,1,10,3:0:0:0:
436,375,89896,1,8,0:3:0:0:
436,375,89984,1,4,0:3:0:0:
436,375,90072,1,0,1:3:0:0:
479,241,90425,6,0,L|448:105,1,97.50000371933,4|2,1:1|0:0,0:0:0:0:
460,135,90690,1,2,3:2:0:0:
465,126,90778,1,2,3:3:0:0:
437,19,90955,1,0,1:0:0:0:
356,112,91131,6,0,B|284:86|284:86|262:68|262:68|234:67|234:67|140:33,1,195.00000743866,10|2,0:0|1:2,0:0:0:0:
73,102,91661,2,0,B|132:91|132:91|156:78|156:78|185:82|185:82|288:64,1,195.00000743866,8|0,0:0|1:0,0:0:0:0:
356,112,92190,2,0,B|388:115|388:115|406:112|406:112|421:120|421:120|489:130,1,97.50000371933,2|0,1:2|3:0,0:0:0:0:
512,195,92543,6,0,L|502:260,3,48.750001859665,8|0|0|0,0:0|3:0|3:0|3:0,0:0:0:0:
502,253,92896,1,0,1:0:0:0:
436,339,93249,6,0,L|302:363,1,97.50000371933,2|2,1:2|0:0,0:0:0:0:
329,344,93514,1,2,3:2:0:0:
319,331,93602,2,0,L|182:308,1,97.50000371933,2|0,3:3|1:0,0:0:0:0:
100,363,93955,6,0,B|140:323|140:323|150:276|150:276|193:268|193:268|258:208,1,195.00000743866,10|2,0:0|1:2,0:0:0:0:
64,172,94484,2,0,B|119:162|119:162|154:129|154:129|194:147|194:147|282:135,1,195.00000743866,8|0,0:0|1:0,0:0:0:0:
245,15,95014,2,0,B|228:50|228:50|298:17,1,97.50000371933,2|0,1:2|3:0,0:0:0:0:
324,102,95366,5,8,0:0:0:0:
122,41,95719,1,0,1:0:0:0:
283,23,96072,6,0,L|309:160,1,97.50000371933,2|2,1:2|0:0,0:0:0:0:
309,130,96337,1,2,3:2:0:0:
317,142,96425,1,2,3:3:0:0:
427,177,96602,1,0,1:0:0:0:
355,278,96778,6,0,B|388:290|388:290|438:257|438:257|448:321|448:321|478:343,1,195.00000743866,10|2,0:0|1:2,0:0:0:0:
330,365,97308,2,0,B|259:331|259:331|225:279|225:279|222:360,1,195.00000743866,8|0,0:0|1:0,0:0:0:0:
74,381,97837,2,0,L|162:284,1,97.50000371933,2|0,1:2|3:0,0:0:0:0:
14,257,98190,6,0,L|78:247,3,48.750001859665,8|0|0|0,0:0|3:0|3:0|3:0,0:0:0:0:
74,247,98543,1,0,1:0:0:0:
145,76,98896,6,2,B|180:128|152:197|152:197|182:135|229:120,1,195.00000743866,6|2,1:2|3:0,0:2:0:0:
264,99,99425,1,2,3:2:0:0:
149,69,99602,6,2,B|184:121|156:190|156:190|186:128|233:113,1,195.00000743866,6|2,1:2|3:0,0:2:0:0:
268,92,100131,1,2,3:2:0:0:
153,62,100308,6,2,B|188:114|160:183|160:183|190:121|237:106,1,195.00000743866,6|2,1:2|3:0,0:2:0:0:
272,85,100837,1,2,3:2:0:0:
354,110,101014,1,10,3:0:0:0:
418,54,101190,1,8,0:3:0:0:
418,54,101278,1,4,0:3:0:0:
418,54,101366,1,0,1:3:0:0:
512,192,101719,5,2,3:1:0:0:
256,192,107366,12,0,111602,3:0:0:0:
63,90,112661,6,0,P|102:100|143:72,1,65,8|4,3:0|3:0,0:0:0:0:
140,89,113014,6,0,L|125:202,1,97.5,0|2,1:3|3:2,0:0:0:0:
111,268,113455,1,2,3:2:0:0:
225,151,113719,6,0,L|210:264,1,97.5,8|2,1:1|3:2,0:0:0:0:
196,330,114160,1,2,3:2:0:0:
314,204,114425,6,0,L|299:317,1,97.5,0|2,1:3|3:2,0:0:0:0:
285,383,114866,1,2,3:2:0:0:
397,238,115131,2,0,B|395:271|395:271|433:236,5,65.0000024795533,8|8|8|4|4|4,1:1|3:3|3:3|3:3|3:3|3:3,0:0:0:0:
419,224,115837,6,0,L|404:111,1,97.5,0|2,1:3|3:2,0:0:0:0:
390,45,116278,1,2,3:2:0:0:
299,210,116543,6,0,L|284:97,1,97.5,8|2,1:1|3:2,0:0:0:0:
270,31,116983,1,2,3:2:0:0:
173,180,117249,6,0,L|158:67,1,97.5,0|2,1:3|3:2,0:0:0:0:
144,1,117689,1,2,3:2:0:0:
9,116,117955,5,8,1:1:0:0:
24,119,118043,1,8,3:3:0:0:
40,122,118131,1,4,3:3:0:0:
56,126,118219,1,0,1:3:0:0:
71,130,118308,2,0,P|81:184|50:236,1,97.5,8|0,3:1|0:0,0:0:0:0:
52,232,118661,6,0,L|165:263,1,97.5,0|2,1:3|3:2,0:0:0:0:
229,279,119102,1,2,3:2:0:0:
293,156,119366,6,0,L|180:187,1,97.5,8|2,1:1|3:2,0:0:0:0:
116,203,119807,1,2,3:2:0:0:
52,80,120072,6,0,L|165:111,1,97.5,0|2,1:3|3:2,0:0:0:0:
229,127,120513,1,2,3:2:0:0:
174,8,120778,6,0,P|185:26|181:0,5,73.6666680717469,8|8|8|4|4|4,1:1|3:3|3:3|3:3|3:3|3:3,0:0:0:0:
281,48,121484,6,0,L|394:79,1,97.5,0|2,1:3|3:2,0:0:0:0:
458,95,121925,1,2,3:2:0:0:
297,143,122190,6,0,L|184:174,1,97.5,8|2,1:1|3:2,0:0:0:0:
120,190,122631,1,2,3:2:0:0:
281,238,122896,6,0,L|394:269,1,97.5,0|2,1:3|3:2,0:0:0:0:
458,285,123337,1,2,3:2:0:0:
313,365,123602,5,8,1:1:0:0:
329,362,123690,1,8,3:3:0:0:
345,359,123778,1,4,3:3:0:0:
361,357,123866,1,0,1:3:0:0:
377,354,123954,1,8,3:1:0:0:
210,313,124308,5,0,1:3:0:0:
375,261,124572,2,0,L|389:206,2,32.5,2|0|2,3:2|0:0|3:2,0:0:0:0:
127,248,125014,5,8,1:1:0:0:
292,196,125278,2,0,L|306:141,2,32.5,2|0|2,3:2|0:0|3:2,0:0:0:0:
44,183,125720,5,0,1:3:0:0:
209,131,125984,2,0,L|223:76,2,32.5,2|0|2,3:2|0:0|3:2,0:0:0:0:
0,100,126425,6,0,B|45:92|45:92|12:76,5,65.0000024795533,8|8|8|4|4|4,1:1|3:3|3:3|3:3|3:3|3:3,0:0:0:0:
96,20,127131,5,0,1:3:0:0:
206,134,127396,2,0,P|209:190|175:241,1,97.50000371933,2|2,3:2|3:2,0:0:0:0:
216,17,127837,5,8,1:1:0:0:
326,131,128102,2,0,P|329:187|295:238,1,97.50000371933,2|2,3:2|3:2,0:0:0:0:
336,14,128543,5,0,1:3:0:0:
446,128,128808,2,0,P|449:184|415:235,1,97.50000371933,2|2,3:2|3:2,0:0:0:0:
512,375,129249,5,8,1:1:0:0:
494,370,129337,1,8,3:3:0:0:
476,365,129425,1,4,3:3:0:0:
459,360,129513,1,0,1:3:0:0:
441,355,129602,2,0,P|411:311|323:301,1,146.250005578995,8|0,3:1|0:0,0:0:0:0:
252,358,129955,5,0,1:3:0:0:
243,179,130219,2,0,L|219:276,1,97.50000371933,2|2,3:2|3:2,0:0:0:0:
28,294,130661,5,8,1:1:0:0:
37,115,130925,2,0,L|61:212,1,97.50000371933,2|2,3:2|3:2,0:0:0:0:
243,179,131366,5,0,1:3:0:0:
234,0,131631,2,0,L|210:97,1,97.50000371933,2|2,3:2|3:2,0:0:0:0:
396,87,132072,1,8,1:1:0:0:
243,179,132425,2,0,B|282:172|282:172|288:167|288:167|353:155,1,97.5,2|0,3:3|0:0,0:0:0:0:
348,155,132778,6,0,P|427:231|404:123,1,643.499980361939,2|0,3:2|0:0,0:0:0:0:
152,57,134896,2,0,L|223:42,1,58.4999982147217,8|4,3:3|3:3,0:0:0:0:
291,22,135249,2,0,L|362:7,1,58.4999982147217,0|0,1:2|0:0,0:0:0:0:
475,123,135602,6,0,B|488:75|488:75|485:135,1,97.50000371933,6|0,1:2|3:0,0:0:0:0:
317,194,135955,2,0,B|304:146|304:146|307:206,1,97.50000371933,2|0,3:2|1:2,0:0:0:0:
476,219,136308,6,0,B|489:171|489:171|486:231,1,97.50000371933,8|0,3:1|3:0,0:0:0:0:
318,282,136661,2,0,B|305:234|305:234|308:294,1,97.50000371933,2|0,1:2|3:0,0:0:0:0:
357,384,137014,6,0,L|250:364,1,97.50000371933,2|2,3:2|3:2,0:0:0:0:
247,355,137278,1,2,3:3:0:0:
238,343,137366,1,0,1:2:0:0:
21,303,137719,6,0,B|44:282|44:282|45:266|45:266|31:269|31:269|-17:313,5,86.6666666666667,8|0|0|0|0|0,2:1|3:3|3:3|3:3|3:3|3:3,0:0:0:0:
120,383,138425,6,0,P|132:349|130:284,1,97.50000371933,2|0,1:2|3:0,0:0:0:0:
246,263,138778,2,0,P|234:229|236:164,1,97.50000371933,2|0,3:2|1:2,0:0:0:0:
127,275,139131,6,0,P|114:241|71:192,1,97.50000371933,8|0,3:1|3:0,0:0:0:0:
240,157,139484,2,0,P|252:123|295:74,1,97.50000371933,2|0,1:2|3:0,0:0:0:0:
66,188,139837,6,0,B|3:177|3:177|54:167,1,97.50000371933,2|2,3:2|3:2,0:0:0:0:
97,110,140102,1,2,3:3:0:0:
97,110,140190,1,0,1:2:0:0:
292,77,140543,6,0,L|381:94,2,65.0000024795533,8|0|0,2:1|3:3|3:3,0:0:0:0:
209,61,140896,1,0,3:3:0:0:
442,108,141249,6,0,B|448:148|423:185|423:185|425:172|420:160,1,97.50000371933,2|0,1:2|3:0,0:0:0:0:
356,303,141602,2,0,B|362:263|337:225|337:225|339:239|334:251,1,97.50000371933,2|0,3:2|1:2,0:0:0:0:
292,77,141955,6,0,B|298:117|273:154|273:154|275:141|270:129,1,97.50000371933,8|0,3:1|3:0,0:0:0:0:
217,288,142308,2,0,B|223:248|198:210|198:210|200:224|195:236,1,97.50000371933,2|0,1:2|3:0,0:0:0:0:
114,243,142572,1,0,0:0:0:0:
114,243,142661,6,0,L|85:357,1,97.50000371933,2|2,3:2|3:2,0:0:0:0:
52,141,143014,2,0,L|23:255,1,97.50000371933,0|0,1:2|3:0,0:0:0:0:
86,21,143366,6,0,B|68:42|68:42|88:-13,2,65.0000024795533,8|0|0,2:1|3:3|3:3,0:0:0:0:
172,18,143719,6,0,B|190:39|190:39|170:-16,2,65.0000024795533,0|0|0,3:3|3:3|3:3,0:0:0:0:
127,103,144072,5,2,1:2:0:0:
377,29,144425,2,2,B|411:38|411:38|324:45,1,97.50000371933,2|2,3:0|3:2,0:2:0:0:
348,157,144778,5,2,1:2:0:0:
98,89,145131,2,2,B|64:98|64:98|151:105,1,97.50000371933,2|2,3:0|3:2,0:0:0:0:
126,217,145484,5,2,1:2:0:0:
376,143,145837,2,2,B|410:152|410:152|323:159,1,97.50000371933,2|2,3:0|3:2,0:0:0:0:
256,192,146190,5,2,3:0:0:0:
256,192,146366,1,2,3:3:0:0:
256,192,146543,1,0,0:0:0:0:
339,348,146896,6,0,P|338:349|341:345,1,65,6|0,1:2|0:0,0:0:0:0:
473,314,147249,2,0,P|474:315|471:311,1,65,2|0,3:2|0:0,0:0:0:0:
295,243,147602,6,0,P|294:244|297:240,1,65,8|0,3:1|0:0,0:0:0:0:
459,204,147955,2,0,P|460:205|457:201,1,65,2|0,1:2|0:0,0:0:0:0:
254,135,148308,6,0,P|253:136|256:132,1,65,2|0,3:2|0:0,0:0:0:0:
454,94,148661,2,0,P|455:95|452:91,1,65,0|0,1:2|0:0,0:0:0:0:
324,11,149014,6,0,B|318:53|318:53|344:-7,5,86.6666666666667,8|0|0|0|0|0,2:1|3:3|3:3|3:3|3:3|3:3,0:0:0:0:
184,52,149719,6,0,P|222:87|202:42,1,130,2|0,1:2|3:0,0:0:0:0:
151,162,150072,1,2,3:2:0:0:
100,229,150249,1,0,1:2:0:0:
21,247,150425,5,8,3:1:0:0:
241,215,150778,2,0,P|228:205|249:212,1,65,2|0,1:2|0:0,0:0:0:0:
419,260,151131,6,0,P|432:250|411:257,1,65,2|0,3:2|0:0,0:0:0:0:
242,338,151484,2,0,P|229:328|250:335,1,65,0|0,1:2|0:0,0:0:0:0:
446,351,151837,6,0,B|433:376|433:376|402:370|402:370|400:343,5,86.6666666666667,8|0|0|0|0|0,2:1|3:3|3:3|3:3|3:3|3:3,0:0:0:0:
437,264,152543,6,0,P|451:248|432:262,1,65,2|0,1:2|0:0,0:0:0:0:
295,229,152896,2,0,P|299:208|289:229,1,65,2|0,3:2|0:0,0:0:0:0:
153,154,153249,6,0,P|138:137|157:151,1,65,8|0,3:1|0:0,0:0:0:0:
294,118,153602,2,0,P|289:97|299:118,1,65,2|0,1:2|0:0,0:0:0:0:
461,43,153955,6,0,P|475:27|456:41,1,65,2|0,3:2|0:0,0:0:0:0:
319,8,154308,2,0,P|323:-12|313:8,1,65,0|0,1:2|0:0,0:0:0:0:
178,123,154661,2,0,B|185:82|185:82|196:127,1,65,8|2,2:1|3:3,0:0:0:0:
96,65,155014,2,0,B|101:26|101:26|112:71,1,65,2|2,3:3|3:3,0:0:0:0:
18,150,155366,6,0,P|19:102|0:58,2,86.6666666666667,2|0|0,1:2|0:0|0:0,0:0:0:0:
61,229,156072,6,0,P|123:242|184:220,1,130,2|2,1:2|3:0,0:0:0:0:
283,93,156778,6,0,P|329:104|375:88,1,97.50000371933,8|0,1:2|3:0,0:0:0:0:
451,5,157484,6,0,P|481:14|512:4,1,65,2|2,1:2|0:1,0:0:0:0:
