osu file format v14

[General]
AudioFilename: audio.mp3
AudioLeadIn: 0
PreviewTime: 79102
Countdown: 0
SampleSet: Soft
StackLeniency: 0.2
Mode: 0
LetterboxInBreaks: 1
EpilepsyWarning: 1
WidescreenStoryboard: 1

[Editor]
Bookmarks: 50896,101719
DistanceSpacing: 1.2
BeatDivisor: 8
GridSize: 16
TimelineZoom: 2.6

[Metadata]
Title:Glacierfall (Park Remix)
TitleUnicode:Glacierfall (Park Remix)
Artist:sakuraburst
ArtistUnicode:sakuraburst
Creator:ScubDomino
Version:get f**ked up
Source:
Tags:english electronic instrumental drumstep glacier fall cinematic edm dubstep glitch dnb drum and & bass drum&bass parkdtc paark paarkdtc sakura_burst sylvir sylvirsylvir coldpine S5 EP A Collection of Three Weapons natsume shiki anime girl natsume_shiki anime_girl scub domino jungkyuyoung [keqing] 8972308 celine citreum bws bwsnoob -bws miraculous 3545579 haruto -haruto aizawa haruto_aizawa 3772301 ancelysia True3L3CTRO iiOkward Celsius 7118575 woduf1121 [white music] hwamyu wm milr_ 4485933 Itsuki Hako hokichi hoki holekeycheese 6607303 munehime mune ningguang 8500334 he's hes going crazy get fucked up
BeatmapID:2753127
BeatmapSetID:1329045

[Difficulty]
HPDrainRate:5
CircleSize:3
OverallDifficulty:8
ApproachRate:9.5
SliderMultiplier:3.5
SliderTickRate:0.5

[Events]
//Background and Video events
0,0,"Remedy-Games-XboxOneX-Quantum-Break-1846655.jpg",0,0
//Break Periods
2,77919,78591
//Storyboard Layer 0 (Background)
//Storyboard Layer 1 (Fail)
//Storyboard Layer 2 (Pass)
//Storyboard Layer 3 (Foreground)
Sprite,Foreground,Centre,"sb\c.png",0,0 M,0,11367,,110,248 C,0,11367,,168,217,202 F,0,11367,12072,1,0 S,7,11367,12072,0.1,0.175 P,0,11367,12072,A M,0,12249,,187,312 C,0,12249,,168,217,202 F,0,12249,12954,1,0 S,7,12249,12954,0.1,0.175 P,0,12249,12954,A M,0,13130,,263,178 C,0,13130,,168,217,202 F,0,13130,13835,1,0 S,7,13130,13835,0.1,0.175 P,0,13130,13835,A M,0,13836,,187,144 C,0,13836,,168,217,202 F,0,13836,14541,1,0 S,7,13836,14541,0.1,0.175 P,0,13836,14541,A M,0,15602,,180,189 C,0,15602,,90,177,140 F,0,15602,16307,1,0 S,7,15602,16307,0.1,0.175 P,0,15602,16307,A M,0,16661,,180,189 C,0,16661,,90,177,140 F,0,16661,17366,1,0 S,7,16661,17366,0.1,0.175 P,0,16661,17366,A M,0,17367,,344,240 C,0,17367,,168,217,202 F,0,17367,18072,1,0 S,7,17367,18072,0.1,0.175 P,0,17367,18072,A M,0,18602,,437,289 C,0,18602,,168,217,202 F,0,18602,19307,1,0 S,7,18602,19307,0.1,0.175 P,0,18602,19307,A M,0,19484,,453,153 C,0,19484,,168,217,202 F,0,19484,20189,1,0 S,7,19484,20189,0.1,0.175 P,0,19484,20189,A M,0,21249,,381,93 C,0,21249,,90,177,140 F,0,21249,21954,1,0 S,7,21249,21954,0.1,0.175 P,0,21249,21954,A M,0,22661,,95,65 C,0,22661,,168,217,202 F,0,22661,23366,1,0 S,7,22661,23366,0.1,0.175 P,0,22661,23366,A M,0,23543,,189,133 C,0,23543,,168,217,202 F,0,23543,24248,1,0 S,7,23543,24248,0.1,0.175 P,0,23543,24248,A M,0,24425,,145,247 C,0,24425,,168,217,202 F,0,24425,25130,1,0 S,7,24425,25130,0.1,0.175 P,0,24425,25130,A M,0,25131,,224,265 C,0,25131,,168,217,202 F,0,25131,25836,1,0 S,7,25131,25836,0.1,0.175 P,0,25131,25836,A M,0,26896,,320,289 C,0,26896,,90,177,140 F,0,26896,27601,1,0 S,7,26896,27601,0.1,0.175 P,0,26896,27601,A M,0,28308,,307,357 C,0,28308,,168,217,202 F,0,28308,29013,1,0 S,7,28308,29013,0.1,0.175 P,0,28308,29013,A M,0,29014,,484,336 C,0,29014,,168,217,202 F,0,29014,29719,1,0 S,7,29014,29719,0.1,0.175 P,0,29014,29719,A M,0,30602,,407,105 C,0,30602,,168,217,202 F,0,30602,31307,1,0 S,7,30602,31307,0.1,0.175 P,0,30602,31307,A M,0,32190,,273,275 C,0,32190,,168,217,202 F,0,32190,32895,1,0 S,7,32190,32895,0.1,0.175 P,0,32190,32895,A M,0,33249,,273,275 C,0,33249,,168,217,202 F,0,33249,33954,1,0 S,7,33249,33954,0.1,0.175 P,0,33249,33954,A
Sprite,Foreground,Centre,"sb\c.png",0,0 M,0,11984,,92,344 C,0,11984,,168,217,202 F,0,11984,12689,1,0 S,7,11984,12689,0.1,0.175 P,0,11984,12689,A M,0,12778,,272,222 C,0,12778,,168,217,202 F,0,12778,13483,1,0 S,7,12778,13483,0.1,0.175 P,0,12778,13483,A M,0,14190,,110,248 C,0,14190,,90,177,140 F,0,14190,14895,1,0 S,7,14190,14895,0.1,0.175 P,0,14190,14895,A M,0,17190,,331,218 C,0,17190,,168,217,202 F,0,17190,17895,1,0 S,7,17190,17895,0.1,0.175 P,0,17190,17895,A M,0,17896,,334,309 C,0,17896,,168,217,202 F,0,17896,18601,1,0 S,7,17896,18601,0.1,0.175 P,0,17896,18601,A M,0,18955,,575,185 C,0,18955,,168,217,202 F,0,18955,19660,1,0 S,7,18955,19660,0.1,0.175 P,0,18955,19660,A M,0,19837,,453,153 C,0,19837,,90,177,140 F,0,19837,20542,1,0 S,7,19837,20542,0.1,0.175 P,0,19837,20542,A M,0,23278,,180,125 C,0,23278,,168,217,202 F,0,23278,23983,1,0 S,7,23278,23983,0.1,0.175 P,0,23278,23983,A M,0,24072,,109,267 C,0,24072,,168,217,202 F,0,24072,24777,1,0 S,7,24072,24777,0.1,0.175 P,0,24072,24777,A M,0,24778,,186,247 C,0,24778,,168,217,202 F,0,24778,25483,1,0 S,7,24778,25483,0.1,0.175 P,0,24778,25483,A M,0,25484,,168,336 C,0,25484,,90,177,140 F,0,25484,26189,1,0 S,7,25484,26189,0.1,0.175 P,0,25484,26189,A M,0,28925,,389,307 C,0,28925,,168,217,202 F,0,28925,29630,1,0 S,7,28925,29630,0.1,0.175 P,0,28925,29630,A M,0,31131,,451,214 C,0,31131,,168,217,202 F,0,31131,31836,1,0 S,7,31131,31836,0.1,0.175 P,0,31131,31836,A M,0,32543,,163,418 C,0,32543,,90,177,140 F,0,32543,33248,1,0 S,7,32543,33248,0.1,0.175 P,0,32543,33248,A
Sprite,Foreground,Centre,"sb\c.png",0,0 M,0,12072,,110,248 C,0,12072,,168,217,202 F,0,12072,12777,1,0 S,7,12072,12777,0.1,0.175 P,0,12072,12777,A M,0,13483,,230,149 C,0,13483,,168,217,202 F,0,13483,14188,1,0 S,7,13483,14188,0.1,0.175 P,0,13483,14188,A M,0,17631,,320,399 C,0,17631,,168,217,202 F,0,17631,18336,1,0 S,7,17631,18336,0.1,0.175 P,0,17631,18336,A M,0,23366,,95,65 C,0,23366,,168,217,202 F,0,23366,24071,1,0 S,7,23366,24071,0.1,0.175 P,0,23366,24071,A M,0,29190,,445,218 C,0,29190,,168,217,202 F,0,29190,29895,1,0 S,7,29190,29895,0.1,0.175 P,0,29190,29895,A
Sprite,Foreground,Centre,"sb\c.png",0,0 M,0,17719,,252,345 C,0,17719,,168,217,202 F,0,17719,18424,1,0 S,7,17719,18424,0.1,0.175 P,0,17719,18424,A M,0,29543,,553,151 C,0,29543,,168,217,202 F,0,29543,30248,1,0 S,7,29543,30248,0.1,0.175 P,0,29543,30248,A
Sprite,Foreground,Centre,"sb\c.png",0,0 M,0,50896,,105,295 F,0,50896,51601,0.9,0 S,7,50896,51601,0.1,0.175 P,0,50896,51601,A M,0,51602,,99,286 F,0,51602,52307,0.9,0 S,7,51602,52307,0.1,0.175 P,0,51602,52307,A M,0,52308,,93,277 F,0,52308,53013,0.9,0 S,7,52308,53013,0.1,0.175 P,0,52308,53013,A M,0,53014,,87,268 F,0,53014,53719,0.9,0 S,7,53014,53719,0.1,0.175 P,0,53014,53719,A M,0,53720,,81,259 F,0,53720,54425,0.9,0 S,7,53720,54425,0.1,0.175 P,0,53720,54425,A M,0,54778,,564,246 F,0,54778,55483,0.9,0 S,7,54778,55483,0.1,0.175 P,0,54778,55483,A
Sprite,Foreground,Centre,"sb\c.png",0,0 M,0,51249,,534,201 F,0,51249,51954,0.9,0 S,7,51249,51954,0.1,0.175 P,0,51249,51954,A M,0,51955,,540,210 F,0,51955,52660,0.9,0 S,7,51955,52660,0.1,0.175 P,0,51955,52660,A M,0,52661,,546,219 F,0,52661,53366,0.9,0 S,7,52661,53366,0.1,0.175 P,0,52661,53366,A M,0,53367,,552,228 F,0,53367,54072,0.9,0 S,7,53367,54072,0.1,0.175 P,0,53367,54072,A M,0,54073,,558,237 F,0,54073,54778,0.9,0 S,7,54073,54778,0.1,0.175 P,0,54073,54778,A
Sprite,Foreground,Centre,"sb\c.png",0,0 M,0,54425,,75,250 F,0,54425,55130,0.9,0 S,7,54425,55130,0.1,0.175 P,0,54425,55130,A
Sprite,Foreground,Centre,"sb\c.png",0,0 M,0,132778,,260,271 C,0,132778,,90,177,140 F,0,132778,133483,1,0 S,7,132778,133483,0.2,0.35 P,0,132778,133483,A M,0,133484,,268,263 C,0,133484,,90,177,140 F,0,133484,134189,1,0 S,7,133484,134189,0.2,0.35 P,0,133484,134189,A M,0,134190,,275,254 C,0,134190,,169,81,71 F,0,134190,134895,1,0 S,7,134190,134895,0.2,0.35 P,0,134190,134895,A M,0,134896,,283,246 C,0,134896,,169,81,71 F,0,134896,135601,1,0 S,7,134896,135601,0.2,0.35 P,0,134896,135601,A
Sprite,Foreground,Centre,"sb\c.png",0,0 M,0,133131,,264,267 C,0,133131,,168,217,202 F,0,133131,133836,1,0 S,7,133131,133836,0.2,0.35 P,0,133131,133836,A M,0,133837,,272,259 C,0,133837,,168,217,202 F,0,133837,134542,1,0 S,7,133837,134542,0.2,0.35 P,0,133837,134542,A M,0,134543,,279,250 C,0,134543,,255,0,0 F,0,134543,135248,1,0 S,7,134543,135248,0.2,0.35 P,0,134543,135248,A M,0,135249,,559,363 C,0,135249,,255,0,0 F,0,135249,135954,1,0 S,7,135249,135954,0.2,0.35 P,0,135249,135954,A
Sprite,Foreground,Centre,"sb\cir.png",0,0 F,16,36778,37130,0,1 S,30,36778,37483,0.015,0.15 P,0,36778,39611,A M,16,36954,37043,558.1793,156.1307,471,133 C,0,36954,37043,168,217,202 M,16,37043,37131,471,133,475,137 C,0,37043,37131,168,217,202,90,177,140 M,0,37131,37175,475,137,474.0448,152.2827 M,0,37175,37219,474.0448,152.2827,473.0897,167.5654 M,0,37219,37263,473.0897,167.5654,472.1345,182.848 M,0,37263,37307,472.1345,182.848,471.1793,198.1307 M,16,37307,37396,471.1793,198.1307,563,161 C,0,37307,37396,90,177,140 M,16,37396,37484,563,161,567,165 C,0,37396,37484,90,177,140,168,217,202 M,0,37484,37528,567,165,566.0448,180.2827 M,0,37528,37572,566.0448,180.2827,565.0897,195.5654 M,0,37572,37616,565.0897,195.5654,564.1345,210.848 M,0,37616,37660,564.1345,210.848,563.1793,226.1307 M,16,37660,37749,563.1793,226.1307,476,203 C,0,37660,37749,168,217,202 M,16,37749,37837,476,203,480,207 C,0,37749,37837,168,217,202,90,177,140 M,0,37837,37881,480,207,479.0448,222.2827 M,0,37881,37925,479.0448,222.2827,478.0897,237.5654 M,0,37925,37969,478.0897,237.5654,477.1345,252.848 M,0,37969,38013,477.1345,252.848,476.1793,268.1307 M,16,38013,38102,476.1793,268.1307,568,231 C,0,38013,38102,90,177,140 M,16,38102,38190,568,231,572,235 C,0,38102,38190,90,177,140,168,217,202 M,0,38190,38234,572,235,571.0448,250.2827 M,0,38234,38278,571.0448,250.2827,570.0897,265.5654 M,0,38278,38322,570.0897,265.5654,569.1345,280.848 M,0,38322,38366,569.1345,280.848,568.1793,296.1307 M,16,38366,38455,568.1793,296.1307,480,272 C,0,38366,38455,168,217,202 M,16,38455,38543,480,272,484,276 C,0,38455,38543,168,217,202,90,177,140 M,0,38543,38587,484,276,483.0448,291.2827 M,0,38587,38631,483.0448,291.2827,482.0897,306.5654 M,0,38631,38675,482.0897,306.5654,481.1345,321.8481 M,0,38675,38719,481.1345,321.8481,480.1793,337.1307 M,16,38719,38808,480.1793,337.1307,572,300 C,0,38719,38808,90,177,140 M,16,38808,38896,572,300,576,304 C,0,38808,38896,90,177,140,169,81,71 M,0,38896,38940,576,304,406.3881,347.0906 M,0,38940,38984,406.3881,347.0906,495.6551,418.8985 M,30,38984,39602,495.6551,418.8985,495,418 C,0,38984,39602,169,81,71,255,0,0 F,15,39258,39611,1,0 S,15,39258,39611,0.15,0.015 M,0,39602,39646,495,418,136.5775,433.3245 M,0,39646,39690,136.5775,433.3245,369.4907,416.7753 M,0,39690,39734,369.4907,416.7753,250.0827,414.8131 M,0,39734,39778,250.0827,414.8131,264.4113,410.2548 M,0,39778,39822,264.4113,410.2548,343.0808,400.6996 M,0,39822,39866,343.0808,400.6996,181.6204,399.0039 M,0,39866,39910,181.6204,399.0039,415.7714,389.2022 M,0,39910,39954,415.7714,389.2022,118.95,384.6793 M,0,39954,39999,118.95,384.6793,470.3209,380.8838 M,0,39999,40043,470.3209,380.8838,111.7497,369.5605 M,0,40043,40087,111.7497,369.5605,434.9806,371.7278 M,0,40087,40131,434.9806,371.7278,144.7439,354.4727 M,0,40131,40175,144.7439,354.4727,411.8226,360.5471 M,0,40175,40219,411.8226,360.5471,160.241,339.9896 M,0,40219,40263,160.241,339.9896,408.0609,349.5826 M,0,40263,40307,408.0609,349.5826,158.5163,324.1734 M,0,40307,40352,158.5163,324.1734,425.3534,340.7634 M,0,40352,40396,425.3534,340.7634,135.9939,306.7928 M,0,40396,40440,135.9939,306.7928,452.5451,332.4024 M,0,40440,40484,452.5451,332.4024,161.1425,292.2537 M,0,40484,40528,161.1425,292.2537,392.3441,312.3757 M,0,40528,40572,392.3441,312.3757,234.6555,285.1375 M,0,40572,40616,234.6555,285.1375,316.2634,288.394 M,0,40616,40660,316.2634,288.394,330.1586,284.8785 M,0,40660,40704,330.1586,284.8785,220.6873,256.6752 M,0,40704,40749,220.6873,256.6752,445.1853,290.0736 M,0,40749,40793,445.1853,290.0736,228.6451,241.853 M,0,40793,40837,228.6451,241.853,321.5101,250.7542 M,0,40837,40881,321.5101,250.7542,383.3804,257.6735 M,0,40881,40925,383.3804,257.6735,207.7113,207.0708 M,0,40925,40969,207.7113,207.0708,345.1859,230.7953 M,0,40969,41013,345.1859,230.7953,404.6233,238.8636 M,0,41013,41057,404.6233,238.8636,271.9592,193.6786 M,0,41057,41102,271.9592,193.6786,290.8574,187.2543 M,0,41102,41146,290.8574,187.2543,404.6307,212.5583 M,0,41146,41190,404.6307,212.5583,419.7901,208.0829 M,0,41190,41234,419.7901,208.0829,352.3214,176.5919 M,0,41234,41278,352.3214,176.5919,309.1177,150.0279 M,0,41278,41322,309.1177,150.0279,288.1626,130.3952 M,0,41322,41366,288.1626,130.3952,308.2613,123.4837 M,0,41366,41410,308.2613,123.4837,315.2317,112.084 M,0,41410,41454,315.2317,112.084,359.7587,116.076 M,0,41454,41499,359.7587,116.076,427.8428,129.8881 M,0,41499,41543,427.8428,129.8881,465.6371,130.7068 M,0,41543,41587,465.6371,130.7068,425.6474,95.84459 M,0,41587,41631,425.6474,95.84459,439.5858,80.79469 M,0,41631,41675,439.5858,80.79469,501.2411,83.76604 M,0,41675,41719,501.2411,83.76604,553.5915,64.39433
Sprite,Foreground,Centre,"sb\cir.png",0,0 F,16,42425,42777,0,1 S,30,42425,43130,0.015,0.15 P,0,42425,43837,A M,16,42601,42690,527.7192,112.9618,507,221 C,0,42601,42690,168,217,202 M,16,42690,42778,507,221 C,0,42690,42778,168,217,202,90,177,140 M,0,42778,42822,507,221,494.6293,229.8596 M,0,42822,42866,494.6293,229.8596,480.7582,235.9462 M,0,42866,42910,480.7582,235.9462,465.8252,238.5314 M,0,42910,42954,465.8252,238.5314,450.6969,237.4603 M,16,42954,43043,450.6969,237.4603,365,307 C,0,42954,43043,90,177,140 M,16,43043,43131,365,307 C,0,43043,43131,90,177,140,168,217,202 M,0,43131,43175,365,307,349.8341,305.7595 M,0,43175,43219,349.8341,305.7595,335.3079,301.4592 M,0,43219,43263,335.3079,301.4592,322.2156,293.8208 M,0,43263,43307,322.2156,293.8208,311.3088,283.2767 M,16,43307,43396,311.3088,283.2767,200,281 C,0,43307,43396,168,217,202 M,16,43396,43484,200,281 C,0,43396,43484,168,217,202,90,177,140 M,0,43484,43528,200,281,189.1931,270.2851 F,15,43484,43837,1,0 S,15,43484,43837,0.15,0.015 M,0,43528,43572,189.1931,270.2851,180.7997,257.6689 M,0,43572,43616,180.7997,257.6689,175.595,243.4273 M,0,43616,43660,175.595,243.4273,173.8733,228.3475 M,16,43660,43749,173.8733,228.3475,90,155 C,0,43660,43749,90,177,140
Sprite,Foreground,Centre,"sb\p.png",0,0 M,0,45249,,576,287 R,0,45249,,-0.3802601 V,0,45249,45601,10,854,0,854 M,0,45955,,219,440 R,0,45955,,0.4279506 V,0,45955,46307,10,854,0,854 M,0,46661,,64,234 R,0,46661,,-0.4021357 V,0,46661,47013,10,854,0,854 M,0,47367,,421,387 R,0,47367,,0.2922525 V,0,47367,47719,10,854,0,854 M,0,48072,,576,189 R,0,48072,,-0.1078787 V,0,48072,48424,10,854,0,854 M,0,48778,,219,342 R,0,48778,,0.2926314 V,0,48778,49130,10,854,0,854 M,0,49484,,64,140 R,0,49484,,-0.4743946 V,0,49484,49836,10,854,0,854 M,0,50190,,421,293 R,0,50190,,0.2315238 V,0,50190,50542,10,854,0,854 M,0,50896,,105,295 R,0,50896,,-0.5118439 V,0,50896,51248,10,854,0,854 M,0,51249,,534,201 R,0,51249,,0.1433113 V,0,51249,51601,10,854,0,854 M,0,51602,,99,286 R,0,51602,,-0.1528418 V,0,51602,51954,10,854,0,854 M,0,51955,,540,210 R,0,51955,,0.2446854 V,0,51955,52307,10,854,0,854 M,0,52308,,93,277 R,0,52308,,-0.3312595 V,0,52308,52660,10,854,0,854 M,0,52661,,546,219 R,0,52661,,0.2458358 V,0,52661,53013,10,854,0,854 M,0,53014,,87,268 R,0,53014,,-0.5142532 V,0,53014,53366,10,854,0,854 M,0,53367,,552,228 R,0,53367,,0.01590012 V,0,53367,53719,10,854,0,854 M,0,53720,,81,259 R,0,53720,,-0.451536 V,0,53720,54072,10,854,0,854 M,0,54073,,558,237 R,0,54073,,0.5211625 V,0,54073,54425,10,854,0,854 M,0,54778,,564,246 R,0,54778,,0.1647199 V,0,54778,55130,10,854,0,854
Sprite,Foreground,Centre,"sb\p.png",0,0 M,0,54425,,75,250 R,0,54425,,-0.3545712 V,0,54425,54777,10,854,0,854
Sprite,Foreground,Centre,"sb\p.png",0,0 M,0,135602,,133,93 R,0,135602,,-0.427732 V,0,135602,135954,10,854,0,854 M,0,135955,,218,109 R,0,135955,,0.4440389 V,0,135955,136307,10,854,0,854 M,0,136308,,320,216 R,0,136308,,-0.5193588 V,0,136308,136660,10,854,0,854 M,0,136661,,405,195 R,0,136661,,0.01708251 V,0,136661,137013,10,854,0,854 M,0,137014,,429,440 R,0,137014,,-0.3664888 V,0,137014,137366,10,854,0,854 M,0,137719,,488,181 R,0,137719,,-0.489051 V,0,137719,138071,10,854,0,854 M,0,138072,,489,182 R,0,138072,,0.3600371 V,0,138072,138424,10,854,0,854 M,0,138425,,310,409 R,0,138425,,-0.2863119 V,0,138425,138777,10,854,0,854 M,0,138778,,364,344 R,0,138778,,0.04246907 V,0,138778,139130,10,854,0,854 M,0,139131,,421,248 R,0,139131,,-0.0979782 V,0,139131,139483,10,854,0,854 M,0,139484,,367,183 R,0,139484,,0.2373616 V,0,139484,139836,10,854,0,854 M,0,139837,,207,133 R,0,139837,,-0.1555988 V,0,139837,140189,10,854,0,854 M,0,140190,,235,262 R,0,140190,,0.5176003 V,0,140190,140542,10,854,0,854 M,0,140543,,329,289 R,0,140543,,-0.3365156 V,0,140543,140895,10,854,0,854 M,0,140896,,68,223 R,0,140896,,0.3994868 V,0,140896,141248,10,854,0,854 M,0,141249,,133,245 R,0,141249,,-0.01591441 V,0,141249,141601,10,854,0,854 M,0,141602,,155,392 R,0,141602,,0.1994935 V,0,141602,141954,10,854,0,854 M,0,141955,,395,429 R,0,141955,,-0.1796687 V,0,141955,142307,10,854,0,854 M,0,142308,,542,406 R,0,142308,,0.5013223 V,0,142308,142660,10,854,0,854 M,0,142661,,519,259 R,0,142661,,-0.264485 V,0,142661,143013,10,854,0,854 M,0,143014,,266,121 R,0,143014,,0.3748823 V,0,143014,143366,10,854,0,854 M,0,143719,,115,272 R,0,143719,,0.1431789 V,0,143719,144071,10,854,0,854
Sprite,Foreground,Centre,"sb\p.png",0,0 M,0,137366,,338,440 R,0,137366,,0.2755617 V,0,137366,137718,10,854,0,854 M,0,143366,,119,96 R,0,143366,,-0.06228612 V,0,143366,143718,10,854,0,854
Sprite,Foreground,Centre,"sb\p.png",0,0 M,0,146896,,116,370 R,0,146896,,-0.4749554 V,0,146896,147248,10,854,0,854 M,0,147249,,89,411 R,0,147249,,0.4161383 V,0,147249,147601,10,854,0,854 M,0,147602,,268,290 R,0,147602,,-0.1765367 V,0,147602,147954,10,854,0,854 M,0,147955,,284,363 R,0,147955,,0.239394 V,0,147955,148307,10,854,0,854 M,0,148308,,109,245 R,0,148308,,-0.07687741 V,0,148308,148660,10,854,0,854 M,0,148661,,77,143 R,0,148661,,0.1158801 V,0,148661,149013,10,854,0,854 M,0,149014,,499,116 R,0,149014,,-0.2147139 V,0,149014,149366,10,854,0,854 M,0,149719,,446,200 R,0,149719,,-0.3245424 V,0,149719,150071,10,854,0,854 M,0,150072,,541,229 R,0,150072,,0.2554995 V,0,150072,150424,10,854,0,854 M,0,150425,,137,320 R,0,150425,,-0.1020564 V,0,150425,150777,10,854,0,854 M,0,150778,,136,315 R,0,150778,,0.45982 V,0,150778,151130,10,854,0,854 M,0,151131,,100,151 R,0,151131,,-0.4321906 V,0,151131,151483,10,854,0,854 M,0,151484,,241,200 R,0,151484,,0.3850532 V,0,151484,151836,10,854,0,854 M,0,151837,,499,116 R,0,151837,,-0.4493625 V,0,151837,152189,10,854,0,854 M,0,152543,,310,239 R,0,152543,,-0.3271791 V,0,152543,152895,10,854,0,854 M,0,152896,,342,241 R,0,152896,,0.1143575 V,0,152896,153248,10,854,0,854 M,0,153249,,319,279 R,0,153249,,-0.4688107 V,0,153249,153601,10,854,0,854 M,0,153602,,291,227 R,0,153602,,0.4693748 V,0,153602,153954,10,854,0,854 M,0,153955,,358,225 R,0,153955,,-0.04533312 V,0,153955,154307,10,854,0,854 M,0,154308,,318,298 R,0,154308,,0.439079 V,0,154308,154660,10,854,0,854
Sprite,Foreground,Centre,"sb\p.png",0,0 M,0,149366,,500,117 R,0,149366,,0.3763245 V,0,149366,149718,10,854,0,854 M,0,152189,,500,117 R,0,152189,,0.3559158 V,0,152189,152541,10,854,0,854
Sprite,Foreground,Centre,"sb\p.png",0,0 M,0,137837,,489,182 R,0,137837,,-0.08908658 V,0,137837,138189,10,854,0,854 M,0,138190,,488,181 R,0,138190,,0.1147664 V,0,138190,138542,10,854,0,854
Sprite,Foreground,Centre,"sb\p.png",0,0 M,0,137955,,488,181 R,0,137955,,0.337258 V,0,137955,138307,10,854,0,854
Sprite,Foreground,Centre,"sb\p.png",0,0 M,0,138072,,489,182 R,0,138072,,-0.432919 V,0,138072,138424,10,854,0,854
Sprite,Foreground,Centre,"sb\p.png",0,0 M,0,140661,,328,288 R,0,140661,,-0.5235845 V,0,140661,141013,10,854,0,854
Sprite,Foreground,Centre,"sb\p.png",0,0 M,0,140778,,329,289 R,0,140778,,0.2520425 V,0,140778,141130,10,854,0,854
Sprite,Foreground,Centre,"sb\p.png",0,0 M,0,140896,,68,223 R,0,140896,,-0.3414939 V,0,140896,141248,10,854,0,854
Sprite,Foreground,Centre,"sb\p.png",0,0 M,0,143484,,115,272 R,0,143484,,-0.3768477 V,0,143484,143836,10,854,0,854 M,0,143837,,116,273 R,0,143837,,0.3817528 V,0,143837,144189,10,854,0,854
Sprite,Foreground,Centre,"sb\p.png",0,0 M,0,143602,,116,273 R,0,143602,,0.4238336 V,0,143602,143954,10,854,0,854
Sprite,Foreground,Centre,"sb\p.png",0,0 M,0,143719,,115,272 R,0,143719,,-0.05284965 V,0,143719,144071,10,854,0,854
Sprite,Foreground,Centre,"sb\p.png",0,0 M,0,149249,,499,116 R,0,149249,,-0.3761799 V,0,149249,149601,10,854,0,854
Sprite,Foreground,Centre,"sb\p.png",0,0 M,0,149366,,500,117 R,0,149366,,0.06572592 V,0,149366,149718,10,854,0,854
Sprite,Foreground,Centre,"sb\p.png",0,0 M,0,149484,,499,116 R,0,149484,,-0.4739493 V,0,149484,149836,10,854,0,854
Sprite,Foreground,Centre,"sb\p.png",0,0 M,0,151954,,500,117 R,0,151954,,-0.09902499 V,0,151954,152306,10,854,0,854 M,0,152307,,499,116 R,0,152307,,0.1704318 V,0,152307,152659,10,854,0,854
Sprite,Foreground,Centre,"sb\p.png",0,0 M,0,152072,,499,116 R,0,152072,,0.2496571 V,0,152072,152424,10,854,0,854
Sprite,Foreground,Centre,"sb\p.png",0,0 M,0,152189,,500,117 R,0,152189,,-0.2831597 V,0,152189,152541,10,854,0,854
Sprite,Foreground,Centre,"sb\p.png",0,0 M,0,154661,,125,158 R,0,154661,,-0.351354 V,0,154661,155013,10,854,0,854 M,0,155014,,105,150 R,0,155014,,-0.436418 V,0,155014,155366,10,854,0,854
Sprite,Foreground,Centre,"sb\p.png",0,0 M,0,154837,,115,155 R,0,154837,,0.2452525 V,0,154837,155189,10,854,0,854 M,0,155190,,96,148 R,0,155190,,0.4236981 V,0,155190,155542,10,854,0,854
Sprite,Foreground,Centre,"sb\cir.png",0,0 S,0,50896,,0.2 M,0,50896,50984,105,295,157.0395,288.0614 P,0,50896,51172,A M,0,50984,51072,157.0395,288.0614,105,295 F,2,51072,51172,1,0
Sprite,Foreground,Centre,"sb\cir.png",0,0 S,0,51249,,0.2 M,0,51249,51337,534,201,481.9605,207.9386 P,0,51249,51525,A M,0,51337,51425,481.9605,207.9386,534,201 F,2,51425,51525,1,0
Sprite,Foreground,Centre,"sb\cir.png",0,0 S,0,51602,,0.2 M,0,51602,51690,99,286,151.0395,279.0614 P,0,51602,51878,A M,0,51690,51778,151.0395,279.0614,99,286 F,2,51778,51878,1,0
Sprite,Foreground,Centre,"sb\cir.png",0,0 S,0,51955,,0.2 M,0,51955,52043,540,210,487.9605,216.9386 P,0,51955,52231,A M,0,52043,52131,487.9605,216.9386,540,210 F,2,52131,52231,1,0
Sprite,Foreground,Centre,"sb\cir.png",0,0 S,0,52308,,0.2 M,0,52308,52396,93,277,145.0395,270.0614 P,0,52308,52584,A M,0,52396,52484,145.0395,270.0614,93,277 F,2,52484,52584,1,0
Sprite,Foreground,Centre,"sb\cir.png",0,0 S,0,52661,,0.2 M,0,52661,52749,546,219,493.9605,225.9386 P,0,52661,52937,A M,0,52749,52837,493.9605,225.9386,546,219 F,2,52837,52937,1,0
Sprite,Foreground,Centre,"sb\cir.png",0,0 S,0,53014,,0.2 M,0,53014,53102,87,268,139.0395,261.0614 P,0,53014,53290,A M,0,53102,53190,139.0395,261.0614,87,268 F,2,53190,53290,1,0
Sprite,Foreground,Centre,"sb\cir.png",0,0 S,0,53367,,0.2 M,0,53367,53455,552,228,499.9605,234.9386 P,0,53367,53643,A M,0,53455,53543,499.9605,234.9386,552,228 F,2,53543,53643,1,0
Sprite,Foreground,Centre,"sb\cir.png",0,0 S,0,53720,,0.2 M,0,53720,53808,81,259,133.0395,252.0614 P,0,53720,53996,A M,0,53808,53896,133.0395,252.0614,81,259 F,2,53896,53996,1,0
Sprite,Foreground,Centre,"sb\cir.png",0,0 S,0,54073,,0.2 M,0,54073,54161,558,237,505.9605,243.9386 P,0,54073,54349,A M,0,54161,54249,505.9605,243.9386,558,237 F,2,54249,54349,1,0
Sprite,Foreground,Centre,"sb\cir.png",0,0 S,0,54425,,0.2 M,0,54425,54513,75,250,127.0395,243.0614 P,0,54425,54701,A M,0,54513,54601,127.0395,243.0614,75,250 F,2,54601,54701,1,0
Sprite,Foreground,Centre,"sb\cir.png",0,0 S,0,54778,,0.2 M,0,54778,54866,564,246,511.9605,252.9386 P,0,54778,55054,A M,0,54866,54954,511.9605,252.9386,564,246 F,2,54954,55054,1,0
Sprite,Foreground,Centre,"sb\cir.png",0,0 S,0,144072,,0.3 M,0,144072,144160,298,373,292.2443,394.1042 P,0,144072,144436,A M,0,144160,144248,292.2443,394.1042,286.4886,415.2084 M,0,144248,144336,286.4886,415.2084,280.7329,436.3126 F,2,144336,144436,0.5,0
Sprite,Foreground,Centre,"sb\cir.png",0,0 S,0,144425,,0.3 M,0,144425,144513,195,313,302.5227,415.6973 P,0,144425,144789,A M,0,144513,144601,302.5227,415.6973,384.2233,379.6424 M,0,144601,144689,384.2233,379.6424,407.5218,229.3231 F,2,144689,144789,0.5,0
Sprite,Foreground,Centre,"sb\cir.png",0,0 S,0,144778,,0.3 M,0,144778,144866,298,373,292.2443,394.1042 P,0,144778,145142,A M,0,144866,144954,292.2443,394.1042,286.4886,415.2084 M,0,144954,145042,286.4886,415.2084,280.7329,436.3126 F,2,145042,145142,0.5,0
Sprite,Foreground,Centre,"sb\cir.png",0,0 S,0,145131,,0.3 M,0,145131,145219,195,313,302.5227,415.6973 P,0,145131,145495,A M,0,145219,145307,302.5227,415.6973,384.2233,379.6424 M,0,145307,145395,384.2233,379.6424,407.5218,229.3231 F,2,145395,145495,0.5,0
Sprite,Foreground,Centre,"sb\cir.png",0,0 S,0,145484,,0.3 M,0,145484,145572,298,373,292.2443,394.1042 P,0,145484,145848,A M,0,145572,145660,292.2443,394.1042,286.4886,415.2084 M,0,145660,145748,286.4886,415.2084,280.7329,436.3126 F,2,145748,145848,0.5,0
Sprite,Foreground,Centre,"sb\cir.png",0,0 S,0,145837,,0.3 M,0,145837,145925,195,313,302.5227,415.6973 P,0,145837,146201,A M,0,145925,146013,302.5227,415.6973,384.2233,379.6424 M,0,146013,146101,384.2233,379.6424,407.5218,229.3231 F,2,146101,146201,0.5,0
Sprite,Foreground,Centre,"sb\spotlight.png",0,240 F,0,56543,,1 C,0,56543,,90,177,140 MX,0,56543,,82 V,0,56543,,1,0.7272727 MX,0,56543,56587,82,125.0804 P,0,56543,56984,A MX,0,56587,56631,125.0804,168.1609 F,0,56631,56984,1,0 F,0,57249,,1 C,0,57249,,168,217,202 MX,0,57249,,226 MX,0,57249,57293,226,251.1401 P,0,57249,57690,A MX,0,57293,57337,251.1401,276.2802 F,0,57337,57690,1,0 F,0,57955,,1 C,0,57955,,90,177,140 MX,0,57955,,453 MX,0,57955,57999,453,445.3752 P,0,57955,58396,A MX,0,57999,58043,445.3752,437.7503 F,0,58043,58396,1,0 F,0,58484,,1 C,0,58484,,90,177,140 MX,0,58484,,485 MX,0,58484,58528,485,492.1916 P,0,58484,58925,A MX,0,58528,58572,492.1916,492.3841 F,0,58572,58925,1,0 F,0,59014,,1 C,0,59014,,255,0,0 MX,0,59014,,322 MX,0,59014,59058,322,402.7467 P,0,59014,59631,A MX,0,59058,59102,402.7467,294.111 MX,0,59102,59146,294.111,185.4753 MX,0,59146,59190,185.4753,76.83963 MX,0,59190,59234,76.83963,128.7057 MX,0,59234,59278,128.7057,237.5118 F,0,59278,59631,1,0 F,0,60072,,1 C,0,60072,,90,177,140 MX,0,60072,,256 MX,0,60072,60116,256,235.9445 P,0,60072,60513,A MX,0,60116,60160,235.9445,238.6404 F,0,60160,60513,1,0 F,0,60778,,1 C,0,60778,,168,217,202 MX,0,60778,,64 MX,0,60778,60822,64,72.68936 P,0,60778,61395,A MX,0,60822,60866,72.68936,84.48241 MX,0,60866,60910,84.48241,98.95671 MX,0,60910,60954,98.95671,115.5366 MX,0,60954,60998,115.5366,133.8312 MX,0,60998,61042,133.8312,152.9684 F,0,61042,61395,1,0 F,0,61484,,1 C,0,61484,,90,177,140 MX,0,61484,,370 MX,0,61484,61528,370,381.3012 P,0,61484,62101,A MX,0,61528,61572,381.3012,395.7487 MX,0,61572,61616,395.7487,410.8268 MX,0,61616,61660,410.8268,445.2272 MX,0,61660,61704,445.2272,495.22 MX,0,61704,61748,495.22,445.5925 F,0,61748,62101,1,0 F,0,62190,,1 C,0,62190,,168,217,202 MX,0,62190,,566 MX,0,62190,62234,566,553.3855 P,0,62190,62807,A MX,0,62234,62278,553.3855,540.771 MX,0,62278,62322,540.771,528.1565 MX,0,62322,62366,528.1565,515.5419 MX,0,62366,62410,515.5419,502.9274 MX,0,62410,62454,502.9274,490.3129 F,0,62454,62807,1,0 F,0,62896,,1 C,0,62896,,90,177,140 MX,0,62896,,489 MX,0,62896,62940,489,476.3855 P,0,62896,63513,A MX,0,62940,62984,476.3855,463.771 MX,0,62984,63028,463.771,451.1565 MX,0,63028,63072,451.1565,438.5419 MX,0,63072,63116,438.5419,425.9274 MX,0,63116,63160,425.9274,413.3129 F,0,63160,63513,1,0 F,0,63602,,1 C,0,63602,,168,217,202 MX,0,63602,,465 MX,0,63602,63646,465,452.3855 P,0,63602,64219,A MX,0,63646,63690,452.3855,439.771 MX,0,63690,63734,439.771,427.1565 MX,0,63734,63778,427.1565,414.5419 MX,0,63778,63822,414.5419,401.9274 MX,0,63822,63866,401.9274,389.3129 F,0,63866,64219,1,0 F,0,64308,,1 C,0,64308,,255,0,0 MX,0,64308,,430 MX,0,64308,64352,430,415.1901 P,0,64308,64925,A MX,0,64352,64396,415.1901,400.0961 MX,0,64396,64440,400.0961,418.3561 MX,0,64440,64484,418.3561,437.8714 MX,0,64484,64528,437.8714,425.5087 MX,0,64528,64572,425.5087,409.8894 F,0,64572,64925,1,0 F,0,65014,,1 C,0,65014,,168,217,202 MX,0,65014,,64 MX,0,65014,65058,64,74.12608 P,0,65014,65455,A MX,0,65058,65102,74.12608,87.02612 F,0,65102,65455,1,0 F,0,65720,,1 C,0,65720,,90,177,140 MX,0,65720,,450 MX,0,65720,65764,450,439.8739 P,0,65720,66161,A MX,0,65764,65808,439.8739,426.9738 F,0,65808,66161,1,0 F,0,66425,,1 C,0,66425,,168,217,202 MX,0,66425,,64 MX,0,66425,66469,64,74.12608 P,0,66425,66866,A MX,0,66469,66513,74.12608,87.02612 F,0,66513,66866,1,0 F,0,67131,,1 C,0,67131,,90,177,140 MX,0,67131,,505 MX,0,67131,67175,505,543.0566 P,0,67131,67748,A MX,0,67175,67219,543.0566,490.1623 MX,0,67219,67263,490.1623,425.4275 MX,0,67263,67307,425.4275,369.558 MX,0,67307,67351,369.558,330.567 MX,0,67351,67395,330.567,309.5646 F,0,67395,67748,1,0 F,0,67837,,1 C,0,67837,,90,177,140 MX,0,67837,,422 MX,0,67837,67881,422,419.1671 P,0,67837,68454,A MX,0,67881,67925,419.1671,416.3341 MX,0,67925,67969,416.3341,413.5012 MX,0,67969,68013,413.5012,410.6683 MX,0,68013,68057,410.6683,407.8354 MX,0,68057,68101,407.8354,405.0024 F,0,68101,68454,1,0 F,0,68543,,1 C,0,68543,,168,217,202 MX,0,68543,,228 MX,0,68543,68587,228,231.6594 P,0,68543,69160,A MX,0,68587,68631,231.6594,235.3188 MX,0,68631,68675,235.3188,238.9781 MX,0,68675,68719,238.9781,242.6375 MX,0,68719,68763,242.6375,246.2969 MX,0,68763,68807,246.2969,249.9563 F,0,68807,69160,1,0 F,0,69249,,1 C,0,69249,,90,177,140 MX,0,69249,,67 MX,0,69249,69293,67,76.54961 P,0,69249,69866,A MX,0,69293,69337,76.54961,86.09922 MX,0,69337,69381,86.09922,95.64883 MX,0,69381,69425,95.64883,105.1984 MX,0,69425,69469,105.1984,114.7481 MX,0,69469,69513,114.7481,124.2977 F,0,69513,69866,1,0 F,0,69955,,1 C,0,69955,,255,0,0 MX,0,69955,,419 MX,0,69955,69999,419,402.3761 P,0,69955,70572,A MX,0,69999,70043,402.3761,387.6288 MX,0,70043,70087,387.6288,409.0875 MX,0,70087,70131,409.0875,431.5203 MX,0,70131,70175,431.5203,413.4776 MX,0,70175,70219,413.4776,397.1899 F,0,70219,70572,1,0 F,0,70661,,1 C,0,70661,,90,177,140 MX,0,70661,,434 MX,0,70661,70705,434,391.1527 P,0,70661,71102,A MX,0,70705,70749,391.1527,348.3054 F,0,70749,71102,1,0 F,0,71366,,1 C,0,71366,,168,217,202 MX,0,71366,,441 MX,0,71366,71410,441,398.1527 P,0,71366,71807,A MX,0,71410,71454,398.1527,355.3054 F,0,71454,71807,1,0 F,0,71719,73484,0 F,0,71719,73484,0 F,0,71719,73484,0 F,0,71719,73484,0 F,0,71719,73484,0 F,0,71719,73484,0 F,0,71719,73484,0 F,0,71719,73484,0 F,0,71719,73484,0 F,0,71719,73484,0 F,0,71719,73484,0 F,0,71719,73484,0 F,0,71719,73484,0 F,0,71719,73484,0 F,0,71719,73484,0 F,0,71719,73484,0 F,0,71719,73484,0 F,0,71719,73484,0 F,0,71719,73484,0 F,0,71719,73484,0 F,0,71719,73484,0 F,0,71719,73484,0 F,0,72778,,1 C,0,72778,,169,81,71 MX,0,72778,,546 MX,0,72778,72822,546,521.8949 P,0,72778,73395,A MX,0,72822,72866,521.8949,490.4806 MX,0,72866,72910,490.4806,453.3219 MX,0,72910,72954,453.3219,411.9881 MX,0,72954,72998,411.9881,368.6094 MX,0,72998,73042,368.6094,325.209 F,0,73042,73395,1,0 F,0,73484,,1 C,0,73484,,168,217,202 MX,0,73484,,192 MX,0,73484,73528,192,200.3786 P,0,73484,73925,A MX,0,73528,73572,200.3786,208.7572 F,0,73572,73925,1,0 F,0,74190,,1 C,0,74190,,90,177,140 MX,0,74190,,284 MX,0,74190,74234,284,292.3786 P,0,74190,74631,A MX,0,74234,74278,292.3786,300.7571 F,0,74278,74631,1,0 F,0,74896,,1 C,0,74896,,168,217,202 MX,0,74896,,372 MX,0,74896,74940,372,380.3786 P,0,74896,75337,A MX,0,74940,74984,380.3786,388.7571 F,0,74984,75337,1,0 C,0,75425,,168,217,202 MX,0,75425,,490 F,0,75425,75777,1,0 P,0,75425,75777,A F,0,75955,,1 C,0,75955,,255,0,0 MX,0,75955,,516 MX,0,75955,75999,516,465.7602 P,0,75955,76572,A MX,0,75999,76043,465.7602,490.0236 MX,0,76043,76087,490.0236,490.9629 MX,0,76087,76131,490.9629,492.2633 MX,0,76131,76175,492.2633,515.392 MX,0,76175,76219,515.392,461.3882 F,0,76219,76572,1,0 C,0,76661,,168,217,202 MX,0,76661,,288 F,0,76661,77013,1,0 P,0,76661,77013,A C,0,77014,,255,0,0 MX,0,77014,,411 F,0,77014,77366,1,0 P,0,77014,77366,A C,0,77367,,169,81,71 MX,0,77367,,473 F,0,77367,77719,1,0 P,0,77367,77719,A
Sprite,Foreground,Centre,"sb\spotlight.png",0,240 F,0,56719,,1 C,0,56719,,90,177,140 MX,0,56719,,428 V,0,56719,,1,0.7272727 MX,0,56719,56763,428,410.7794 P,0,56719,57248,A MX,0,56763,56807,410.7794,393.5587 MX,0,56807,56851,393.5587,376.3381 MX,0,56851,56895,376.3381,359.1174 F,0,56895,57248,1,0 F,0,57425,,1 C,0,57425,,168,217,202 MX,0,57425,,472 MX,0,57425,57469,472,462.0388 P,0,57425,57954,A MX,0,57469,57513,462.0388,452.0776 MX,0,57513,57557,452.0776,442.1165 MX,0,57557,57601,442.1165,432.1553 F,0,57601,57954,1,0 F,0,58131,,1 C,0,58131,,90,177,140 MX,0,58131,,456 MX,0,58131,58175,456,459.1144 P,0,58131,58660,A MX,0,58175,58219,459.1144,462.2288 MX,0,58219,58263,462.2288,465.3431 MX,0,58263,58307,465.3431,468.4575 F,0,58307,58660,1,0 F,0,58661,,1 C,0,58661,,255,0,0 MX,0,58661,,254 MX,0,58661,58705,254,314.6873 P,0,58661,59278,A MX,0,58705,58749,314.6873,377.297 MX,0,58749,58793,377.297,323.9022 MX,0,58793,58837,323.9022,261.4119 MX,0,58837,58881,261.4119,320.7999 MX,0,58881,58925,320.7999,386.671 F,0,58925,59278,1,0 F,0,59366,,1 C,0,59366,,168,217,202 MX,0,59366,,533 MX,0,59366,59410,533,489.8918 P,0,59366,59807,A MX,0,59410,59454,489.8918,453.9849 F,0,59454,59807,1,0 F,0,60249,,1 C,0,60249,,90,177,140 MX,0,60249,,495 MX,0,60249,60293,495,453.2356 P,0,60249,60778,A MX,0,60293,60337,453.2356,411.4711 MX,0,60337,60381,411.4711,453.2356 MX,0,60381,60425,453.2356,495 F,0,60425,60778,1,0 C,0,61131,,168,217,202 MX,0,61131,,370 F,0,61131,61483,1,0 P,0,61131,61483,A F,0,61837,,1 C,0,61837,,90,177,140 MX,0,61837,,565 MX,0,61837,61881,565,553.6989 P,0,61837,62454,A MX,0,61881,61925,553.6989,539.2512 MX,0,61925,61969,539.2512,524.1732 MX,0,61969,62013,524.1732,489.7728 MX,0,62013,62057,489.7728,439.7802 MX,0,62057,62101,439.7802,489.4073 F,0,62101,62454,1,0 C,0,62543,,168,217,202 MX,0,62543,,165 F,0,62543,62895,1,0 P,0,62543,62895,A C,0,63249,,90,177,140 MX,0,63249,,88 F,0,63249,63601,1,0 P,0,63249,63601,A C,0,63955,,168,217,202 MX,0,63955,,64 F,0,63955,64307,1,0 P,0,63955,64307,A F,0,64661,,1 C,0,64661,,255,0,0 MX,0,64661,,536 MX,0,64661,64705,536,410.7245 P,0,64661,65278,A MX,0,64705,64749,410.7245,299.947 MX,0,64749,64793,299.947,294.6877 MX,0,64793,64837,294.6877,307.3615 MX,0,64837,64881,307.3615,208.533 MX,0,64881,64925,208.533,82.45889 F,0,64925,65278,1,0 F,0,65896,,1 C,0,65896,,90,177,140 MX,0,65896,,180 MX,0,65896,65940,180,212.2935 P,0,65896,66601,A MX,0,65940,65984,212.2935,244.587 MX,0,65984,66028,244.587,276.8806 MX,0,66028,66072,276.8806,303.5462 MX,0,66072,66116,303.5462,335.7732 MX,0,66116,66160,335.7732,368.0001 MX,0,66160,66204,368.0001,400.2271 MX,0,66204,66248,400.2271,432.4541 F,0,66248,66601,1,0 F,0,66602,,1 C,0,66602,,168,217,202 MX,0,66602,,334 MX,0,66602,66646,334,301.6965 P,0,66602,67307,A MX,0,66646,66690,301.6965,269.393 MX,0,66690,66734,269.393,237.0895 MX,0,66734,66778,237.0895,210 MX,0,66778,66822,210,178.1996 MX,0,66822,66866,178.1996,145.9788 MX,0,66866,66910,145.9788,113.7579 MX,0,66910,66954,113.7579,81.53706 F,0,66954,67307,1,0 F,0,67484,,1 C,0,67484,,168,217,202 MX,0,67484,,194 MX,0,67484,67528,194,226.3827 P,0,67484,67925,A MX,0,67528,67572,226.3827,258.7654 F,0,67572,67925,1,0 C,0,68190,,90,177,140 MX,0,68190,,340 F,0,68190,68542,1,0 P,0,68190,68542,A C,0,68896,,168,217,202 MX,0,68896,,330 F,0,68896,69248,1,0 P,0,68896,69248,A C,0,69602,,90,177,140 MX,0,69602,,324 F,0,69602,69954,1,0 P,0,69602,69954,A F,0,70308,,1 C,0,70308,,255,0,0 MX,0,70308,,465 MX,0,70308,70352,465,450.9316 P,0,70308,70925,A MX,0,70352,70396,450.9316,483.672 MX,0,70396,70440,483.672,496.3985 MX,0,70440,70484,496.3985,501.8874 MX,0,70484,70528,501.8874,468.9038 MX,0,70528,70572,468.9038,434.6055 F,0,70572,70925,1,0 F,0,71542,,1 C,0,71542,,168,217,202 MX,0,71542,,133 MX,0,71542,71586,133,145.5273 P,0,71542,71983,A MX,0,71586,71630,145.5273,158.0545 F,0,71630,71983,1,0 F,0,71719,73484,0 F,0,71719,73484,0 F,0,71719,73484,0 F,0,71719,73484,0 F,0,71719,73484,0 F,0,71719,73484,0 F,0,71719,73484,0 F,0,71719,73484,0 F,0,71719,73484,0 F,0,71719,73484,0 F,0,71719,73484,0 F,0,71719,73484,0 F,0,71719,73484,0 F,0,71719,73484,0 F,0,71719,73484,0 F,0,71719,73484,0 F,0,71719,73484,0 F,0,71719,73484,0 F,0,71719,73484,0 F,0,71719,73484,0 F,0,73131,,1 C,0,73131,,169,81,71 MX,0,73131,,451 MX,0,73131,73175,451,414.3103 P,0,73131,73748,A MX,0,73175,73219,414.3103,371.3405 MX,0,73219,73263,371.3405,330.1889 MX,0,73263,73307,330.1889,302.0614 MX,0,73307,73351,302.0614,322.4597 MX,0,73351,73395,322.4597,365.5756 F,0,73395,73748,1,0 F,0,74366,,1 C,0,74366,,90,177,140 MX,0,74366,,157 MX,0,74366,74410,157,173.8118 P,0,74366,74895,A MX,0,74410,74454,173.8118,193.711 MX,0,74454,74498,193.711,215.1806 MX,0,74498,74542,215.1806,236.7089 F,0,74542,74895,1,0 F,0,75072,,1 C,0,75072,,168,217,202 MX,0,75072,,245 MX,0,75072,75116,245,261.8118 P,0,75072,75601,A MX,0,75116,75160,261.8118,281.7109 MX,0,75160,75204,281.7109,303.1806 MX,0,75204,75248,303.1806,324.7089 F,0,75248,75601,1,0 F,0,75602,,1 C,0,75602,,255,0,0 MX,0,75602,,571 MX,0,75602,75646,571,487.8138 P,0,75602,76219,A MX,0,75646,75690,487.8138,402.4548 MX,0,75690,75734,402.4548,479.1893 MX,0,75734,75778,479.1893,562.2396 MX,0,75778,75822,562.2396,479.1924 MX,0,75822,75866,479.1924,393.6513 F,0,75866,76219,1,0 C,0,76308,,168,217,202 MX,0,76308,,277 F,0,76308,76660,1,0 P,0,76308,76660,A C,0,76749,,168,217,202 MX,0,76749,,305 F,0,76749,77101,1,0 P,0,76749,77101,A C,0,77131,,169,81,71 MX,0,77131,,445 F,0,77131,77483,1,0 P,0,77131,77483,A C,0,77484,,255,0,0 MX,0,77484,,434 F,0,77484,77836,1,0 P,0,77484,77836,A
Sprite,Foreground,Centre,"sb\spotlight.png",0,240 F,0,59543,,1 C,0,59543,,168,217,202 MX,0,59543,,431 V,0,59543,,1,0.7272727 MX,0,59543,59587,431,421.2605 P,0,59543,60072,A MX,0,59587,59631,421.2605,411.5211 MX,0,59631,59675,411.5211,421.2605 MX,0,59675,59719,421.2605,431 F,0,59719,60072,1,0 C,0,64131,,90,177,140 MX,0,64131,,315 F,0,64131,64483,1,0 P,0,64131,64483,A F,0,65190,,1 C,0,65190,,168,217,202 MX,0,65190,,334 MX,0,65190,65234,334,301.6965 P,0,65190,65895,A MX,0,65234,65278,301.6965,269.393 MX,0,65278,65322,269.393,237.0895 MX,0,65322,65366,237.0895,210 MX,0,65366,65410,210,178.1996 MX,0,65410,65454,178.1996,145.9788 MX,0,65454,65498,145.9788,113.7579 MX,0,65498,65542,113.7579,81.53706 F,0,65542,65895,1,0 F,0,67661,,1 C,0,67661,,168,217,202 MX,0,67661,,411 MX,0,67661,67705,411,378.6173 P,0,67661,68102,A MX,0,67705,67749,378.6173,346.2346 F,0,67749,68102,1,0 F,0,69778,,1 C,0,69778,,90,177,140 MX,0,69778,,303 MX,0,69778,69822,303,296.9475 P,0,69778,70219,A MX,0,69822,69866,296.9475,291.0833 F,0,69866,70219,1,0 F,0,70837,,1 C,0,70837,,90,177,140 MX,0,70837,,126 MX,0,70837,70881,126,132.2636 P,0,70837,71366,A MX,0,70881,70925,132.2636,138.5273 MX,0,70925,70969,138.5273,144.7909 MX,0,70969,71013,144.7909,151.0545 F,0,71013,71366,1,0 F,0,71719,,1 C,0,71719,,255,0,0 MX,0,71719,,64 MX,0,71719,71763,64,93.31256 P,0,71719,73042,A F,0,71719,73484,0 F,0,71719,73484,0 F,0,71719,73484,0 F,0,71719,73484,0 F,0,71719,73484,0 F,0,71719,73484,0 F,0,71719,73484,0 MX,0,71763,71807,93.31256,127.6589 MX,0,71807,71851,127.6589,162.258 MX,0,71851,71895,162.258,144.1025 MX,0,71895,71939,144.1025,116.6429 MX,0,71939,71983,116.6429,251.2401 MX,0,71983,72027,251.2401,277.5107 MX,0,72027,72071,277.5107,271.2277 MX,0,72071,72116,271.2277,252.5589 MX,0,72116,72160,252.5589,288.5413 MX,0,72160,72204,288.5413,323.958 MX,0,72204,72248,323.958,357.0042 MX,0,72248,72292,357.0042,387.1863 MX,0,72292,72336,387.1863,422.6326 MX,0,72336,72380,422.6326,406.0597 MX,0,72380,72424,406.0597,383.2365 MX,0,72424,72469,383.2365,493.1295 MX,0,72469,72513,493.1295,522.8512 MX,0,72513,72557,522.8512,532.1039 MX,0,72557,72601,532.1039,515.7601 MX,0,72601,72645,515.7601,530.7108 MX,0,72645,72689,530.7108,536.6158 F,0,72689,73042,1,0 F,0,73661,,1 C,0,73661,,168,217,202 MX,0,73661,,69 MX,0,73661,73705,69,85.81177 P,0,73661,74190,A MX,0,73705,73749,85.81177,105.711 MX,0,73749,73793,105.711,127.1806 MX,0,73793,73837,127.1806,148.7089 F,0,73837,74190,1,0 C,0,75514,,168,217,202 MX,0,75514,,490 F,0,75514,75866,1,0 P,0,75514,75866,A C,0,76396,,168,217,202 MX,0,76396,,287 F,0,76396,76748,1,0 P,0,76396,76748,A C,0,76837,,90,177,140 MX,0,76837,,295 F,0,76837,77189,1,0 P,0,76837,77189,A C,0,77249,,255,0,0 MX,0,77249,,425 F,0,77249,77601,1,0 P,0,77249,77601,A C,0,77602,,169,81,71 MX,0,77602,,494 F,0,77602,77954,1,0 P,0,77602,77954,A
Sprite,Foreground,Centre,"sb\spotlight.png",0,240 C,0,64219,,90,177,140 MX,0,64219,,315 V,0,64219,,1,0.7272727 F,0,64219,64571,1,0 P,0,64219,64571,A F,0,71719,73484,0 C,0,76484,,90,177,140 MX,0,76484,,285 F,0,76484,76836,1,0 P,0,76484,76836,A C,0,76925,,90,177,140 MX,0,76925,,314 F,0,76925,77277,1,0 P,0,76925,77277,A C,0,77719,,168,217,202 MX,0,77719,,576 F,0,77719,78071,1,0 P,0,77719,78071,A
Sprite,Foreground,Centre,"sb\spotlight.png",0,240 C,0,76572,,90,177,140 MX,0,76572,,298 V,0,76572,,1,0.7272727 F,0,76572,76924,1,0 P,0,76572,76924,A
Sprite,Foreground,Centre,"sb\spotlight.png",0,240 F,0,113014,,1 C,0,113014,,168,217,202 MX,0,113014,,160 V,0,113014,,1,0.7272727 MX,0,113014,113058,160,139.4763 P,0,113014,113455,A MX,0,113058,113102,139.4763,156.273 F,0,113102,113455,1,0 F,0,113719,,1 C,0,113719,,90,177,140 MX,0,113719,,548 MX,0,113719,113763,548,527.4763 P,0,113719,114160,A MX,0,113763,113807,527.4763,544.2729 F,0,113807,114160,1,0 F,0,114161,,1 C,0,114161,,90,177,140 MX,0,114161,,299 MX,0,114161,114205,299,278.4763 P,0,114161,114602,A MX,0,114205,114249,278.4763,295.273 F,0,114249,114602,1,0 F,0,114690,,1 C,0,114690,,90,177,140 MX,0,114690,,349 MX,0,114690,114734,349,328.4763 P,0,114690,115131,A MX,0,114734,114778,328.4763,345.273 F,0,114778,115131,1,0 C,0,115249,,255,0,0 MX,0,115249,,246 F,0,115249,115601,1,0 P,0,115249,115601,A C,0,115602,,169,81,71 MX,0,115602,,87 F,0,115602,115954,1,0 P,0,115602,115954,A F,0,116102,,1 C,0,116102,,90,177,140 MX,0,116102,,403 MX,0,116102,116146,403,423.5237 P,0,116102,116543,A MX,0,116146,116190,423.5237,406.727 F,0,116190,116543,1,0 F,0,116808,,1 C,0,116808,,168,217,202 MX,0,116808,,78 MX,0,116808,116852,78,98.5237 P,0,116808,117249,A MX,0,116852,116896,98.5237,81.72699 F,0,116896,117249,1,0 F,0,117514,,1 C,0,117514,,90,177,140 MX,0,117514,,293 MX,0,117514,117558,293,313.5237 P,0,117514,117955,A MX,0,117558,117602,313.5237,296.727 F,0,117602,117955,1,0 C,0,118043,,255,0,0 MX,0,118043,,495 F,0,118043,118395,1,0 P,0,118043,118395,A F,0,118504,,1 C,0,118504,,169,81,71 MX,0,118504,,530 MX,0,118504,118548,530,524.7802 P,0,118504,118974,A MX,0,118548,118592,524.7802,519.5602 MX,0,118592,118621,519.5602,516.0803 F,0,118621,118974,1,0 F,0,119102,,1 C,0,119102,,168,217,202 MX,0,119102,,112 MX,0,119102,119146,112,91.4763 P,0,119102,119543,A MX,0,119146,119190,91.4763,108.273 F,0,119190,119543,1,0 F,0,119631,,1 C,0,119631,,168,217,202 MX,0,119631,,303 MX,0,119631,119675,303,282.4763 P,0,119631,120072,A MX,0,119675,119719,282.4763,299.273 F,0,119719,120072,1,0 F,0,120337,,1 C,0,120337,,90,177,140 MX,0,120337,,477 MX,0,120337,120381,477,456.4763 P,0,120337,120778,A MX,0,120381,120425,456.4763,473.273 F,0,120425,120778,1,0 C,0,120896,,255,0,0 MX,0,120896,,286 F,0,120896,121248,1,0 P,0,120896,121248,A C,0,121249,,169,81,71 MX,0,121249,,205 F,0,121249,121601,1,0 P,0,121249,121601,A F,0,121749,,1 C,0,121749,,90,177,140 MX,0,121749,,141 MX,0,121749,121793,141,161.5237 P,0,121749,122190,A MX,0,121793,121837,161.5237,144.727 F,0,121837,122190,1,0 F,0,122455,,1 C,0,122455,,168,217,202 MX,0,122455,,260 MX,0,122455,122499,260,280.5237 P,0,122455,122896,A MX,0,122499,122543,280.5237,263.727 F,0,122543,122896,1,0 F,0,123161,,1 C,0,123161,,255,0,0 MX,0,123161,,278 MX,0,123161,123205,278,296.5716 P,0,123161,123602,A MX,0,123205,123249,296.5716,280.7691 F,0,123249,123602,1,0 C,0,123690,,168,217,202 MX,0,123690,,466 F,0,123690,124042,1,0 P,0,123690,124042,A F,0,124308,,1 C,0,124308,,168,217,202 MX,0,124308,,498 MX,0,124308,124352,498,428.3982 P,0,124308,124749,A MX,0,124352,124396,428.3982,359.8857 F,0,124396,124749,1,0 F,0,125014,,1 C,0,125014,,90,177,140 MX,0,125014,,279 MX,0,125014,125058,279,348.6018 P,0,125014,125455,A MX,0,125058,125102,348.6018,417.1143 F,0,125102,125455,1,0 F,0,125719,,1 C,0,125719,,168,217,202 MX,0,125719,,64 MX,0,125719,125763,64,132.4792 P,0,125719,126160,A MX,0,125763,125807,132.4792,202 F,0,125807,126160,1,0 F,0,126161,,1 C,0,126161,,168,217,202 MX,0,126161,,64 MX,0,126161,126205,64,132.3818 P,0,126161,126602,A MX,0,126205,126249,132.3818,202 F,0,126249,126602,1,0 C,0,126661,,169,81,71 MX,0,126661,,576 F,0,126661,127013,1,0 P,0,126661,127013,A F,0,127131,,1 C,0,127131,,168,217,202 MX,0,127131,,571 MX,0,127131,127175,571,502.6182 P,0,127131,127572,A MX,0,127175,127219,502.6182,433 F,0,127219,127572,1,0 F,0,127837,,1 C,0,127837,,90,177,140 MX,0,127837,,64 MX,0,127837,127881,64,132.4052 P,0,127837,128278,A MX,0,127881,127925,132.4052,201.9444 F,0,127925,128278,1,0 F,0,128543,,1 C,0,128543,,168,217,202 MX,0,128543,,429 MX,0,128543,128587,429,359.4732 P,0,128543,128984,A MX,0,128587,128631,359.4732,291.0256 F,0,128631,128984,1,0 C,0,129249,,255,0,0 MX,0,129249,,450 F,0,129249,129601,1,0 P,0,129249,129601,A F,0,129602,,1 C,0,129602,,255,0,0 MX,0,129602,,576 MX,0,129602,129646,576,532.4166 P,0,129602,130219,A MX,0,129646,129690,532.4166,490.6216 MX,0,129690,129734,490.6216,453.7725 MX,0,129734,129778,453.7725,424.9312 MX,0,129778,129822,424.9312,406.0623 MX,0,129822,129866,406.0623,399.0394 F,0,129866,130219,1,0 F,0,130396,,1 C,0,130396,,168,217,202 MX,0,130396,,88 MX,0,130396,130440,88,77.83353 P,0,130396,130837,A MX,0,130440,130484,77.83353,64 F,0,130484,130837,1,0 F,0,130925,,1 C,0,130925,,168,217,202 MX,0,130925,,304 MX,0,130925,130969,304,313.308 P,0,130925,131366,A MX,0,130969,131013,313.308,328 F,0,131013,131366,1,0 F,0,131630,,1 C,0,131630,,90,177,140 MX,0,131630,,334 MX,0,131630,131674,334,323.8335 P,0,131630,132071,A MX,0,131674,131718,323.8335,309.0093 F,0,131718,132071,1,0 F,0,132072,,1 C,0,132072,,168,217,202 MX,0,132072,,537 MX,0,132072,132116,537,528.4943 P,0,132072,132689,A MX,0,132116,132160,528.4943,519.9885 MX,0,132160,132204,519.9885,511.4828 MX,0,132204,132248,511.4828,502.9771 MX,0,132248,132292,502.9771,494.4714 MX,0,132292,132336,494.4714,485.9657 F,0,132336,132689,1,0
Sprite,Foreground,Centre,"sb\spotlight.png",0,240 F,0,113278,,1 C,0,113278,,90,177,140 MX,0,113278,,164 V,0,113278,,1,0.7272727 MX,0,113278,113322,164,143.4763 P,0,113278,113719,A MX,0,113322,113366,143.4763,160.273 F,0,113366,113719,1,0 F,0,113984,,1 C,0,113984,,168,217,202 MX,0,113984,,394 MX,0,113984,114028,394,373.4763 P,0,113984,114425,A MX,0,114028,114072,373.4763,390.273 F,0,114072,114425,1,0 F,0,114866,,1 C,0,114866,,168,217,202 MX,0,114866,,144 MX,0,114866,114910,144,123.4763 P,0,114866,115307,A MX,0,114910,114954,123.4763,140.273 F,0,114954,115307,1,0 C,0,115366,,255,0,0 MX,0,115366,,77 F,0,115366,115718,1,0 P,0,115366,115718,A C,0,115719,,169,81,71 MX,0,115719,,230 F,0,115719,116071,1,0 P,0,115719,116071,A F,0,116278,,1 C,0,116278,,168,217,202 MX,0,116278,,550 MX,0,116278,116322,550,570.5237 P,0,116278,116719,A MX,0,116322,116366,570.5237,553.727 F,0,116366,116719,1,0 F,0,116984,,1 C,0,116984,,90,177,140 MX,0,116984,,97 MX,0,116984,117028,97,117.5237 P,0,116984,117425,A MX,0,117028,117072,117.5237,100.727 F,0,117072,117425,1,0 F,0,117690,,1 C,0,117690,,168,217,202 MX,0,117690,,458 MX,0,117690,117734,458,478.5237 P,0,117690,118131,A MX,0,117734,117778,478.5237,461.727 F,0,117778,118131,1,0 C,0,118219,,169,81,71 MX,0,118219,,544 F,0,118219,118571,1,0 P,0,118219,118571,A F,0,118661,,1 C,0,118661,,168,217,202 MX,0,118661,,548 MX,0,118661,118705,548,527.4763 P,0,118661,119102,A MX,0,118705,118749,527.4763,544.2729 F,0,118749,119102,1,0 F,0,119366,,1 C,0,119366,,90,177,140 MX,0,119366,,103 MX,0,119366,119410,103,82.4763 P,0,119366,119807,A MX,0,119410,119454,82.4763,99.27301 F,0,119454,119807,1,0 F,0,119808,,1 C,0,119808,,90,177,140 MX,0,119808,,504 MX,0,119808,119852,504,483.4763 P,0,119808,120249,A MX,0,119852,119896,483.4763,500.273 F,0,119896,120249,1,0 F,0,120514,,1 C,0,120514,,168,217,202 MX,0,120514,,576 MX,0,120514,120558,576,555.4763 P,0,120514,120955,A MX,0,120558,120602,555.4763,572.2729 F,0,120602,120955,1,0 C,0,121014,,255,0,0 MX,0,121014,,291 F,0,121014,121366,1,0 P,0,121014,121366,A C,0,121367,,169,81,71 MX,0,121367,,210 F,0,121367,121719,1,0 P,0,121367,121719,A F,0,121925,,1 C,0,121925,,168,217,202 MX,0,121925,,284 MX,0,121925,121969,284,304.5237 P,0,121925,122366,A MX,0,121969,122013,304.5237,287.727 F,0,122013,122366,1,0 F,0,122631,,1 C,0,122631,,90,177,140 MX,0,122631,,69 MX,0,122631,122675,69,89.5237 P,0,122631,123072,A MX,0,122675,122719,89.5237,72.727 F,0,122719,123072,1,0 F,0,123337,,1 C,0,123337,,169,81,71 MX,0,123337,,66 MX,0,123337,123381,66,74.22186 P,0,123337,123778,A MX,0,123381,123425,74.22186,71.0597 F,0,123425,123778,1,0 C,0,123866,,90,177,140 MX,0,123866,,475 F,0,123866,124218,1,0 P,0,123866,124218,A F,0,124572,,1 C,0,124572,,90,177,140 MX,0,124572,,76 MX,0,124572,124616,76,145.6018 P,0,124572,125013,A MX,0,124616,124660,145.6018,214.1143 F,0,124660,125013,1,0 F,0,125278,,1 C,0,125278,,168,217,202 MX,0,125278,,575 MX,0,125278,125322,575,505.3982 P,0,125278,125719,A MX,0,125322,125366,505.3982,436.8857 F,0,125366,125719,1,0 F,0,125984,,1 C,0,125984,,90,177,140 MX,0,125984,,341 MX,0,125984,126028,341,271.3982 P,0,125984,126425,A MX,0,126028,126072,271.3982,202.8857 F,0,126072,126425,1,0 C,0,126426,,169,81,71 MX,0,126426,,475 F,0,126426,126778,1,0 P,0,126426,126778,A C,0,126895,,255,0,0 MX,0,126895,,561 F,0,126895,127247,1,0 P,0,126895,127247,A F,0,127396,,1 C,0,127396,,90,177,140 MX,0,127396,,164 MX,0,127396,127440,164,232.3818 P,0,127396,127837,A MX,0,127440,127484,232.3818,302 F,0,127484,127837,1,0 F,0,128102,,1 C,0,128102,,168,217,202 MX,0,128102,,441 MX,0,128102,128146,441,371.4732 P,0,128102,128543,A MX,0,128146,128190,371.4732,303.0256 F,0,128190,128543,1,0 F,0,128808,,1 C,0,128808,,90,177,140 MX,0,128808,,64 MX,0,128808,128852,64,133.5268 P,0,128808,129249,A MX,0,128852,128896,133.5268,201 F,0,128896,129249,1,0 C,0,129337,,255,0,0 MX,0,129337,,512 F,0,129337,129689,1,0 P,0,129337,129689,A F,0,129955,,1 C,0,129955,,168,217,202 MX,0,129955,,537 MX,0,129955,129999,537,526.8335 P,0,129955,130396,A MX,0,129999,130043,526.8335,512.0093 F,0,130043,130396,1,0 F,0,130661,,1 C,0,130661,,90,177,140 MX,0,130661,,66 MX,0,130661,130705,66,76.98405 P,0,130661,131102,A MX,0,130705,130749,76.98405,90 F,0,130749,131102,1,0 F,0,131366,,1 C,0,131366,,168,217,202 MX,0,131366,,562 MX,0,131366,131410,562,551.8335 P,0,131366,131807,A MX,0,131410,131454,551.8335,537.0093 F,0,131454,131807,1,0 F,0,132425,,1 C,0,132425,,168,217,202 MX,0,132425,,408 MX,0,132425,132469,408,444.3876 P,0,132425,133042,A MX,0,132469,132513,444.3876,457.9946 MX,0,132513,132557,457.9946,442.6853 MX,0,132557,132601,442.6853,405.6216 MX,0,132601,132645,405.6216,363.7559 MX,0,132645,132689,363.7559,336.3009 F,0,132689,133042,1,0
Sprite,Foreground,Centre,"sb\spotlight.png",0,240 F,0,113455,,1 C,0,113455,,168,217,202 MX,0,113455,,292 V,0,113455,,1,0.7272727 MX,0,113455,113499,292,271.4763 P,0,113455,113896,A MX,0,113499,113543,271.4763,288.273 F,0,113543,113896,1,0 F,0,114425,,1 C,0,114425,,168,217,202 MX,0,114425,,559 MX,0,114425,114469,559,538.4763 P,0,114425,114866,A MX,0,114469,114513,538.4763,555.2729 F,0,114513,114866,1,0 C,0,115131,,255,0,0 MX,0,115131,,124 F,0,115131,115483,1,0 P,0,115131,115483,A C,0,115484,,169,81,71 MX,0,115484,,127 F,0,115484,115836,1,0 P,0,115484,115836,A F,0,115837,,1 C,0,115837,,168,217,202 MX,0,115837,,211 MX,0,115837,115881,211,231.5237 P,0,115837,116278,A MX,0,115881,115925,231.5237,214.727 F,0,115925,116278,1,0 F,0,116543,,1 C,0,116543,,90,177,140 MX,0,116543,,368 MX,0,116543,116587,368,388.5237 P,0,116543,116984,A MX,0,116587,116631,388.5237,371.727 F,0,116631,116984,1,0 F,0,117249,,1 C,0,117249,,168,217,202 MX,0,117249,,213 MX,0,117249,117293,213,233.5237 P,0,117249,117690,A MX,0,117293,117337,233.5237,216.727 F,0,117337,117690,1,0 C,0,117955,,255,0,0 MX,0,117955,,423 F,0,117955,118307,1,0 P,0,117955,118307,A F,0,118308,,1 C,0,118308,,255,0,0 MX,0,118308,,455 MX,0,118308,118352,455,440.7796 P,0,118308,118739,A MX,0,118352,118386,440.7796,455 F,0,118386,118739,1,0 F,0,118925,,1 C,0,118925,,90,177,140 MX,0,118925,,329 MX,0,118925,118969,329,308.4763 P,0,118925,119366,A MX,0,118969,119013,308.4763,325.273 F,0,119013,119366,1,0 F,0,120072,,1 C,0,120072,,168,217,202 MX,0,120072,,296 MX,0,120072,120116,296,275.4763 P,0,120072,120513,A MX,0,120116,120160,275.4763,292.273 F,0,120160,120513,1,0 C,0,120778,,255,0,0 MX,0,120778,,441 F,0,120778,121130,1,0 P,0,120778,121130,A C,0,121131,,169,81,71 MX,0,121131,,360 F,0,121131,121483,1,0 P,0,121131,121483,A F,0,121484,,1 C,0,121484,,168,217,202 MX,0,121484,,64 MX,0,121484,121528,64,84.5237 P,0,121484,121925,A MX,0,121528,121572,84.5237,67.727 F,0,121572,121925,1,0 F,0,122190,,1 C,0,122190,,90,177,140 MX,0,122190,,452 MX,0,122190,122234,452,472.5237 P,0,122190,122631,A MX,0,122234,122278,472.5237,455.727 F,0,122278,122631,1,0 F,0,122896,,1 C,0,122896,,169,81,71 MX,0,122896,,442 MX,0,122896,122940,442,461.3769 P,0,122896,123337,A MX,0,122940,122984,461.3769,445.3578 F,0,122984,123337,1,0 C,0,123602,,168,217,202 MX,0,123602,,449 F,0,123602,123954,1,0 P,0,123602,123954,A F,0,123955,,1 C,0,123955,,255,0,0 MX,0,123955,,551 MX,0,123955,123999,551,542.4128 P,0,123955,124543,A MX,0,123999,124043,542.4128,533.8256 MX,0,124043,124087,533.8256,525.2384 MX,0,124087,124131,525.2384,516.6512 MX,0,124131,124175,516.6512,508.0641 MX,0,124175,124190,508.0641,505.2017 F,0,124190,124543,1,0 F,0,124749,,1 C,0,124749,,168,217,202 MX,0,124749,,386 MX,0,124749,124793,386,316.3982 P,0,124749,125190,A MX,0,124793,124837,316.3982,247.8857 F,0,124837,125190,1,0 F,0,125455,,1 C,0,125455,,90,177,140 MX,0,125455,,299 MX,0,125455,125499,299,367.3818 P,0,125455,125896,A MX,0,125499,125543,367.3818,437 F,0,125543,125896,1,0 C,0,126544,,169,81,71 MX,0,126544,,422 F,0,126544,126896,1,0 P,0,126544,126896,A C,0,127013,,255,0,0 MX,0,127013,,507 F,0,127013,127365,1,0 P,0,127013,127365,A F,0,127572,,1 C,0,127572,,168,217,202 MX,0,127572,,511 MX,0,127572,127616,511,442.6182 P,0,127572,128013,A MX,0,127616,127660,442.6182,373 F,0,127660,128013,1,0 F,0,128278,,1 C,0,128278,,90,177,140 MX,0,128278,,154 MX,0,128278,128322,154,223.5268 P,0,128278,128719,A MX,0,128322,128366,223.5268,291.9744 F,0,128366,128719,1,0 F,0,128984,,1 C,0,128984,,168,217,202 MX,0,128984,,359 MX,0,128984,129028,359,290.5208 P,0,128984,129425,A MX,0,129028,129072,290.5208,221.0475 F,0,129072,129425,1,0 C,0,129513,,169,81,71 MX,0,129513,,502 F,0,129513,129865,1,0 P,0,129513,129865,A F,0,130219,,1 C,0,130219,,90,177,140 MX,0,130219,,308 MX,0,130219,130263,308,297.8335 P,0,130219,130660,A MX,0,130263,130307,297.8335,283.0093 F,0,130307,130660,1,0 F,0,131102,,1 C,0,131102,,90,177,140 MX,0,131102,,540 MX,0,131102,131146,540,549.308 P,0,131102,131543,A MX,0,131146,131190,549.308,564 F,0,131190,131543,1,0 F,0,131807,,1 C,0,131807,,168,217,202 MX,0,131807,,113 MX,0,131807,131851,113,102.8335 P,0,131807,132248,A MX,0,131851,131895,102.8335,88.00934 F,0,131895,132248,1,0
Sprite,Foreground,Centre,"sb\spotlight.png",0,240 C,0,118131,,169,81,71 MX,0,118131,,449 V,0,118131,,1,0.7272727 F,0,118131,118483,1,0 P,0,118131,118483,A C,0,123778,,90,177,140 MX,0,123778,,457 F,0,123778,124130,1,0 P,0,123778,124130,A C,0,126778,,255,0,0 MX,0,126778,,406 F,0,126778,127130,1,0 P,0,126778,127130,A C,0,129425,,169,81,71 MX,0,129425,,493 F,0,129425,129777,1,0 P,0,129425,129777,A
Sprite,Foreground,Centre,"sb\f\c\r\0073.png",0,240.65 S,0,11366,,0.3 F,0,11366,12071,0,1 MX,19,11366,17014,139.4,85.21996 F,0,15690,16396,1,0
Sprite,Foreground,Centre,"sb\f\c\r\0065.png",0,240.65 S,0,11395,,0.3 F,0,11395,12101,0,1 MX,19,11395,17014,155,105.5 F,0,15719,16425,1,0
Sprite,Foreground,Centre,"sb\f\c\r\0074.png",0,240.65 S,0,11424,,0.3 F,0,11424,12130,0,1 MX,19,11424,17014,168.65,123.2449 F,0,15749,16455,1,0
Sprite,Foreground,Centre,"sb\f\c\r\0068.png",0,240.65 S,0,11454,,0.3 F,0,11454,12160,0,1 MX,19,11454,17014,193.4,155.42 F,0,15778,16484,1,0
Sprite,Foreground,Centre,"sb\f\c\r\006f.png",0,240.65 S,0,11483,,0.3 F,0,11483,12189,0,1 MX,19,11483,17014,209.6,176.48 F,0,15808,16514,1,0
Sprite,Foreground,Centre,"sb\f\c\r\0073.png",0,240.65 S,0,11513,,0.3 F,0,11513,12218,0,1 MX,19,11513,17014,225.2,196.7599 F,0,15837,16543,1,0
Sprite,Foreground,Centre,"sb\f\c\r\0074.png",0,240.65 S,0,11542,,0.3 F,0,11542,12248,0,1 MX,19,11542,17014,238.25,213.725 F,0,15866,16572,1,0
Sprite,Foreground,Centre,"sb\f\c\r\0065.png",0,240.65 S,0,11571,,0.3 F,0,11571,12277,0,1 MX,19,11571,17014,251.9,231.47 F,0,15896,16602,1,0
Sprite,Foreground,Centre,"sb\f\c\r\0064.png",0,240.65 S,0,11601,,0.3 F,0,11601,12307,0,1 MX,19,11601,17014,268.1,252.53 F,0,15925,16631,1,0
Sprite,Foreground,Centre,"sb\f\c\r\0062.png",0,240.65 S,0,11630,,0.3 F,0,11630,12336,0,1 MX,19,11630,17014,295.4,288.02 F,0,15955,16661,1,0
Sprite,Foreground,Centre,"sb\f\c\r\0079.png",0,240.65 S,0,11660,,0.3 F,0,11660,12366,0,1 MX,19,11660,17014,311,308.3 F,0,15984,16690,1,0
Sprite,Foreground,Centre,"sb\f\c\b\0053.png",0,240.8 S,0,11689,,0.3 F,0,11689,12395,0,1 MX,19,11689,17014,338.75,344.375 F,0,16013,16719,1,0
Sprite,Foreground,Centre,"sb\f\c\b\0063.png",0,240.8 S,0,11718,,0.3 F,0,11718,12424,0,1 MX,19,11718,17014,356,366.8 F,0,16043,16749,1,0
Sprite,Foreground,Centre,"sb\f\c\b\0075.png",0,240.8 S,0,11748,,0.3 F,0,11748,12454,0,1 MX,19,11748,17014,372.65,388.445 F,0,16072,16778,1,0
Sprite,Foreground,Centre,"sb\f\c\b\0062.png",0,240.8 S,0,11777,,0.3 F,0,11777,12483,0,1 MX,19,11777,17014,389.75,410.675 F,0,16102,16808,1,0
Sprite,Foreground,Centre,"sb\f\c\b\0044.png",0,240.8 S,0,11807,,0.3 F,0,11807,12513,0,1 MX,19,11807,17014,407.9,434.27 F,0,16131,16837,1,0
Sprite,Foreground,Centre,"sb\f\c\b\006f.png",0,240.8 S,0,11836,,0.3 F,0,11836,12542,0,1 MX,19,11836,17014,426.05,457.865 F,0,16161,16866,1,0
Sprite,Foreground,Centre,"sb\f\c\b\006d.png",0,240.8 S,0,11866,,0.3 F,0,11866,12571,0,1 MX,19,11866,17014,445.7,483.4101 F,0,16190,16896,1,0
Sprite,Foreground,Centre,"sb\f\c\b\0069.png",0,240.8 S,0,11895,,0.3 F,0,11895,12601,0,1 MX,19,11895,17014,462.35,505.0551 F,0,16219,16925,1,0
Sprite,Foreground,Centre,"sb\f\c\b\006e.png",0,240.8 S,0,11924,,0.3 F,0,11924,12630,0,1 MX,19,11924,17014,476.45,523.3851 F,0,16249,16955,1,0
Sprite,Foreground,Centre,"sb\f\c\b\006f.png",0,240.8 S,0,11954,,0.3 F,0,11954,12660,0,1 MX,19,11954,17014,493.55,545.6151 F,0,16278,16984,1,0
Sprite,Foreground,Centre,"sb\f\c\r\0064.png",0,240.65 S,0,17014,,0.3 F,0,17014,17719,0,1 MX,19,17014,22661,92.44996,24.18495 F,0,21131,21837,1,0
Sprite,Foreground,Centre,"sb\f\c\r\0069.png",0,240.65 S,0,17043,,0.3 F,0,17043,17749,0,1 MX,19,17043,22661,105.65,41.34494 F,0,21161,21866,1,0
Sprite,Foreground,Centre,"sb\f\c\r\0066.png",0,240.65 S,0,17072,,0.3 F,0,17072,17778,0,1 MX,19,17072,22661,116.3,55.18995 F,0,21190,21896,1,0
Sprite,Foreground,Centre,"sb\f\c\r\0066.png",0,240.65 S,0,17102,,0.3 F,0,17102,17808,0,1 MX,19,17102,22661,127.4,69.61994 F,0,21219,21925,1,0
Sprite,Foreground,Centre,"sb\f\c\r\0069.png",0,240.65 S,0,17131,,0.3 F,0,17131,17837,0,1 MX,19,17131,22661,138.05,83.46494 F,0,21249,21955,1,0
Sprite,Foreground,Centre,"sb\f\c\r\0063.png",0,240.65 S,0,17161,,0.3 F,0,17161,17866,0,1 MX,19,17161,22661,150.6499,99.84493 F,0,21278,21984,1,0
Sprite,Foreground,Centre,"sb\f\c\r\0075.png",0,240.65 S,0,17190,,0.3 F,0,17190,17896,0,1 MX,19,17190,22661,166.25,120.1249 F,0,21308,22013,1,0
Sprite,Foreground,Centre,"sb\f\c\r\006c.png",0,240.65 S,0,17219,,0.3 F,0,17219,17925,0,1 MX,19,17219,22661,179.45,137.2849 F,0,21337,22043,1,0
Sprite,Foreground,Centre,"sb\f\c\r\0074.png",0,240.65 S,0,17249,,0.3 F,0,17249,17955,0,1 MX,19,17249,22661,190.0999,151.1299 F,0,21366,22072,1,0
Sprite,Foreground,Centre,"sb\f\c\r\0079.png",0,240.65 S,0,17278,,0.3 F,0,17278,17984,0,1 MX,19,17278,22661,203.1499,168.0949 F,0,21396,22102,1,0
Sprite,Foreground,Centre,"sb\f\c\r\006d.png",0,240.65 S,0,17308,,0.3 F,0,17308,18013,0,1 MX,19,17308,22661,232.25,205.9249 F,0,21425,22131,1,0
Sprite,Foreground,Centre,"sb\f\c\r\0061.png",0,240.65 S,0,17337,,0.3 F,0,17337,18043,0,1 MX,19,17337,22661,250.85,230.1049 F,0,21455,22161,1,0
Sprite,Foreground,Centre,"sb\f\c\r\0070.png",0,240.65 S,0,17366,,0.3 F,0,17366,18072,0,1 MX,19,17366,22661,267.05,251.1649 F,0,21484,22190,1,0
Sprite,Foreground,Centre,"sb\f\c\r\0070.png",0,240.65 S,0,17396,,0.3 F,0,17396,18102,0,1 MX,19,17396,22661,283.25,272.225 F,0,21513,22219,1,0
Sprite,Foreground,Centre,"sb\f\c\r\0065.png",0,240.65 S,0,17425,,0.3 F,0,17425,18131,0,1 MX,19,17425,22661,299.45,293.285 F,0,21543,22249,1,0
Sprite,Foreground,Centre,"sb\f\c\r\0064.png",0,240.65 S,0,17455,,0.3 F,0,17455,18161,0,1 MX,19,17455,22661,315.65,314.345 F,0,21572,22278,1,0
Sprite,Foreground,Centre,"sb\f\c\r\0062.png",0,240.65 S,0,17484,,0.3 F,0,17484,18190,0,1 MX,19,17484,22661,342.95,349.835 F,0,21602,22308,1,0
Sprite,Foreground,Centre,"sb\f\c\r\0079.png",0,240.65 S,0,17514,,0.3 F,0,17514,18219,0,1 MX,19,17514,22661,358.55,370.115 F,0,21631,22337,1,0
Sprite,Foreground,Centre,"sb\f\c\b\0053.png",0,240.8 S,0,17543,,0.3 F,0,17543,18249,0,1 MX,19,17543,22661,386.3,406.19 F,0,21661,22366,1,0
Sprite,Foreground,Centre,"sb\f\c\b\0063.png",0,240.8 S,0,17572,,0.3 F,0,17572,18278,0,1 MX,19,17572,22661,403.55,428.615 F,0,21690,22396,1,0
Sprite,Foreground,Centre,"sb\f\c\b\0075.png",0,240.8 S,0,17602,,0.3 F,0,17602,18308,0,1 MX,19,17602,22661,420.2,450.26 F,0,21719,22425,1,0
Sprite,Foreground,Centre,"sb\f\c\b\0062.png",0,240.8 S,0,17631,,0.3 F,0,17631,18337,0,1 MX,19,17631,22661,437.3,472.49 F,0,21749,22455,1,0
Sprite,Foreground,Centre,"sb\f\c\b\0044.png",0,240.8 S,0,17661,,0.3 F,0,17661,18366,0,1 MX,19,17661,22661,455.45,496.0851 F,0,21778,22484,1,0
Sprite,Foreground,Centre,"sb\f\c\b\006f.png",0,240.8 S,0,17690,,0.3 F,0,17690,18396,0,1 MX,19,17690,22661,473.6,519.6801 F,0,21808,22513,1,0
Sprite,Foreground,Centre,"sb\f\c\b\006d.png",0,240.8 S,0,17719,,0.3 F,0,17719,18425,0,1 MX,19,17719,22661,493.2501,545.2251 F,0,21837,22543,1,0
Sprite,Foreground,Centre,"sb\f\c\b\0069.png",0,240.8 S,0,17749,,0.3 F,0,17749,18455,0,1 MX,19,17749,22661,509.9001,566.8701 F,0,21866,22572,1,0
Sprite,Foreground,Centre,"sb\f\c\b\006e.png",0,240.8 S,0,17778,,0.3 F,0,17778,18484,0,1 MX,19,17778,22661,524.0001,585.2001 F,0,21896,22602,1,0
Sprite,Foreground,Centre,"sb\f\c\b\006f.png",0,240.8 S,0,17808,,0.3 F,0,17808,18513,0,1 MX,19,17808,22661,541.1,607.4301 F,0,21925,22631,1,0
Sprite,Foreground,Centre,"sb\f\c\r\0073.png",0,240.65 S,0,22661,,0.3 F,0,22661,23366,0,1 MX,19,22661,28308,114.35,52.65495 F,0,26896,27602,1,0
Sprite,Foreground,Centre,"sb\f\c\r\0074.png",0,240.65 S,0,22690,,0.3 F,0,22690,23396,0,1 MX,19,22690,28308,127.4,69.61995 F,0,26925,27631,1,0
Sprite,Foreground,Centre,"sb\f\c\r\006f.png",0,240.65 S,0,22719,,0.3 F,0,22719,23425,0,1 MX,19,22719,28308,141.05,87.36497 F,0,26955,27660,1,0
Sprite,Foreground,Centre,"sb\f\c\r\0072.png",0,240.65 S,0,22749,,0.3 F,0,22749,23455,0,1 MX,19,22749,28308,155.15,105.695 F,0,26984,27690,1,0
Sprite,Foreground,Centre,"sb\f\c\r\0079.png",0,240.65 S,0,22778,,0.3 F,0,22778,23484,0,1 MX,19,22778,28308,168.65,123.2449 F,0,27013,27719,1,0
Sprite,Foreground,Centre,"sb\f\c\r\0062.png",0,240.65 S,0,22808,,0.3 F,0,22808,23513,0,1 MX,19,22808,28308,184.25,143.525 F,0,27043,27749,1,0
Sprite,Foreground,Centre,"sb\f\c\r\006f.png",0,240.65 S,0,22837,,0.3 F,0,22837,23543,0,1 MX,19,22837,28308,200.45,164.585 F,0,27072,27778,1,0
Sprite,Foreground,Centre,"sb\f\c\r\0061.png",0,240.65 S,0,22866,,0.3 F,0,22866,23572,0,1 MX,19,22866,28308,216.65,185.645 F,0,27102,27808,1,0
Sprite,Foreground,Centre,"sb\f\c\r\0072.png",0,240.65 S,0,22896,,0.3 F,0,22896,23602,0,1 MX,19,22896,28308,230.75,203.9749 F,0,27131,27837,1,0
Sprite,Foreground,Centre,"sb\f\c\r\0064.png",0,240.65 S,0,22925,,0.3 F,0,22925,23631,0,1 MX,19,22925,28308,244.85,222.3049 F,0,27160,27866,1,0
Sprite,Foreground,Centre,"sb\f\c\r\0062.png",0,240.65 S,0,22955,,0.3 F,0,22955,23660,0,1 MX,19,22955,28308,272.15,257.795 F,0,27190,27896,1,0
Sprite,Foreground,Centre,"sb\f\c\r\0079.png",0,240.65 S,0,22984,,0.3 F,0,22984,23690,0,1 MX,19,22984,28308,287.75,278.075 F,0,27219,27925,1,0
Sprite,Foreground,Centre,"sb\f\c\b\0048.png",0,240.8 S,0,23013,,0.3 F,0,23013,23719,0,1 MX,19,23013,28308,315.95,314.735 F,0,27249,27955,1,0
Sprite,Foreground,Centre,"sb\f\c\b\006f.png",0,240.8 S,0,23043,,0.3 F,0,23043,23749,0,1 MX,19,23043,28308,334.1,338.33 F,0,27278,27984,1,0
Sprite,Foreground,Centre,"sb\f\c\b\006b.png",0,240.8 S,0,23072,,0.3 F,0,23072,23778,0,1 MX,19,23072,28308,350.75,359.975 F,0,27308,28013,1,0
Sprite,Foreground,Centre,"sb\f\c\b\0069.png",0,240.8 S,0,23102,,0.3 F,0,23102,23808,0,1 MX,19,23102,28308,364.4,377.72 F,0,27337,28043,1,0
Sprite,Foreground,Centre,"sb\f\c\b\0063.png",0,240.8 S,0,23131,,0.3 F,0,23131,23837,0,1 MX,19,23131,28308,378.05,395.465 F,0,27366,28072,1,0
Sprite,Foreground,Centre,"sb\f\c\b\0068.png",0,240.8 S,0,23161,,0.3 F,0,23161,23866,0,1 MX,19,23161,28308,394.7,417.11 F,0,27396,28102,1,0
Sprite,Foreground,Centre,"sb\f\c\b\0069.png",0,240.8 S,0,23190,,0.3 F,0,23190,23896,0,1 MX,19,23190,28308,408.8,435.44 F,0,27425,28131,1,0
Sprite,Foreground,Centre,"sb\f\c\b\0026.png",0,240.8 S,0,23219,,0.3 F,0,23219,23925,0,1 MX,19,23219,28308,435.05,469.5651 F,0,27455,28160,1,0
Sprite,Foreground,Centre,"sb\f\c\b\004d.png",0,240.8 S,0,23249,,0.3 F,0,23249,23955,0,1 MX,19,23249,28308,466.2501,510.1251 F,0,27484,28190,1,0
Sprite,Foreground,Centre,"sb\f\c\b\0075.png",0,240.8 S,0,23278,,0.3 F,0,23278,23984,0,1 MX,19,23278,28308,485.3,534.8901 F,0,27513,28219,1,0
Sprite,Foreground,Centre,"sb\f\c\b\006e.png",0,240.8 S,0,23308,,0.3 F,0,23308,24013,0,1 MX,19,23308,28308,502.4001,557.1201 F,0,27543,28249,1,0
Sprite,Foreground,Centre,"sb\f\c\b\0065.png",0,240.8 S,0,23337,,0.3 F,0,23337,24043,0,1 MX,19,23337,28308,519.05,578.7651 F,0,27572,28278,1,0
//Storyboard Layer 4 (Overlay)
//Storyboard Sound Samples

[TimingPoints]
11367,352.941176470588,4,2,1,75,1,0
11367,-200,4,2,1,75,0,0
11455,-200,4,2,42,30,0,0
11896,-200,4,2,42,40,0,0
11984,-200,4,2,42,50,0,0
12072,-200,4,2,42,40,0,0
12249,-333.333333333333,4,2,42,40,0,0
14190,-1000,4,2,42,40,0,0
16661,-250,4,2,42,40,0,0
17543,-250,4,2,42,30,0,0
17631,-250,4,2,42,40,0,0
17719,-250,4,2,42,50,0,0
17896,-333.333333333333,4,2,42,50,0,0
18955,-250,4,2,42,50,0,0
19837,-1000,4,2,42,50,0,0
22661,-200,4,2,1,75,0,0
22749,-200,4,2,42,40,0,0
23190,-200,4,2,42,30,0,0
23278,-200,4,2,42,40,0,0
23366,-200,4,2,42,50,0,0
23543,-333.333333333333,4,2,42,50,0,0
25484,-500,4,2,42,50,0,0
27955,-250,4,2,42,50,0,0
28837,-250,4,2,42,30,0,0
28925,-250,4,2,42,40,0,0
29013,-250,4,2,42,50,0,0
29190,-333.333333333333,4,2,42,50,0,0
32190,-200,4,2,42,50,0,0
32543,-400,4,2,42,50,0,0
33249,-1000,4,2,42,50,0,0
33955,-12.2174709835064,4,2,1,85,0,1
36072,-285.714285714286,4,2,1,85,0,0
36778,-285.714285714286,4,2,1,45,0,0
38896,-25,4,2,1,45,0,0
39602,-12.1951219512195,4,2,1,85,0,1
41719,-12.1951219512195,4,2,1,85,0,0
42425,-285.714285714286,4,2,1,45,0,0
44543,-181.818181818182,4,2,1,45,0,0
45249,-181.818181818182,4,2,1,65,0,0
46308,-166.666666666667,4,2,1,65,0,0
46661,-181.818181818182,4,2,1,65,0,0
47719,-166.666666666667,4,2,1,65,0,0
48072,-181.818181818182,4,2,1,65,0,0
49043,-166.666666666667,4,2,1,65,0,0
49484,-181.818181818182,4,2,1,65,0,0
50543,-166.666666666667,4,2,1,65,0,0
50896,-166.666666666667,4,2,1,70,0,0
55131,-166.666666666667,4,2,1,65,0,0
55308,-166.666666666667,4,2,1,60,0,0
56366,-52.6315789473684,4,2,1,70,0,0
56543,-100,4,2,1,70,0,0
56719,-250,4,2,1,70,0,0
57249,-100,4,2,1,70,0,0
57425,-250,4,2,1,70,0,0
57955,-100,4,2,1,70,0,0
58131,-250,4,2,1,70,0,0
58484,-100,4,2,1,70,0,0
58661,-22.2469410456062,4,2,1,70,0,0
59014,-37.5000937502344,4,2,1,70,0,0
59366,-100,4,2,1,70,0,0
60778,-225.022502250225,4,2,1,70,0,0
61308,-66.6666666666667,4,2,1,70,0,0
62190,-333.333333333333,4,2,1,70,0,0
64308,-22.2469410456062,4,2,1,70,0,0
64661,-33.3333333333333,4,2,1,70,0,0
65014,-100,4,2,1,70,0,0
65190,-133.333333333333,4,2,1,70,0,0
65719,-100,4,2,1,70,0,0
65895,-133.333333333333,4,2,1,70,0,0
66425,-100,4,2,1,70,0,0
66601,-133.333333333333,4,2,1,70,0,0
67131,-66.6666666666667,4,2,1,70,0,0
67484,-133.333333333333,4,2,1,70,0,0
67837,-333.333333333333,4,2,1,70,0,0
69778,-100,4,2,1,70,0,0
69955,-20,4,2,1,70,0,0
70131,-33.3333333333333,4,2,1,70,0,0
70661,-100,4,2,1,70,0,0
70837,-200,4,2,1,70,0,0
71366,-100,4,2,1,70,0,0
71719,-10,4,2,1,85,0,0
71741,-10,4,2,43,5,0,0
71764,-10,4,2,42,15,0,0
71786,-10,4,2,43,25,0,0
71808,-10,4,2,42,35,0,0
71830,-10,4,2,43,45,0,0
71852,-10,4,2,42,55,0,0
71874,-10,4,2,43,65,0,0
71896,-10,4,2,42,75,0,0
71918,-10,4,2,43,85,0,0
71940,-10,4,2,42,85,0,0
71962,-10,4,2,43,85,0,0
71984,-10,4,2,42,85,0,0
72006,-10,4,2,43,5,0,0
72029,-10,4,2,42,15,0,0
72051,-10,4,2,43,25,0,0
72073,-10,4,2,42,35,0,0
72095,-10,4,2,43,45,0,0
72117,-10,4,2,42,55,0,0
72139,-10,4,2,43,65,0,0
72161,-10,4,2,42,75,0,0
72183,-10,4,2,43,85,0,0
72205,-10,4,2,42,85,0,0
72227,-10,4,2,43,85,0,0
72249,-10,4,2,42,85,0,0
72271,-10,4,2,43,5,0,0
72294,-10,4,2,42,15,0,0
72316,-10,4,2,43,25,0,0
72338,-10,4,2,42,35,0,0
72360,-10,4,2,43,45,0,0
72382,-10,4,2,42,55,0,0
72404,-10,4,2,43,65,0,0
72426,-10,4,2,42,75,0,0
72448,-10,4,2,43,85,0,0
72470,-10,4,2,42,85,0,0
72492,-10,4,2,43,85,0,0
72514,-10,4,2,44,85,0,0
72537,-10,4,2,42,15,0,0
72559,-10,4,2,43,25,0,0
72581,-10,4,2,42,35,0,0
72603,-10,4,2,43,45,0,0
72625,-10,4,2,42,55,0,0
72647,-10,4,2,43,65,0,0
72669,-10,4,2,42,75,0,0
72691,-10,4,2,43,85,0,0
72713,-10,4,2,42,85,0,0
72735,-10,4,2,43,85,0,0
72757,-10,4,2,1,85,0,0
72778,-100,4,2,1,85,0,0
73484,-100,4,2,1,85,0,0
73660,-200,4,2,1,85,0,0
74190,-100,4,2,1,85,0,0
74366,-200,4,2,1,85,0,0
74896,-100,4,2,1,85,0,0
75072,-200,4,2,1,85,0,0
75602,-16.6666666666667,4,2,1,85,0,0
75779,-16.6666666666667,4,2,1,85,0,0
75955,-25,4,2,1,85,0,0
76132,-25,4,2,1,85,0,0
77719,-100,4,2,99,65,0,0
77896,-100,4,2,99,65,0,1
77984,-100,4,2,99,65,0,0
78161,-100,4,2,99,65,0,1
78293,-100,4,2,99,65,0,0
78337,-100,4,2,99,65,0,1
78425,-100,4,2,99,65,0,0
78602,-100,4,2,99,65,0,1
78778,-100,4,2,99,65,0,0
78955,-100,4,2,99,65,0,1
79131,-58.8235294117647,4,2,1,85,0,0
79484,-66.6666666666667,4,2,1,85,0,0
79661,-52.6315789473684,4,2,1,85,0,0
79837,-71.4285714285714,4,2,1,85,0,0
81249,-58.8235294117647,4,2,1,85,0,0
81602,-133.333333333333,4,2,1,85,0,0
81955,-58.8235294117647,4,2,1,85,0,0
82308,-66.6666666666667,4,2,1,85,0,0
82661,-71.4285714285714,4,2,1,85,0,0
83014,-133.333333333333,4,2,1,85,0,0
83190,-71.4285714285714,4,2,1,85,0,0
84072,-399.999999999997,4,2,1,85,0,0
84426,-399.999999999997,4,2,1,85,0,0
84778,-71.4285714285714,4,2,1,85,0,0
85131,-66.6666666666667,4,2,1,85,0,0
85308,-52.6315789473684,4,2,1,85,0,0
85484,-71.4285714285714,4,2,1,85,0,0
86543,-76.9230769230769,4,2,1,85,0,0
86896,-50,4,2,1,85,0,0
87249,-133.333333333333,4,2,1,85,0,0
87602,-22.2469410456062,4,2,1,85,0,0
87952,-66.6666666666667,4,2,1,85,0,0
88308,-22.2469410456062,4,2,1,85,0,0
88658,-66.6666666666667,4,2,1,85,0,0
89014,-22.2469410456062,4,2,1,85,0,0
89366,-66.6666666666667,4,2,1,85,0,0
89719,-133.333333333333,4,2,1,85,0,0
90425,-29.4117647058824,4,2,1,85,0,0
90778,-27.0270270270271,4,2,1,85,0,0
92190,-80,4,2,1,85,0,0
92543,-50,4,2,1,85,0,0
92896,-153.846153846153,4,2,1,85,0,0
93249,-10,4,2,1,85,0,0
93955,-11.1111111111111,4,2,1,85,0,0
95014,-33.3333333333333,4,2,1,85,0,0
95719,-285.714285714286,4,2,1,85,0,0
96072,-10,4,2,1,85,0,0
97308,-11.1111111111111,4,2,1,85,0,0
98190,-14.2857142857143,4,2,1,85,0,0
98896,-20,4,2,1,85,0,0
99249,-153.846153846153,4,2,1,85,0,0
99602,-20,4,2,1,85,0,0
99955,-153.846153846153,4,2,1,85,0,0
100308,-20,4,2,1,85,0,0
100661,-153.846153846153,4,2,1,85,0,0
101366,-100,4,2,1,85,0,0
101719,-250,4,2,1,85,0,0
102072,-250,4,2,1,60,0,0
107366,-100,4,2,1,70,0,0
108072,-71.4285714285714,4,2,1,70,0,0
108778,-58.8235294117647,4,2,1,70,0,0
109484,-50,4,2,1,70,0,0
111602,-50,4,2,1,50,0,0
111955,-100,4,2,1,50,0,0
112131,-200,4,2,1,60,0,0
112308,-200,4,2,1,60,0,0
112661,-33.3333333333333,4,2,1,80,0,1
112749,-1000,4,2,1,80,0,0
112837,-33.3333333333333,4,2,1,80,0,1
112925,-1000,4,2,1,80,0,0
113014,-50,4,2,1,80,0,0
118308,-100,4,2,1,80,0,0
118504,-181.818181818181,4,2,1,80,0,0
118661,-50,4,2,1,80,0,0
123955,-500,4,2,1,80,0,0
124308,-50,4,2,1,80,0,0
129602,-100,4,2,1,80,0,0
129955,-50,4,2,1,80,0,0
132072,-500,4,2,1,80,0,0
132425,-100,4,2,1,80,0,0
132778,-100,4,2,1,40,0,0
134190,-100,4,2,1,50,0,0
134543,-100,4,2,1,60,0,0
134896,-100,4,2,1,70,0,0
135249,-100,4,2,1,85,0,0
135602,-100,4,2,1,85,0,0
137366,-153.846153846153,4,2,1,85,0,0
137719,-100,4,2,1,85,0,0
140190,-153.846153846153,4,2,1,85,0,0
140896,-444.444444444444,4,2,1,85,0,0
141249,-58.8235294117647,4,2,1,85,0,0
144072,-399.999999999994,4,2,1,85,0,0
144425,-22.2222222222222,4,2,1,85,0,1
144778,-399.999999999994,4,2,1,85,0,0
145131,-22.2222222222222,4,2,1,85,0,1
145484,-399.999999999994,4,2,1,85,0,0
145749,-58.8235294117647,4,2,1,85,0,0
145837,-22.2222222222222,4,2,1,85,0,1
146190,-22.2222222222222,4,2,1,60,0,1
146543,-133.333333333333,4,2,1,60,0,0
146896,-66.6666666666667,4,2,1,85,0,0
147249,-50,4,2,1,85,0,0
147602,-40,4,2,1,85,0,0
147955,-33.3333333333333,4,2,1,85,0,0
148308,-28.5714285714286,4,2,1,85,0,0
148661,-44.4444444444445,4,2,1,85,0,0
149719,-66.6666666666667,4,2,1,85,0,0
151131,-50,4,2,1,85,0,0
151484,-100,4,2,1,85,0,0
152896,-66.6666666666667,4,2,1,85,0,0
153227,-50,4,2,1,85,0,0
153580,-40,4,2,1,85,0,0
153933,-33.3333333333333,4,2,1,85,0,0
154131,-100,4,2,1,85,0,0
154286,-28.5714285714286,4,2,1,85,0,0
154661,-100,4,2,1,85,0,0
155366,-100,4,2,1,75,0,0
155837,-75.0001875004688,4,2,1,75,0,0
156014,-133.333333333333,4,2,1,75,0,0
156072,-133.333333333333,4,2,1,65,0,0
156778,-200,4,2,99,55,0,0
156866,-200,4,2,1,45,0,0
157484,-666.666666666649,4,2,1,45,0,0
158190,-10,4,2,1,45,0,1
158234,-1000,4,2,1,45,0,0

[Colours]
Combo1 : 169,81,71
Combo2 : 168,217,202
Combo3 : 90,177,140
Combo4 : 255,0,0

[HitObjects]
46,192,11367,6,0,B|40:195|40:195|44:200|44:200|39:204|39:204|42:209|42:209|37:213|37:213|41:218|41:218|35:223|35:223|39:228|39:228|34:234|34:234|37:239|37:239|32:242|32:242|36:248|36:248|30:254|30:254|34:259|34:259|28:263|28:263|32:268|32:268|27:273|27:273|30:279|30:279|25:284|25:284|28:289|28:289|23:293|23:293|27:298|27:298|22:301|22:301|25:307|25:307|20:312|20:312|23:320|23:320|18:323|18:323|21:329|21:329|16:332|16:332|20:338|20:338|14:343|14:343|18:348|18:348|13:352|13:352|16:358|16:358|11:362|11:362|15:367|15:367|9:372|9:372|12:379|12:379|7:383,1,262.5,2|0,0:1|2:2,0:0:0:0:
28,288,11984,1,0,2:2:0:0:
46,192,12072,1,2,2:2:0:0:
123,256,12249,2,0,P|147:276|124:251,1,105,0|2,3:0|2:0,0:0:0:0:
208,166,12778,1,0,2:3:0:0:
199,122,13130,1,0,2:0:0:0:
166,93,13483,1,0,2:0:0:0:
123,88,13836,1,0,2:0:0:0:
46,192,14190,6,0,L|35:152,3,35,2|0|0|0,2:2|2:0|2:0|2:0,0:0:0:0:
116,133,15602,2,0,L|126:167,2,35,2|0|0,2:2|2:0|2:0,0:0:0:0:
116,133,16661,2,0,P|175:118|266:161,1,140,2|0,2:0|2:0,0:0:0:0:
267,162,17190,37,0,3:0:0:0:
280,184,17367,2,0,L|267:278,1,70,0|0,3:0|2:2,0:0:0:0:
256,343,17631,1,0,2:2:0:0:
188,289,17719,1,2,2:2:0:0:
270,253,17896,2,0,L|384:231,1,104.999996795654,0|2,3:0|2:0,0:0:0:0:
373,233,18602,2,0,P|410:258|431:264,1,52.4999983978272,2|0,2:2|2:0,0:0:0:0:
511,129,18955,2,0,P|476:96|379:102,1,140,2|0,2:0|2:0,0:0:0:0:
389,97,19484,1,2,2:0:0:0:
389,97,19837,6,0,L|400:57,3,35,2|0|0|0,2:2|2:0|2:0|2:0,0:0:0:0:
317,37,21249,2,0,L|307:71,3,35,2|0|0|2,2:2|2:0|2:0|2:0,0:0:0:0:
31,9,22661,38,0,B|34:15|34:15|39:11|39:11|43:16|43:16|48:13|48:13|52:18|52:18|57:14|57:14|62:20|62:20|67:16|67:16|73:21|73:21|78:18|78:18|81:23|81:23|87:19|87:19|93:25|93:25|98:21|98:21|102:27|102:27|107:23|107:23|112:28|112:28|118:25|118:25|123:30|123:30|128:27|128:27|132:32|132:32|137:28|137:28|140:33|140:33|146:30|146:30|151:35|151:35|159:32|159:32|162:37|162:37|168:34|168:34|171:39|171:39|177:35|177:35|182:41|182:41|187:37|187:37|191:42|191:42|197:39|197:39|201:44|201:44|206:40|206:40|211:46|211:46|218:43|218:43|222:48,1,262.5,2|0,0:1|2:2,0:0:0:0:
116,69,23278,1,0,2:2:0:0:
31,9,23366,1,2,2:2:0:0:
125,77,23543,2,0,P|145:128|135:176,1,104.999996795654,0|2,3:0|2:0,0:0:0:0:
45,211,24072,1,0,2:3:0:0:
81,191,24425,1,0,2:0:0:0:
122,191,24778,1,0,2:0:0:0:
160,209,25131,1,0,2:0:0:0:
104,280,25484,6,0,L|117:354,3,70,2|0|0|0,2:2|2:0|2:0|2:0,0:0:0:0:
256,233,26896,2,0,L|243:307,3,70,2|0|0|2,2:2|2:0|2:0|2:0,0:0:0:0:
243,301,28308,38,0,P|345:344|416:264,1,210,0|0,2:0|2:2,0:0:0:0:
325,251,28925,1,0,2:2:0:0:
420,280,29014,1,2,2:2:0:0:
381,162,29190,1,0,3:0:0:0:
489,95,29543,2,0,L|467:208,2,104.999996795654,2|2|2,2:0|2:2|2:0,0:0:0:0:
343,49,30602,2,0,P|404:45|445:0,1,104.999996795654,2|0,2:0|0:0,0:0:0:0:
387,158,31131,2,0,P|289:149|207:227,1,209.999993591309,0|0,2:1|2:0,0:0:0:0:
209,219,32190,2,0,P|161:230|202:207,1,131.25,0|0,2:0|0:0,0:0:0:0:
99,362,32543,6,0,L|-5:389,1,87.5,2|0,2:2|0:0,0:0:0:0:
209,219,33249,38,0,L|195:155,1,61.25,0|0,2:0|0:0,0:0:0:0:
3,6,33955,22,2,B|11:10|11:10|0:19|0:19|22:20|22:20|1:37|1:37|34:29|34:29|2:56|2:56|46:37|46:37|4:74|4:74|58:45|58:45|8:91|8:91|70:53|70:53|12:110|12:110|83:60|83:60|17:128|17:128|95:67|95:67|23:146|23:146|108:73|108:73|30:163|30:163|122:78|122:78|39:179|39:179|137:83|137:83|48:196|48:196|151:88|151:88|58:212|58:212|165:91|165:91|68:228|68:228|179:94|179:94|79:243|79:243|193:97|193:97|90:257|90:257|208:99|208:99|103:270|103:270|222:100|222:100|116:283|116:283|238:101|238:101|130:295|130:295|252:101|252:101|146:308|146:308|267:101|267:101|161:318|161:318|281:101|281:101|177:328|177:328|296:99|296:99|193:337|193:337|310:97|310:97|209:345|209:345|325:95|325:95|226:353|226:353|340:92|340:92|245:359|245:359|354:89|354:89|262:365|262:365|368:85|368:85|280:369|280:369|382:80|382:80|298:373|298:373|395:75|395:75|317:376|317:376|409:69|409:69|335:377|335:377|422:62|422:62|355:377|355:377|435:55|435:55|373:377|373:377|448:48|448:48|392:377|392:377|460:40|460:40|410:375|410:375|472:31|472:31|428:372|428:372|484:22|484:22|447:368|447:368|495:13|495:13|465:363|465:363|506:3|506:3|483:358|483:358|515:-8|515:-8|500:351,1,17188.4998041128,2|0,1:0|0:0,0:2:0:0:
498,39,36778,22,0,L|494:103,1,61.2499981307984,2|0,2:1|0:0,0:0:0:0:
407,77,37043,1,2,0:2:0:0:
411,81,37131,6,0,L|407:145,1,61.2499981307984,2|0,3:2|0:0,0:0:0:0:
499,105,37396,1,2,0:2:0:0:
503,109,37484,38,0,L|499:173,1,61.2499981307984,2|0,3:2|0:0,0:0:0:0:
412,147,37749,1,2,0:2:0:0:
416,151,37837,6,0,L|412:215,1,61.2499981307984,2|0,3:2|0:0,0:0:0:0:
504,175,38102,1,2,0:2:0:0:
508,179,38190,38,0,L|504:243,1,61.2499981307984,2|0,3:2|0:0,0:0:0:0:
416,216,38455,1,2,0:2:0:0:
420,220,38543,6,0,L|416:284,1,61.2499981307984,2|0,3:2|0:0,0:0:0:0:
508,244,38808,1,2,0:2:0:0:
512,248,38896,22,0,B|327:295|327:295|350:340|350:340|439:374|439:374|416:341|410:313,1,350,2|0,3:3|0:0,0:0:0:0:
431,362,39602,38,2,B|10:380|10:380|425:353|425:353|14:363|14:363|419:344|419:344|19:346|19:346|414:334|414:334|24:329|24:329|410:325|410:325|30:313|30:313|405:316|405:316|35:296|35:296|401:306|401:306|41:280|41:280|398:296|398:296|49:264|49:264|395:287|395:287|56:249|56:249|393:277|393:277|65:233|65:233|391:266|391:266|72:217|72:217|389:256|389:256|82:203|82:203|388:246|388:246|92:188|92:188|387:235|387:235|103:175|103:175|387:225|387:225|113:161|113:161|387:215|387:215|125:147|125:147|387:204|387:204|137:135|137:135|388:194|388:194|149:123|149:123|390:183|390:183|163:111|163:111|392:174|392:174|177:101|177:101|394:163|394:163|190:91|190:91|396:153|396:153|205:81|205:81|399:144|399:144|220:73|220:73|402:134|402:134|236:64|236:64|406:124|406:124|251:56|251:56|411:114|411:114|267:49|267:49|415:106|415:106|284:43|284:43|421:96|421:96|300:37|300:37|426:87|426:87|317:32|317:32|431:78|431:78|333:28|333:28|437:71|437:71|351:24|351:24|444:63|444:63|367:20|367:20|451:55|451:55|385:17|385:17|458:47|458:47|402:14|402:14|466:39|466:39|420:12|420:12|473:33|473:33|437:10|437:10|481:26|481:26|455:9|455:9|490:20|490:20|471:8|471:8|498:14|498:14|489:8|489:8|506:8,1,17220.0002627564,0|0,2:2|0:0,0:2:0:0:
496,8,42425,22,0,P|472:52|446:64,1,61.2499981307984,2|0,0:1|0:0,0:0:0:0:
443,165,42690,1,2,0:2:0:0:
443,165,42778,6,0,P|396:183|368:175,1,61.2499981307984,2|0,0:2|0:0,0:0:0:0:
301,251,43043,1,2,0:2:0:0:
301,251,43131,38,0,P|253:234|237:210,1,61.2499981307984,2|0,0:2|0:0,0:0:0:0:
136,225,43396,1,2,0:2:0:0:
136,225,43484,6,0,P|110:181|113:152,1,61.2499981307984,2|0,0:2|0:0,0:0:0:0:
26,99,43749,1,2,0:2:0:0:
26,99,43837,37,2,0:2:0:0:
25,99,44543,2,0,B|76:160|182:117|124:68|259:13|332:109,1,336.875010280609
512,231,45249,6,0,P|437:221|391:267,1,144.375004405975,2|0,1:0|0:0,0:0:0:0:
391,279,45602,2,0,L|420:389,1,96.250002937317,2|0,2:2|0:0,0:0:0:0:
155,384,45955,2,0,L|315:346,1,144.375004405975,2|0,1:2|0:0,0:0:0:0:
390,278,46308,2,0,L|418:387,1,104.999996795654,2|0,2:2|0:0,0:0:0:0:
0,178,46661,38,0,P|75:168|121:214,1,144.375004405975,0|0,1:2|0:0,0:0:0:0:
121,226,47014,2,0,L|92:336,1,96.250002937317,2|0,2:2|0:0,0:0:0:0:
357,331,47367,2,0,L|197:293,1,144.375004405975,2|0,1:2|0:0,0:0:0:0:
121,226,47719,2,0,L|92:335,1,104.999996795654,2|0,2:2|0:0,0:0:0:0:
512,133,48072,6,0,P|437:123|391:169,1,144.375004405975,0|0,1:2|0:0,0:0:0:0:
391,181,48425,2,0,L|420:291,1,96.250002937317,2|0,2:2|0:0,0:0:0:0:
155,286,48778,2,0,L|315:248,1,144.375004405975,2|0,1:2|0:0,0:0:0:0:
391,180,49131,2,0,L|423:302,1,104.999996795654,2|0,2:2|0:0,0:0:0:0:
0,84,49484,38,0,P|75:74|121:120,1,144.375004405975,0|0,1:2|0:0,0:0:0:0:
121,132,49837,2,0,L|92:242,1,96.250002937317,2|0,2:2|0:0,0:0:0:0:
357,237,50190,2,0,L|197:199,1,144.375004405975,2|0,1:2|0:0,0:0:0:0:
121,131,50543,2,0,L|88:253,1,104.999996795654,2|0,2:2|0:0,0:0:0:0:
41,239,50896,22,0,L|101:231,2,52.4999983978272,2|0|0,1:2|0:0|3:0,0:0:0:0:
470,145,51249,6,0,L|410:153,2,52.4999983978272,2|0|0,1:2|0:0|3:0,0:0:0:0:
35,230,51602,38,0,L|95:222,2,52.4999983978272,2|0|0,1:2|0:0|3:0,0:0:0:0:
476,154,51955,6,0,L|416:162,2,52.4999983978272,2|0|0,1:2|3:0|0:0,0:0:0:0:
29,221,52308,38,0,L|89:213,2,52.4999983978272,2|0|0,1:2|0:0|0:0,0:0:0:0:
482,163,52661,6,0,L|422:171,2,52.4999983978272,2|0|0,1:2|0:0|3:0,0:0:0:0:
23,212,53014,38,0,L|83:204,2,52.4999983978272,2|0|0,1:2|0:0|3:0,0:0:0:0:
488,172,53367,6,0,L|428:180,2,52.4999983978272,2|0|0,1:2|0:0|3:0,0:0:0:0:
17,203,53720,38,0,L|77:195,2,52.4999983978272,2|0|0,1:2|0:0|3:0,0:0:0:0:
494,181,54073,6,0,L|434:189,2,52.4999983978272,2|0|0,1:2|3:0|3:0,0:0:0:0:
11,194,54425,38,0,L|71:186,2,52.4999983978272,2|0|0,1:2|0:0|3:0,0:0:0:0:
500,190,54778,6,0,L|440:198,2,52.4999983978272,2|0|0,1:2|0:0|0:0,0:0:0:0:
241,273,55131,5,2,1:2:0:0:
303,259,55220,1,0,3:0:0:0:
337,206,55308,1,0,3:0:0:0:
323,144,55396,1,0,3:0:0:0:
270,110,55484,1,2,3:2:0:0:
208,124,55573,1,0,3:0:0:0:
174,177,55661,1,0,3:0:0:0:
188,239,55749,1,0,3:0:0:0:
241,273,55837,1,2,3:2:0:0:
241,273,56190,5,2,3:2:0:0:
241,273,56366,38,0,P|163:206|67:219,1,166.249995560646,2|0,3:0|0:0,0:0:0:0:
18,176,56543,6,0,L|131:156,1,87.5,0|0,1:0|0:0,0:0:0:0:
364,179,56719,2,0,L|270:196,1,70,2|2,0:0|3:0,0:0:0:0:
162,357,57249,38,0,L|228:263,1,87.5,8|0,1:2|0:0,0:0:0:0:
408,114,57425,2,0,L|354:192,1,70,2|2,0:0|3:0,0:0:0:0:
389,384,57955,6,0,L|369:271,1,87.5,0|0,1:2|0:0,0:0:0:0:
392,38,58131,2,0,L|409:132,1,70,2|2,0:0|3:0,0:0:0:0:
421,222,58484,2,0,P|429:193|425:223,1,87.5,2|0,1:2|3:0,0:0:0:0:
190,177,58661,6,2,B|315:143|315:143|191:180|191:180|317:146|317:146|192:183|192:183|319:150|319:150|193:186|193:186|322:153|322:153|195:191|195:191|326:156,1,1179.93752295563,8|0,0:0|0:0,0:2:0:0:
258,166,59014,2,2,B|297:178|297:178|354:161|354:161|-1:22|-1:22|14:67|14:67|244:156,1,700,0|0,1:0|0:0,0:1:0:0:
469,57,59366,22,0,P|413:64|370:139,1,87.5,0|0,1:0|0:0,0:0:0:0:
367,341,59543,2,0,L|338:214,2,87.5,2|0|2,0:0|0:0|3:0,0:0:0:0:
192,44,60072,6,0,P|170:95|213:170,1,87.5,8|0,1:2|0:0,0:0:0:0:
431,281,60249,2,0,L|306:242,2,87.5,2|0|2,0:0|0:0|3:0,0:0:0:0:
0,217,60778,38,0,P|35:263|89:282,1,116.654997685982,0|0,1:2|0:0,0:0:0:0:
306,106,61131,1,2,3:0:0:0:
306,106,61484,6,2,B|298:63|331:23|331:23|324:162|438:230|438:230|389:248|350:211,1,393.750015020371,8|0,0:0|0:0,0:2:0:0:
501,292,61837,2,2,B|509:335|476:375|476:375|483:236|369:168|369:168|418:150|457:187,1,393.750015020371,0|0,1:0|0:0,0:2:0:0:
502,50,62190,38,0,L|415:75,1,78.7499975967408,0|0,1:0|0:0,0:0:0:0:
101,169,62543,1,2,3:0:0:0:
425,166,62896,6,0,L|338:141,1,78.7499975967408,8|0,1:2|0:0,0:0:0:0:
24,47,63249,1,2,3:0:0:0:
401,260,63602,38,0,L|314:285,1,78.7499975967408,0|0,1:2|0:0,0:0:0:0:
0,379,63955,1,2,3:0:0:0:
251,340,64131,5,2,1:2:0:0:
251,340,64219,1,0,3:0:0:0:
366,250,64308,6,2,B|332:375|332:375|369:251|369:251|335:377|335:377|372:252|372:252|339:379|339:379|375:253|375:253|342:382|342:382|380:255|380:255|345:386,1,1179.93752295563,8|0,0:0|0:0,0:2:0:0:
472,319,64661,2,2,B|248:249|248:249|198:145|198:145|226:161|226:161|244:201|244:201|271:213|271:213|224:105|224:105|-4:39,1,787.500030040742,0|0,1:0|0:0,0:1:0:0:
0,174,65014,22,0,P|13:142|16:177,1,87.5,0|0,1:0|0:0,0:0:0:0:
270,0,65190,2,0,B|169:18|169:18|146:16|146:16|146:22|146:22|-41:58,1,262.5,2|2,0:0|3:0,0:0:0:0:
386,241,65720,6,0,P|373:209|370:244,1,87.5,8|0,1:2|0:0,0:0:0:0:
116,67,65896,2,0,B|216:85|216:85|239:83|239:83|239:89|239:89|427:125,1,262.5,2|2,0:0|3:0,0:0:0:0:
0,319,66425,38,0,P|13:287|16:322,1,87.5,0|0,1:2|0:0,0:0:0:0:
270,146,66602,2,0,B|169:164|169:164|146:162|146:162|146:168|146:168|-41:204,1,262.5,2|2,0:0|1:2,0:0:0:0:
441,173,67131,6,2,B|456:206|515:190|512:146|443:49|219:94|241:370,1,393.750015020371,8|0,0:0|0:0,0:2:0:0:
130,359,67484,38,0,L|234:342,1,65.6250025033952,2|0,1:3|0:0,0:0:0:0:
347,370,67661,2,0,L|243:353,1,65.6250025033952,2|0,1:3|0:0,0:0:0:0:
358,17,67837,6,0,L|337:112,1,78.7499975967408,0|0,1:0|0:0,0:0:0:0:
276,368,68190,1,2,3:0:0:0:
164,21,68543,38,0,L|191:114,1,78.7499975967408,8|0,1:2|0:0,0:0:0:0:
266,368,68896,1,2,3:0:0:0:
3,123,69249,6,0,L|73:189,1,78.7499975967408,0|0,1:2|0:0,0:0:0:0:
260,373,69602,1,2,3:0:0:0:
239,194,69778,2,0,P|237:224|230:193,1,87.5,2|0,1:2|3:0,0:0:0:0:
355,273,69955,6,2,B|318:132|318:132|359:273|359:273|323:130|323:130|363:270|363:270|326:129|326:129|368:268|368:268|329:127|329:127|371:266|371:266|333:126,1,1312.5,8|0,0:0|0:0,0:2:0:0:
401,356,70308,2,2,B|412:265|412:265|376:221|376:221|385:148|385:148|440:115|440:115|451:37|451:37|439:21|439:21|423:35|423:35|412:110|412:110|449:159|449:159|439:231|439:231|389:262|389:262|361:431,1,787.500030040742,0|0,1:0|0:0,0:1:0:0:
370,384,70661,38,0,L|244:358,1,87.5,0|0,1:0|0:0,0:0:0:0:
62,190,70837,2,0,L|88:277,1,87.5,2|2,0:0|3:0,0:0:0:0:
377,375,71366,38,0,L|251:349,1,87.5,8|0,1:2|0:0,0:0:0:0:
69,181,71542,2,0,L|95:268,1,87.5,2|0,0:0|0:0,0:0:0:0:
0,236,71719,22,2,B|54:251|54:251|7:231|7:231|62:246|62:246|15:225|15:225|70:240|70:240|22:218|22:218|77:233|77:233|28:211|28:211|84:226|84:226|34:204|34:204|90:219|90:219|39:195|39:195|95:210|95:210|44:187|44:187|100:202|100:202|48:178|48:178|103:193|103:193|50:169|50:169|106:184|106:184|53:159|53:159|108:175|108:175|54:149|54:149|110:165|110:165|54:138|54:138|110:154|110:154|54:130|54:130|110:145|110:145|53:120|53:120|108:135|108:135|51:111|51:111|107:126|107:126|48:101|48:101|103:116|103:116|44:92|44:92|100:107|100:107|40:83|40:83|95:98|95:98|34:75|34:75|90:91|90:91|152:144|129:277|129:277|184:292|184:292|137:272|137:272|191:288|191:288|144:266|144:266|199:281|199:281|151:260|151:260|206:275|206:275|158:252|158:252|212:267|212:267|163:245|163:245|219:260|219:260|169:237|169:237|225:252|225:252|173:228|173:228|229:243|229:243|177:219|177:219|233:234|233:234|179:210|179:210|235:225|235:225|182:201|182:201|238:216|238:216|183:191|183:191|239:206|239:206|184:181|184:181|240:196|240:196|183:172|183:172|239:187|239:187|182:162|182:162|238:177|238:177|180:152|180:152|236:168|236:168|177:142|177:142|233:158|233:158|173:133|173:133|229:148|229:148|169:124|169:124|225:140|225:140|164:117|164:117|219:132|219:132|283:180|260:319|260:319|315:334|315:334|268:315|268:315|323:330|323:330|276:308|276:308|331:323|331:323|282:302|282:302|337:317|337:317|289:294|289:294|344:310|344:310|295:286|295:286|349:302|349:302|300:278|300:278|355:294|355:294|305:270|305:270|360:285|360:285|308:260|308:260|364:275|364:275|311:251|311:251|367:266|367:266|313:242|313:242|369:257|369:257|315:232|315:232|371:247|371:247|315:222|315:222|371:237|371:237|315:213|315:213|371:228|371:228|313:203|313:203|369:218|369:218|312:194|312:194|368:209|368:209|308:184|308:184|364:199|364:199|305:175|305:175|361:191|361:191|300:167|300:167|355:182|355:182|295:159|295:159|350:174|350:174|418:228|392:359|392:359|446:374|446:374|399:355|399:355|454:370|454:370|407:348|407:348|462:363|462:363|414:342|414:342|469:357|469:357|420:335|420:335|475:350|475:350|426:327|426:327|481:342|481:342|431:319|431:319|486:334|486:334|436:311|436:311|491:326|491:326|440:302|440:302|494:317|494:317|442:292|442:292|497:308|497:308|445:282|445:282|499:298|499:298|446:272|446:272|501:288|501:288|447:262|447:262|501:277|501:277|446:253|446:253|501:268|501:268|445:243|445:243|499:258|499:258|443:234|443:234|498:249|498:249|440:224|440:224|494:240|494:240|436:216|436:216|491:231|491:231|432:207|432:207|486:222|486:222|426:199|426:199|481:214,1,9625,2|0,0:3|3:0,0:1:0:0:
482,107,72778,6,0,P|425:175|230:201,1,262.5,10|0,1:2|0:0,0:0:0:0:
387,90,73131,2,0,B|338:138|251:128|233:59|233:59|279:90|340:69,1,262.5,2|0,1:3|0:0,0:0:0:0:
128,80,73484,6,0,L|152:203,1,87.5,0|0,1:0|0:0,0:0:0:0:
5,384,73661,2,0,P|42:361|85:362,1,87.5,2|2,0:0|3:0,0:0:0:0:
220,57,74190,6,0,L|244:180,1,87.5,8|0,1:2|0:0,0:0:0:0:
93,359,74366,2,0,P|130:336|173:337,1,87.5,2|2,0:0|3:0,0:0:0:0:
308,31,74896,38,0,L|332:154,1,87.5,0|0,1:2|0:0,0:0:0:0:
181,333,75072,2,0,P|218:310|261:311,1,87.5,2|2,0:0|3:0,0:0:0:0:
426,200,75425,1,2,1:2:0:0:
426,200,75514,1,0,3:0:0:0:
507,256,75602,22,2,B|339:211|339:211|505:261|505:261|336:215|336:215|503:265|503:265|334:221|334:221|502:269|502:269|330:225|330:225|499:275|499:275|324:229,1,1575.00006008148,8|0,0:0|0:0,0:2:0:0:
452,359,75955,2,2,B|418:371|418:371|388:345|388:345|430:45|430:45|424:334|424:334|464:34|464:34|435:8|435:8|396:24,1,1050,0|0,1:0|0:0,0:1:0:0:
213,94,76308,21,0,1:1:0:0:
223,126,76396,1,0,3:3:0:0:
221,90,76484,5,0,3:3:0:0:
234,121,76572,1,0,3:3:0:0:
224,84,76661,37,0,3:3:0:0:
241,113,76749,1,0,3:3:0:0:
231,78,76837,5,0,3:3:0:0:
250,107,76925,1,0,3:3:0:0:
347,70,77014,5,2,3:3:0:0:
381,149,77131,5,0,3:3:0:0:
361,63,77249,37,0,3:3:0:0:
409,136,77367,5,0,3:3:0:0:
370,55,77484,37,0,3:3:0:0:
430,118,77602,5,0,3:3:0:0:
512,0,77719,5,10,1:2:0:0:
0,315,79131,22,0,L|394:374,1,297.500005674362,6|2,1:1|0:0,0:0:0:0:
385,373,79396,1,2,3:2:0:0:
466,256,79484,6,0,L|518:425,1,131.25000500679,2|0,3:3|0:0,0:0:0:0:
343,203,79661,2,0,L|541:426,1,166.249995560646,0|0,1:0|0:0,0:0:0:0:
198,177,79837,38,0,L|523:394,1,367.499988784791,10|0,0:0|0:0,0:0:0:0:
418,97,80190,2,0,L|289:126,1,122.499996261597,2|0,1:2|0:0,0:0:0:0:
512,0,80366,6,0,L|88:212,1,367.499988784791,8|0,0:0|0:0,0:0:0:0:
96,119,80719,2,0,L|55:301,1,122.499996261597,0|0,1:0|0:0,0:0:0:0:
34,358,80896,2,0,L|220:115,1,244.999992523194,2|0,1:2|3:0,0:0:0:0:
0,0,81249,38,0,L|103:31,7,74.3750014185906,8|0|0|0|0|0|0|0,0:0|0:0|3:0|0:0|3:0|0:0|3:0|0:0,0:0:0:0:
80,26,81602,2,0,L|112:224,1,196.875007510186,0|0,1:0|0:0,0:0:0:0:
0,133,81955,6,0,L|332:72,1,297.500005674362,2|2,1:2|0:0,0:0:0:0:
365,11,82219,1,2,3:2:0:0:
457,63,82308,38,0,L|412:248,1,131.25000500679,2|0,3:3|0:0,0:0:0:0:
489,280,82484,2,0,L|460:90,1,131.25000500679,0|0,1:0|0:0,0:0:0:0:
262,374,82661,6,0,L|467:46,1,367.499988784791,10|0,0:0|0:0,0:0:0:0:
311,234,83014,2,0,L|295:153,1,65.6250025033952,2|0,1:2|0:0,0:0:0:0:
362,0,83190,38,0,L|-53:72,1,367.499988784791,8|0,0:0|0:0,0:0:0:0:
10,74,83543,2,0,L|164:103,1,122.499996261597,0|0,1:0|0:0,0:0:0:0:
217,117,83719,2,0,L|465:171,1,244.999992523194,2|0,1:2|3:0,0:0:0:0:
454,63,84072,6,0,L|470:141,1,65.625,8|0,0:0|0:0,0:0:0:0:
406,383,84425,38,0,L|416:324,1,43.75,0|0,1:0|0:0,0:0:0:0:
318,233,84778,6,0,L|512:384,1,244.999992523194,2|2,1:2|0:0,0:0:0:0:
318,349,85043,1,2,3:2:0:0:
242,294,85131,38,0,L|74:330,1,131.25000500679,2|0,3:3|0:0,0:0:0:0:
0,379,85308,2,0,L|168:244,1,166.249995560646,0|0,1:0|0:0,0:0:0:0:
324,157,85484,6,0,L|202:462,1,244.999992523194,10|0,0:0|0:0,0:0:0:0:
443,182,85837,2,0,L|281:148,1,122.499996261597,2|0,1:2|0:0,0:0:0:0:
173,20,86014,38,0,L|232:383,1,367.499988784791,8|0,0:0|0:0,0:0:0:0:
220,210,86366,2,0,L|267:28,1,122.499996261597,0|0,1:0|0:0,0:0:0:0:
0,265,86543,2,0,L|237:205,1,227.499989585877,2|0,1:2|3:2,0:0:0:0:
509,27,86896,6,0,L|423:14,6,87.5,8|0|0|0|0|0|0,0:0|0:0|3:0|2:0|3:0|0:0|3:0,0:0:0:0:
365,79,87249,1,0,1:0:0:0:
365,79,87602,6,2,B|251:124|251:124|362:92|362:92|261:132|261:132|361:106|361:106|272:140|272:140|358:119|358:119|282:149|282:149|357:133|357:133|293:158|293:158|354:147|354:147|304:166|304:166|353:160|353:160|314:174|314:174|350:173|350:173|325:183|325:183|349:187|349:187|335:191|335:191|345:201,1,1179.93752295563,6|0,1:2|0:0,0:2:0:0:
328,290,87955,2,0,B|294:333|294:333|349:344|349:344|329:294,2,131.25000500679,2|0|2,3:0|0:0|3:2,0:0:0:0:
365,79,88308,6,2,B|251:124|251:124|362:92|362:92|261:132|261:132|361:106|361:106|272:140|272:140|358:119|358:119|282:149|282:149|357:133|357:133|293:158|293:158|354:147|354:147|304:166|304:166|353:160|353:160|314:174|314:174|350:173|350:173|325:183|325:183|349:187|349:187|335:191|335:191|345:201,1,1179.93752295563,6|0,1:2|0:0,0:2:0:0:
328,290,88661,2,0,B|294:333|294:333|349:344|349:344|329:294,2,131.25000500679,2|0|2,3:0|0:0|3:2,0:0:0:0:
365,79,89014,38,2,B|251:124|251:124|362:92|362:92|261:132|261:132|361:106|361:106|272:140|272:140|358:119|358:119|282:149|282:149|357:133|357:133|293:158|293:158|354:147|354:147|304:166|304:166|353:160|353:160|314:174|314:174|350:173|350:173|325:183|325:183|349:187|349:187|335:191|335:191|345:201,1,1179.93752295563,6|0,1:2|0:0,0:2:0:0:
328,290,89367,2,0,B|294:333|294:333|349:344|349:344|329:294,2,131.25000500679,2|0|2,3:0|0:0|3:2,0:0:0:0:
454,359,89719,5,10,3:0:0:0:
358,350,89896,1,8,0:3:0:0:
358,350,89984,1,4,0:3:0:0:
358,350,90072,1,0,1:3:0:0:
254,333,90249,1,0,0:0:0:0:
60,377,90425,6,0,B|50:365|50:365|62:367|62:367|53:357|53:357|64:358|64:358|55:348|55:348|67:350|67:350|58:338|58:338|69:340|69:340|61:329|61:329|72:332|72:332|64:321|64:321|74:323|74:323|66:312|66:312|77:314|77:314|69:302|69:302|79:304|79:304|71:293|71:293|82:296|82:296|74:285|74:285|84:287|84:287|76:276|76:276|87:278|87:278|79:267|79:267|89:268|89:268|81:258|81:258|92:259|92:259|84:249|84:249|94:251|94:251|86:241|86:241|98:242|98:242|89:231|89:231|100:232|100:232|91:222|91:222|103:223|103:223|94:213|94:213|105:215|105:215|97:205|97:205|108:206|108:206|100:195|100:195|110:196|110:196|102:186|102:186|113:188|113:188|105:177|105:177|115:179|115:179|107:169|107:169|118:170|118:170|110:159|110:159|120:161|120:161|112:150,1,595.000011348725,4|2,1:1|0:0,0:0:0:0:
3,100,90690,1,2,3:2:0:0:
0,0,90778,6,0,B|4:15|4:15|9:2|9:2|14:17|14:17|20:6|20:6|24:21|24:21|30:9|30:9|35:24|35:24|41:13|41:13|45:28|45:28|50:15|50:15|55:31|55:31|61:19|61:19|65:34|65:34|71:22|71:22|76:38|76:38|82:26|82:26|86:41|86:41|92:29|92:29|96:44|96:44|102:33|102:33|107:48|107:48|113:36|113:36|117:51|117:51|123:40|123:40|127:55|127:55|133:43|133:43|138:58|138:58|143:46|143:46|148:61|148:61|154:49|154:49|158:64|158:64|164:53|164:53,1,323.749998764992,2|0,3:3|0:0,0:0:0:0:
255,133,90955,2,0,B|270:128|270:128|257:123|257:123|272:118|272:118|261:112|261:112|276:108|276:108|264:102|264:102|279:97|279:97|268:91|268:91|283:87|283:87|270:82|270:82|286:77|286:77|274:71|274:71|289:67|289:67|277:61|277:61|293:56|293:56|281:50|281:50|296:46|296:46|284:40|284:40|299:36|299:36|288:30|288:30|303:25|303:25|291:19|291:19|306:15|306:15|295:9|295:9|310:5|310:5|298:0|298:0|313:-5|313:-5|301:-10|301:-10|316:-15|316:-15|304:-21|304:-21|319:-25|319:-25|308:-31|308:-31,1,323.749998764992,0|0,1:0|0:0,0:0:0:0:
7,235,91131,2,0,B|23:240|23:240|15:227|15:227|32:233|32:233|25:220|25:220|42:226|42:226|35:212|35:212|52:218|52:218|45:206|45:206|62:211|62:211|54:198|54:198|70:204|70:204|64:191|64:191|80:197|80:197|73:184|73:184|90:189|90:189|83:177|83:177|100:182|100:182|92:169|92:169|109:175|109:175|102:162|102:162|117:167|117:167|112:155|112:155|128:160|128:160|122:148|122:148|138:153|138:153|131:140|131:140|148:145|148:145|140:133|140:133|157:139|157:139|150:126|150:126|167:131|167:131|160:119|160:119|177:124|177:124|170:111|170:111|186:116|186:116|179:105|179:105|196:110|196:110|188:97|188:97|205:102|205:102|198:90|198:90|215:95|215:95|208:82|208:82|225:87|225:87|217:76|217:76|234:81|234:81|227:68|227:68|244:73|244:73|237:61|237:61|253:67|253:67|246:55|246:55|261:60|261:60|255:48|255:48|268:54|268:54|263:42|263:42|276:48|276:48|271:36|271:36|284:42|284:42|279:29|279:29|291:37|291:37|287:23|287:23|300:29|300:29|295:17|295:17|309:24|309:24|304:11|304:11|317:19|317:19|312:5|312:5|326:11|326:11|321:-2,1,971.249996294975,10|0,0:0|0:0,0:0:0:0:
140,173,91484,38,0,B|144:157|144:157|149:170|149:170|154:155|154:155|160:166|160:166|164:151|164:151|170:163|170:163|175:148|175:148|181:159|181:159|185:144|185:144|190:157|190:157|195:141|195:141|201:153|201:153|205:138|205:138|211:150|211:150|216:134|216:134|222:146|222:146|226:131|226:131|232:143|232:143|236:128|236:128|242:139|242:139|247:124|247:124|253:136|253:136|257:121|257:121|263:132|263:132|267:117|267:117|273:129|273:129|278:114|278:114|283:126|283:126|288:111|288:111|294:123|294:123|298:108|298:108|304:119|304:119,1,323.749998764992,2|0,1:2|0:0,0:0:0:0:
512,226,91661,2,0,B|508:218|508:218|505:232|505:232|497:219|497:219|495:232|495:232|487:220|487:220|483:234|483:234|477:221|477:221|475:235|475:235|466:223|466:223|465:236|465:236|457:225|457:225|455:237|455:237|447:226|447:226|446:239|446:239|435:227|435:227|435:241|435:241|424:228|424:228|424:242|424:242|412:229|412:229|412:244|412:244|400:231|400:231|401:245|401:245|389:232|389:232|389:247|389:247|377:234|377:234|377:248|377:248|365:235|365:235|364:250|364:250|352:237|352:237|353:251|353:251|341:238|341:238|341:253|341:253|329:240|329:240|329:254|329:254|317:241|317:241|317:256|317:256|305:243|305:243|306:257|306:257|294:244|294:244|293:259|293:259|281:246|281:246|281:260|281:260|269:247|269:247|269:262|269:262|257:249|257:249|257:263|257:263|245:250|245:250|246:265|246:265|234:252|234:252|233:266|233:266|222:253|222:253|221:268|221:268|209:255|209:255|209:269|209:269|197:256|197:256|198:271|198:271|186:258|186:258|186:272|186:272|174:259|174:259|174:274|174:274|162:261|162:261|161:275|161:275|150:262|150:262|150:277|150:277|138:264,1,971.249996294975,8|0,0:0|0:0,0:0:0:0:
365,199,92014,6,0,B|350:204|350:204|363:209|363:209|348:214|348:214|359:220|359:220|344:224|344:224|356:230|356:230|341:235|341:235|352:241|352:241|337:245|337:245|350:250|350:250|334:255|334:255|346:261|346:261|331:265|331:265|343:271|343:271|327:276|327:276|339:282|339:282|324:286|324:286|336:292|336:292|321:296|321:296|332:302|332:302|317:307|317:307|329:313|329:313|314:317|314:317|325:323|325:323|310:327|310:327|322:333|322:333|307:338|307:338|319:343|319:343|304:348|304:348|316:354|316:354|301:358|301:358|312:364|312:364,1,323.749998764992,0|0,1:0|0:0,0:0:0:0:
116,384,92190,2,0,B|116:368|116:368|107:378|107:378|107:362|107:362|98:371|98:371|99:355|99:355|89:365|89:365|89:349|89:349|81:358|81:358|81:342|81:342|72:353|72:353|72:337|72:337|63:346|63:346|64:330|64:330|54:340|54:340|54:324|54:324|46:333|46:333|46:317|46:317|37:327|37:327|37:311|37:311|28:320|28:320|29:304|29:304|19:314|19:314|19:298|19:298|11:307|11:307|11:291|11:291|1:301|1:301|2:285|2:285|-6:295|-6:295|-5:279|-5:279,1,328.125,2|0,1:2|3:0,0:0:0:0:
6,216,92543,38,0,L|37:134,7,87.5,8|0|0|0|0|0|0|0,0:0|0:0|3:0|0:0|3:0|0:0|3:0|0:0,0:0:0:0:
40,125,92896,2,0,L|220:180,1,170.624992189408,0|0,1:0|0:0,0:0:0:0:
0,52,93249,6,0,B|15:88|15:88|12:50|12:50|26:85|26:85|24:47|24:47|38:83|38:83|35:45|35:45|50:80|50:80|47:42|47:42|62:78|62:78|59:40|59:40|73:75|73:75|71:37|71:37|85:73|85:73|82:35|82:35|97:70|97:70|94:32|94:32|109:68|109:68|106:30|106:30|120:65|120:65|118:27|118:27|132:63|132:63|129:25|129:25|144:60|144:60|141:22|141:22|156:58|156:58|153:20|153:20|168:55|168:55|165:17|165:17|179:53|179:53|177:15|177:15|191:50|191:50|188:12|188:12|203:48|203:48|200:10|200:10|215:45|215:45|212:7|212:7|226:43|226:43|224:5|224:5|238:40|238:40|235:2|235:2|250:38|250:38|247:0|247:0|262:35|262:35|259:-3|259:-3|273:33|273:33|271:-5|271:-5|285:30|285:30|282:-8|282:-8|297:28,1,1750,2|2,1:2|0:0,0:0:0:0:
342,117,93514,1,2,3:2:0:0:
418,0,93602,38,0,B|444:-1|444:-1|421:8|421:8|445:7|445:7|422:16|422:16|448:15|448:15|424:23|424:23|449:23|449:23|425:31|425:31|451:31|451:31|428:39|428:39|453:38|453:38|429:47|429:47|455:46|455:46|431:55|431:55|457:54|457:54|433:63|433:63|459:62|459:62|435:71|435:71|460:69|460:69|437:79|437:79|462:77|462:77|439:86|439:86|464:85|464:85|440:94|440:94|466:93|466:93|442:102|442:102|467:101|467:101|444:110|444:110|469:108|469:108|446:118|446:118|471:116|471:116|447:125|447:125|473:124|473:124|449:132|449:132|475:132|475:132|451:140|451:140|477:138|477:138|453:148|453:148|478:146|478:146|454:156|454:156|480:154|480:154|457:163|457:163|482:162|482:162,1,875,2|0,3:3|0:0,0:0:0:0:
299,249,93778,2,0,B|324:250|324:250|301:241|301:241|325:242|325:242|302:233|302:233|328:234|328:234|304:226|304:226|329:226|329:226|305:218|305:218|331:218|331:218|308:210|308:210|333:211|333:211|309:202|309:202|335:203|335:203|311:194|311:194|337:195|337:195|313:186|313:186|339:187|339:187|315:178|315:178|340:180|340:180|317:170|317:170|342:172|342:172|319:163|319:163|344:164|344:164|320:155|320:155|346:156|346:156|322:147|322:147|347:148|347:148|324:139|324:139|349:141|349:141|326:131|326:131|351:133|351:133|327:124|327:124|353:125|353:125|329:116|329:116|355:117|355:117|331:108|331:108|357:110|357:110|333:100|333:100|358:102|358:102|334:92|334:92|360:94|360:94|337:85|337:85|362:86|362:86,1,875,0|0,1:0|0:0,0:0:0:0:
462,132,93955,2,0,B|448:98|448:98|450:133|450:133|438:101|438:101|439:136|439:136|427:103|427:103|429:138|429:138|416:106|416:106|418:141|418:141|405:108|405:108|407:143|407:143|394:110|394:110|396:145|396:145|383:112|383:112|386:147|386:147|372:115|372:115|375:150|375:150|361:117|361:117|364:152|364:152|351:120|351:120|353:154|353:154|340:121|340:121|343:156|343:156|329:124|329:124|332:159|332:159|318:126|318:126|321:161|321:161|307:129|307:129|310:164|310:164|297:131|297:131|299:166|299:166|286:133|286:133|289:168|289:168|275:135|275:135|278:170|278:170|264:138|264:138|267:173|267:173|254:140|254:140|256:175|256:175|243:143|243:143|246:177|246:177|232:144|232:144|235:179|235:179|221:147|221:147|223:182|223:182|211:149|211:149|212:184|212:184|200:152|200:152|202:187|202:187|189:154|189:154|191:189|191:189|178:156|178:156|179:191|179:191|166:158|166:158|168:194|168:194|155:161|155:161|157:196|157:196|144:164|144:164|146:199|146:199|132:166|132:166|134:201|134:201|120:168|120:168|122:205|122:205|108:172|108:172|110:208|110:208|95:175|95:175|97:211|97:211|82:178|82:178|85:213|85:213|70:180|70:180|56:186,1,2362.50009012223,10|0,0:0|0:0,0:0:0:0:
216,112,94308,6,0,B|226:88|226:88|224:112|224:112|233:90|233:90|232:115|232:115|242:91|242:91|239:116|239:116|249:93|249:93|247:118|247:118|258:95|258:95|255:119|255:119|265:96|265:96|263:121|263:121|273:97|273:97|271:123|271:123|281:99|281:99|279:125|279:125|289:101|289:101|287:126|287:126|296:103|296:103|295:128|295:128|304:104|304:104|302:129|302:129|312:106|312:106|310:131|310:131|320:107|320:107|318:133|318:133|328:110|328:110|326:134|326:134|335:111|335:111|334:136|334:136|343:112|343:112|341:138|341:138|351:114|351:114|348:139|348:139|359:116|359:116|356:141|356:141|366:116|366:116|364:142|364:142|373:119|373:119|372:145|372:145|381:120|381:120|380:145|380:145|389:122|389:122,1,787.500030040742,2|0,1:2|0:0,0:0:0:0:
310,365,94484,2,0,B|323:331|323:331|300:358|300:358|314:326|314:326|291:352|291:352|305:320|305:320|282:346|282:346|295:314|295:314|272:340|272:340|286:307|286:307|263:334|263:334|277:302|277:302|254:328|254:328|268:296|268:296|245:322|245:322|258:290|258:290|235:316|235:316|249:283|249:283|226:310|226:310|240:278|240:278|217:304|217:304|231:272|231:272|208:298|208:298|221:266|221:266|198:292|198:292|212:259|212:259|189:286|189:286|202:253|202:253|180:280|180:280|194:248|194:248|170:274|170:274|184:242|184:242|161:268|161:268|175:235|175:235|152:262|152:262|165:229|165:229|142:256|142:256|157:223|157:223|133:249|133:249|147:218|147:218|124:244|124:244|138:211|138:211|115:238|115:238|128:205|128:205|105:232|105:232|120:199|120:199|96:225|96:225|110:194|110:194|87:220|87:220|101:188|101:188|78:214|78:214|92:182|92:182|68:207|68:207|81:174|81:174|58:201|58:201|72:168|72:168|49:195|49:195|62:162|62:162|39:189|39:189|52:155|52:155|29:183|29:183|42:149|42:149|18:177|18:177|31:143|31:143|7:170|7:170|20:136|20:136|-4:163|-4:163|8:129|8:129|-14:156|-14:156|-1:122|-1:122|-14:116,1,2362.50009012223,8|0,0:0|0:0,0:0:0:0:
130,150,94837,38,0,B|105:151|105:151|128:142|128:142|104:143|104:143|127:134|127:134|101:135|101:135|125:127|125:127|100:127|100:127|124:119|124:119|98:119|98:119|121:111|121:111|96:112|96:112|120:103|120:103|94:104|94:104|118:95|118:95|92:96|92:96|116:87|116:87|90:88|90:88|114:79|114:79|89:81|89:81|112:71|112:71|87:73|87:73|110:64|110:64|85:65|85:65|109:56|109:56|83:57|83:57|107:48|107:48|82:49|82:49|105:40|105:40|80:42|80:42|103:32|103:32|78:34|78:34|102:25|102:25|76:26|76:26|100:17|100:17|74:18|74:18|98:9|98:9|72:11|72:11|96:1|96:1|71:3|71:3|95:-7|95:-7|69:-5|69:-5|92:-14|92:-14|67:-13|67:-13,1,787.500030040742,0|0,1:0|0:0,0:0:0:0:
414,254,95014,2,0,B|392:240|392:240|416:246|416:246|396:233|396:233|420:239|420:239|398:225|398:225|423:232|423:232|402:217|402:217|426:225|426:225|405:210|405:210|428:216|428:216|407:203|407:203|432:209|432:209|410:195|410:195|435:202|435:202|413:187|413:187|438:194|438:194|416:180|416:180|441:186|441:186|419:173|419:173|444:178|444:178|422:166|422:166|446:172|446:172|425:158|425:158|450:164|450:164|428:150|428:150|453:157|453:157|432:143|432:143|456:149|456:149|434:136|434:136|459:141|459:141|437:129|437:129|462:135|462:135|440:121|440:121|465:127|465:127|443:113|443:113|468:120|468:120|446:106|446:106|471:112|471:112|449:99|449:99|475:105|475:105|452:92|452:92,1,787.500030040742,2|0,1:2|3:0,0:0:0:0:
310,365,95366,5,8,0:0:0:0:
390,339,95455,1,0,0:0:0:0:
390,255,95543,1,0,2:0:0:0:
310,229,95631,1,0,0:0:0:0:
261,296,95719,2,0,L|285:182,1,91.8749971961976,0|0,1:0|0:0,0:0:0:0:
0,312,96072,38,0,B|26:375|26:375|21:308|21:308|45:370|45:370|42:303|42:303|66:366|66:366|61:299|61:299|88:361|88:361|82:294|82:294|109:357|109:357|103:290|103:290|128:352|128:352|125:285|125:285|149:348|149:348|144:282|144:282|170:343|170:343|165:276|165:276|191:340|191:340|186:273|186:273|211:334|211:334|207:267|207:267|232:331|232:331|227:264|227:264|253:326|253:326|248:259|248:259|274:322|274:322|269:255|269:255,1,1750,2|2,1:2|0:0,0:0:0:0:
165,108,96337,1,2,3:2:0:0:
54,189,96425,6,0,B|0:166|0:166|57:170|57:170|3:149|3:149|61:152|61:152|6:131|6:131|64:135|64:135|11:112|11:112|69:117|69:117|14:94|14:94|72:98|72:98|18:77|18:77|76:80|76:80|21:59|21:59|79:63|79:63|26:41|26:41|84:45|84:45|29:22|29:22|87:27|87:27|34:5|34:5|92:8|92:8|37:-12|37:-12|95:-7|95:-7|41:-30|41:-30|99:-26|99:-26|44:-49|44:-49|102:-44|102:-44,1,875,2|0,3:3|0:0,0:0:0:0:
294,0,96602,2,0,B|239:22|239:22|297:18|297:18|243:39|243:39|301:36|301:36|246:57|246:57|304:53|304:53|251:76|251:76|309:71|309:71|254:94|254:94|312:90|312:90|258:111|258:111|316:108|316:108|261:129|261:129|319:125|319:125|266:147|266:147|324:143|324:143|269:166|269:166|327:161|327:161|274:183|274:183|332:180|332:180|277:201|277:201|335:196|335:196|281:219|281:219|339:215|339:215|284:238|284:238|342:233|342:233,1,875,0|0,1:0|0:0,0:0:0:0:
471,212,96778,2,0,B|445:273|445:273|450:208|450:208|426:268|426:268|429:203|429:203|405:265|405:265|410:199|410:199|385:260|385:260|390:194|390:194|364:256|364:256|369:191|369:191|345:251|345:251|349:186|349:186|325:248|325:248|330:182|330:182|304:242|304:242|309:177|309:177|283:239|283:239|288:174|288:174|264:234|264:234|268:169|268:169|244:230|244:230|249:165|249:165|223:225|223:225|228:160|228:160|203:222|203:222|208:157|208:157|182:217|182:217|187:151|187:151|163:213|163:213|167:148|167:148|143:208|143:208|148:143|148:143|122:205|122:205|127:139|127:139|101:199|101:199|106:134|106:134|82:196|82:196|86:131|86:131|62:191|62:191|67:126|67:126|41:187|41:187|46:122|46:122|21:182|21:182|26:117|26:117|2:179|2:179|5:114|5:114|-18:174|-18:174|-13:108|-13:108|-38:170,1,2625,10|0,0:0|0:0,0:0:0:0:
189,204,97131,38,0,B|204:167|204:167|201:206|201:206|215:170|215:170|213:209|213:209|227:172|227:172|224:211|224:211|239:175|239:175|236:214|236:214|251:177|251:177|248:216|248:216|262:180|262:180|260:219|260:219|274:182|274:182|271:221|271:221|286:185|286:185|283:224|283:224|298:187|298:187|295:226|295:226|310:190|310:190|307:229|307:229|322:192|322:192|319:231|319:231|334:195|334:195|331:234|331:234|346:197|346:197|343:236|343:236,1,875,2|0,1:2|0:0,0:0:0:0:
469,376,97308,2,0,B|527:351|527:351|465:356|465:356|522:333|522:333|460:336|460:336|519:314|519:314|457:319|457:319|514:294|514:294|452:299|452:299|511:275|511:275|449:279|449:279|506:257|506:257|444:260|444:260|503:237|503:237|441:242|441:242|498:218|498:218|436:222|436:222|495:198|495:198|433:203|433:203|490:180|490:180|428:183|428:183|486:161|486:161|425:166|425:166|482:141|482:141|420:146|420:146|478:122|478:122|416:126|416:126|473:102|473:102|412:107|412:107|470:84|470:84|408:87|408:87|465:65|465:65|403:69|403:69|462:45|462:45|400:50|400:50|457:26|457:26|395:30|395:30|454:8|454:8|392:11|392:11|449:-11|449:-11|387:-6|387:-6|446:-30|446:-30|384:-26|384:-26|441:-50|441:-50|379:-45|379:-45|438:-68|438:-68|376:-65|376:-65|433:-87|433:-87|371:-83|371:-83|429:-107,1,2362.50009012223,8|0,0:0|0:0,0:0:0:0:
444,64,97661,6,0,B|498:86|498:86|440:82|440:82|494:103|494:103|436:100|436:100|491:121|491:121|433:117|433:117|486:140|486:140|428:135|428:135|483:158|483:158|425:154|425:154|479:175|479:175|421:172|421:172|476:193|476:193|418:189|418:189|471:211|471:211|413:207|413:207|468:230|468:230|410:225|410:225|463:247|463:247|405:244|405:244|460:265|460:265|402:260|402:260|456:283|456:283|398:279|398:279|453:302|453:302|395:297|395:297,1,787.500030040742,0|0,1:0|0:0,0:0:0:0:
101,351,97837,2,0,B|159:375|159:375|112:334|112:334|168:359|168:359|122:317|122:317|180:342|180:342|133:302|133:302|190:325|190:325|143:285|143:285|202:309|202:309|155:269|155:269|211:293|211:293|165:252|165:252|223:277|223:277|175:237|175:237|233:260|233:260|186:219|186:219|244:243|244:243|197:203|197:203|254:227|254:227|208:186|208:186|265:211|265:211|218:171|218:171|275:194|275:194|228:154|228:154|287:178|287:178|240:138|240:138|297:161|297:161|250:120|250:120|308:146|308:146|262:104|262:104|318:128|318:128|271:88|271:88|330:112|330:112|282:72|282:72|340:95|340:95|293:55|293:55|350:80|350:80|304:39|304:39|361:63|361:63|313:22|313:22|372:47|372:47|325:6|325:6|382:29|382:29|335:-11|335:-11|393:14|393:14|347:-26|347:-26|403:-3|403:-3|356:-42|356:-42|415:-19,1,2362.50009012223,2|0,1:2|3:0,0:0:0:0:
206,0,98190,38,0,B|240:99|240:99|193:10|193:10|228:110,6,306.250002920628,8|0|0|0|0|0|0,0:0|0:0|3:0|0:0|3:0|0:0|3:0,0:0:0:0:
138,126,98543,1,0,1:0:0:0:
138,126,98896,22,2,B|11:175|11:175|134:140|134:140|22:184|22:184|133:155|133:155|34:193|34:193|130:170|130:170|45:203|45:203|129:185|129:185|58:213|58:213|125:201|125:201|70:222|70:222|124:215|124:215|81:231|81:231|121:230|121:230|93:241|93:241|120:245|120:245|104:250|104:250|115:261,1,1312.5,6|0,1:2|0:0,0:2:0:0:
180,324,99249,1,2,3:0:0:0:
39,384,99425,2,0,L|51:297,1,56.8749973964692,2|0,3:2|0:0,0:0:0:0:
138,126,99602,6,2,B|11:175|11:175|134:140|134:140|22:184|22:184|133:155|133:155|34:193|34:193|130:170|130:170|45:203|45:203|129:185|129:185|58:213|58:213|125:201|125:201|70:222|70:222|124:215|124:215|81:231|81:231|121:230|121:230|93:241|93:241|120:245|120:245|104:250|104:250|115:261,1,1312.5,6|0,1:2|0:0,0:2:0:0:
180,324,99955,1,2,3:0:0:0:
39,384,100131,2,0,L|51:297,1,56.8749973964692,2|0,3:2|0:0,0:0:0:0:
138,126,100308,38,2,B|11:175|11:175|134:140|134:140|22:184|22:184|133:155|133:155|34:193|34:193|130:170|130:170|45:203|45:203|129:185|129:185|58:213|58:213|125:201|125:201|70:222|70:222|124:215|124:215|81:231|81:231|121:230|121:230|93:241|93:241|120:245|120:245|104:250|104:250|115:261,1,1312.5,6|0,1:2|0:0,0:2:0:0:
180,324,100661,1,2,3:0:0:0:
39,384,100837,2,0,L|51:297,1,56.8749973964692,2|0,3:2|0:0,0:0:0:0:
159,214,101014,5,10,3:0:0:0:
292,348,101190,1,8,0:3:0:0:
292,348,101278,1,4,0:3:0:0:
292,348,101366,2,0,P|343:376|331:226,1,262.5,0|0,1:3|0:0,0:0:0:0:
411,45,101719,38,0,P|382:66|400:41,1,105,2|0,3:1|0:0,0:0:0:0:
349,155,102072,2,0,P|377:133|359:158,1,105,2|0,0:0|0:0,0:0:0:0:
431,44,102425,6,0,P|405:78|407:35,1,105,2|0,1:2|0:0,0:0:0:0:
329,155,102778,2,0,P|354:120|352:163,1,105,2|0,0:0|0:0,0:0:0:0:
456,49,103131,38,0,P|426:85|410:41,1,105,2|0,1:2|0:0,0:0:0:0:
304,150,103484,2,0,P|333:113|349:157,1,105,2|0,0:0|0:0,0:0:0:0:
478,62,103837,6,0,P|443:98|413:56,1,105,2|0,1:2|0:0,0:0:0:0:
282,138,104190,2,0,P|316:101|346:143,1,105,2|0,0:0|0:0,0:0:0:0:
501,89,104543,38,0,P|460:122|423:85,1,105,2|0,1:2|0:0,0:0:0:0:
259,111,104896,2,0,P|299:77|336:114,1,105,2|0,0:0|0:0,0:0:0:0:
509,123,105249,6,0,P|463:150|421:117,1,105,2|0,1:2|0:0,0:0:0:0:
251,76,105602,2,0,P|296:48|338:81,1,105,2|0,0:0|0:0,0:0:0:0:
507,159,105955,38,0,P|455:179|412:147,1,105,2|0,1:2|0:0,0:0:0:0:
253,41,106308,2,0,P|304:20|347:52,1,105,2|0,0:0|0:0,0:0:0:0:
486,193,106661,6,0,P|429:215|380:183,1,105,2|0,1:2|0:0,0:0:0:0:
273,5,107014,2,0,P|329:-17|378:14,1,105,2|0,0:0|0:0,0:0:0:0:
312,125,107366,6,0,L|256:192,1,87.5,2|0,1:2|0:0,0:0:0:0:
169,176,107631,2,0,L|256:192,1,87.5,0|2,3:3|1:2,0:0:0:0:
285,274,107808,2,0,L|256:192,1,87.5,0|0,3:3|0:0,0:0:0:0:
312,125,108072,6,0,B|311:105|311:105|231:230,1,122.499996261597,2|0,1:2|0:0,0:0:0:0:
169,176,108337,2,0,B|153:187|153:187|301:193,1,122.499996261597,0|2,3:3|1:2,0:0:0:0:
285,274,108514,2,0,B|303:283|303:283|235:152,1,122.499996261597,0|0,3:3|0:0,0:0:0:0:
311,126,108778,38,0,B|296:90|296:90|254:192,1,148.750002837181,2|0,1:2|0:0,0:0:0:0:
169,176,109043,2,0,B|145:207|145:207|255:191,1,148.750002837181,0|2,3:3|1:2,0:0:0:0:
286,274,109219,2,0,B|324:278|324:278|256:191,1,148.750002837181,0|0,3:3|0:0,0:0:0:0:
313,125,109484,6,0,B|272:79|272:79|257:192,1,175,2|0,1:2|0:0,0:0:0:0:
169,176,109749,2,0,B|151:234|151:234|256:192,1,175,0|2,3:3|1:2,0:0:0:0:
285,274,109925,2,0,B|345:261|345:261|256:192,1,175,0|0,3:3|0:0,0:0:0:0:
312,89,110190,38,0,B|251:78|251:78|256:192,1,175,2|0,1:2|0:0,0:0:0:0:
138,192,110455,2,0,B|158:250|158:250|254:191,1,175,0|2,3:3|1:2,0:0:0:0:
313,290,110631,2,0,B|354:243|354:243|254:191,1,175,0|0,3:3|0:0,0:0:0:0:
282,47,110896,6,0,B|230:80|230:80|254:191,1,175,2|0,1:2|0:0,0:0:0:0:
115,238,111161,2,0,B|170:266|170:266|254:191,1,175,0|2,3:3|1:2,0:0:0:0:
365,287,111338,2,0,B|361:225|361:225|254:191,1,175,0|0,3:3|3:0,0:0:0:0:
74,319,111602,5,0,3:0:0:0:
71,327,111690,1,0,3:0:0:0:
69,336,111778,1,0,3:0:0:0:
67,344,111866,1,0,3:0:0:0:
85,364,111955,6,0,L|-30:388,1,87.5,2|0,0:0|0:0,0:0:0:0:
0,381,112131,2,0,L|85:364,1,87.5,2|0,0:3|0:0,0:0:0:0:
177,302,112661,6,0,B|107:343|107:343|323:390,1,262.500010013581,8|0,3:0|0:0,0:0:0:0:
293,377,112837,2,0,B|363:336|363:336|147:289,1,262.500010013581,4|0,3:0|0:0,0:0:0:0:
96,341,113014,22,0,B|78:258|78:258|63:262|49:247|57:229|72:225|72:225|88:221|100:236|96:252|78:258,1,175,0|0,1:3|0:0,0:0:0:0:
100,206,113278,6,0,B|82:123|82:123|67:127|53:112|61:94|76:90|76:90|92:86|104:101|100:117|82:123,1,175,2|0,3:2|0:0,0:0:0:0:
228,111,113455,38,0,B|210:28|210:28|195:32|181:17|189:-1|204:-5|204:-5|220:-9|232:6|228:22|210:28,1,175,2|0,3:2|0:0,0:0:0:0:
484,151,113719,6,0,B|466:68|466:68|451:72|437:57|445:39|460:35|460:35|476:31|488:46|484:62|466:68,1,175,8|0,1:1|0:0,0:0:0:0:
330,276,113984,38,0,B|312:193|312:193|297:197|283:182|291:164|306:160|306:160|322:156|334:171|330:187|312:193,1,175,2|0,3:2|0:0,0:0:0:0:
235,379,114161,6,0,B|217:296|217:296|202:300|188:285|196:267|211:263|211:263|227:259|239:274|235:290|217:296,1,175,2|0,3:2|0:0,0:0:0:0:
495,362,114425,38,0,B|477:279|477:279|462:283|448:268|456:250|471:246|471:246|487:242|499:257|495:273|477:279,1,175,0|0,1:3|0:0,0:0:0:0:
285,201,114690,6,0,B|267:118|267:118|252:122|238:107|246:89|261:85|261:85|277:81|289:96|285:112|267:118,1,175,2|0,3:2|0:0,0:0:0:0:
80,152,114866,38,0,B|62:69|62:69|47:73|33:58|41:40|56:36|56:36|72:32|84:47|80:63|62:69,1,175,2|0,3:2|0:0,0:0:0:0:
60,53,115131,21,8,1:1:0:0:
182,181,115249,1,8,3:3:0:0:
13,232,115366,1,8,3:3:0:0:
63,68,115484,5,4,3:3:0:0:
23,219,115602,1,4,3:3:0:0:
166,176,115719,1,4,3:3:0:0:
147,275,115837,6,0,B|165:192|165:192|180:196|194:181|186:163|171:159|171:159|155:155|143:170|147:186|165:192,1,175,0|0,1:3|0:0,0:0:0:0:
339,384,116102,6,0,B|357:301|357:301|372:305|386:290|378:272|363:268|363:268|347:264|335:279|339:295|357:301,1,175,2|0,3:2|0:0,0:0:0:0:
486,325,116278,38,0,B|504:242|504:242|519:246|533:231|525:213|510:209|510:209|494:205|482:220|486:236|504:242,1,175,2|0,3:2|0:0,0:0:0:0:
304,178,116543,6,0,B|322:95|322:95|337:99|351:84|343:66|328:62|328:62|312:58|300:73|304:89|322:95,1,175,8|0,1:1|0:0,0:0:0:0:
14,224,116808,38,0,B|32:141|32:141|47:145|61:130|53:112|38:108|38:108|22:104|10:119|14:135|32:141,1,175,2|0,3:2|0:0,0:0:0:0:
33,366,116984,6,0,B|51:283|51:283|66:287|80:272|72:254|57:250|57:250|41:246|29:261|33:277|51:283,1,175,2|0,3:2|0:0,0:0:0:0:
149,101,117249,38,0,B|167:18|167:18|182:22|196:7|188:-11|173:-15|173:-15|157:-19|145:-4|149:12|167:18,1,175,0|0,1:3|0:0,0:0:0:0:
229,269,117514,6,0,B|247:186|247:186|262:190|276:175|268:157|253:153|253:153|237:149|225:164|229:180|247:186,1,175,2|0,3:2|0:0,0:0:0:0:
394,384,117690,38,0,B|412:301|412:301|427:305|441:290|433:272|418:268|418:268|402:264|390:279|394:295|412:301,1,175,2|0,3:2|0:0,0:0:0:0:
359,187,117955,21,8,1:1:0:0:
431,125,118043,1,8,3:3:0:0:
385,144,118131,5,4,3:3:0:0:
480,135,118219,1,0,1:3:0:0:
391,96,118308,38,0,L|368:46,2,38.8888888888889,8|0|0,3:1|0:0|0:0,0:0:0:0:
466,275,118504,6,0,L|450:347,1,64.166668624878,0|0,3:3|0:0,0:0:0:0:
484,373,118661,6,0,B|466:290|466:290|451:294|437:279|445:261|460:257|460:257|476:253|488:268|484:284|466:290,1,175,0|0,1:3|0:0,0:0:0:0:
265,317,118925,6,0,B|247:234|247:234|232:238|218:223|226:205|241:201|241:201|257:197|269:212|265:228|247:234,1,175,2|0,3:2|0:0,0:0:0:0:
48,235,119102,38,0,B|30:152|30:152|15:156|1:141|9:123|24:119|24:119|40:115|52:130|48:146|30:152,1,175,2|0,3:2|0:0,0:0:0:0:
39,384,119366,6,0,B|21:301|21:301|6:305|-8:290|0:272|15:268|15:268|31:264|43:279|39:295|21:301,1,175,8|0,1:1|0:0,0:0:0:0:
239,262,119631,38,0,B|221:179|221:179|206:183|192:168|200:150|215:146|215:146|231:142|243:157|239:173|221:179,1,175,2|0,3:2|0:0,0:0:0:0:
440,125,119808,6,0,B|422:42|422:42|407:46|393:31|401:13|416:9|416:9|432:5|444:20|440:36|422:42,1,175,2|0,3:2|0:0,0:0:0:0:
232,108,120072,38,0,B|214:25|214:25|199:29|185:14|193:-4|208:-8|208:-8|224:-12|236:3|232:19|214:25,1,175,0|0,1:3|0:0,0:0:0:0:
413,216,120337,6,0,B|395:133|395:133|380:137|366:122|374:104|389:100|389:100|405:96|417:111|413:127|395:133,1,175,2|0,3:2|0:0,0:0:0:0:
512,384,120514,38,0,B|494:301|494:301|479:305|465:290|473:272|488:268|488:268|504:264|516:279|512:295|494:301,1,175,2|0,3:2|0:0,0:0:0:0:
377,304,120778,21,8,1:1:0:0:
222,343,120896,1,8,3:3:0:0:
227,349,121014,1,8,3:3:0:0:
296,220,121131,5,4,3:3:0:0:
141,259,121249,1,4,3:3:0:0:
146,265,121367,1,4,3:3:0:0:
0,384,121484,6,0,B|18:301|18:301|33:305|47:290|39:272|24:268|24:268|8:264|-4:279|0:295|18:301,1,175,0|0,1:3|0:0,0:0:0:0:
77,193,121749,6,0,B|95:110|95:110|110:114|124:99|116:81|101:77|101:77|85:73|73:88|77:104|95:110,1,175,2|0,3:2|0:0,0:0:0:0:
220,106,121925,38,0,B|238:23|238:23|253:27|267:12|259:-6|244:-10|244:-10|228:-14|216:1|220:17|238:23,1,175,2|0,3:2|0:0,0:0:0:0:
388,376,122190,6,0,B|406:293|406:293|421:297|435:282|427:264|412:260|412:260|396:256|384:271|388:287|406:293,1,175,8|0,1:1|0:0,0:0:0:0:
196,317,122455,38,0,B|214:234|214:234|229:238|243:223|235:205|220:201|220:201|204:197|192:212|196:228|214:234,1,175,2|0,3:2|0:0,0:0:0:0:
5,250,122631,6,0,B|23:167|23:167|38:171|52:156|44:138|29:134|29:134|13:130|1:145|5:161|23:167,1,175,2|0,3:2|0:0,0:0:0:0:
378,125,122896,22,0,B|374:86|396:42|396:42|411:46|425:31|417:13|402:9|402:9|386:5|374:20|378:36|396:42,1,175,0|0,1:3|0:0,0:0:0:0:
214,282,123161,38,0,B|247:245|232:199|232:199|247:203|261:188|253:170|238:166|238:166|222:162|210:177|214:193|232:199,1,175,2|0,3:2|0:0,0:0:0:0:
2,384,123337,6,0,B|-22:354|-14:319|20:301|20:301|35:305|49:290|41:272|26:268|26:268|10:264|-2:279|2:295|20:301,1,175,2|0,3:2|0:0,0:0:0:0:
385,155,123602,5,8,1:1:0:0:
402,240,123690,1,8,3:3:0:0:
393,197,123778,5,4,3:3:0:0:
411,283,123866,1,0,1:3:0:0:
487,197,123955,6,0,L|441:206,1,46.6666666666667,8|0,3:1|3:3,0:0:0:0:
434,209,124308,22,0,B|374:200|374:200|363:211|363:211|366:187|366:187|356:196|356:196|264:179,1,175,0|0,1:3|0:0,0:0:0:0:
12,288,124572,6,0,B|72:279|72:279|83:290|83:290|80:266|80:266|90:275|90:275|182:258,1,175,2|0,3:2|0:0,0:0:0:0:
322,377,124749,38,0,B|262:368|262:368|251:379|251:379|254:355|254:355|244:364|244:364|152:347,1,175,2|0,3:2|0:0,0:0:0:0:
215,48,125014,6,0,B|275:39|275:39|286:50|286:50|283:26|283:26|293:35|293:35|385:18,1,175,8|0,1:1|0:0,0:0:0:0:
511,250,125278,38,0,B|451:241|451:241|440:252|440:252|443:228|443:228|433:237|433:237|341:220,1,175,2|0,3:2|0:0,0:0:0:0:
235,202,125455,6,0,B|295:213|295:213|305:204|305:204|302:228|302:228|313:217|313:217|373:226,1,175,2|0,3:2|0:0,0:0:0:0:
0,128,125719,38,0,B|59:119|59:119|70:130|70:130|67:106|67:106|77:115|77:115|138:104,1,175,0|0,1:3|0:0,0:0:0:0:
277,318,125984,6,0,B|217:327|217:327|206:316|206:316|209:340|209:340|199:331|199:331|107:348,1,175,2|0,3:2|0:0,0:0:0:0:
0,367,126161,38,0,B|60:356|60:356|70:365|70:365|67:341|67:341|78:352|78:352|138:343,1,175,2|0,3:2|0:0,0:0:0:0:
411,195,126426,37,8,1:1:0:0:
358,351,126544,1,8,3:3:0:0:
512,316,126661,1,8,3:3:0:0:
342,259,126778,37,4,3:3:0:0:
497,224,126895,1,4,3:3:0:0:
443,380,127013,1,4,3:3:0:0:
507,202,127131,22,0,B|447:191|447:191|437:200|437:200|440:176|440:176|429:187|429:187|369:178,1,175,0|0,1:3|0:0,0:0:0:0:
100,174,127396,6,0,B|160:163|160:163|170:172|170:172|167:148|167:148|178:159|178:159|238:150,1,175,2|0,3:2|0:0,0:0:0:0:
447,48,127572,38,0,B|387:37|387:37|377:46|377:46|380:22|380:22|369:33|369:33|309:24,1,175,2|0,3:2|0:0,0:0:0:0:
0,51,127837,6,0,B|60:39|60:39|70:48|70:48|67:24|67:24|78:35|78:35|138:26,1,175,8|0,1:1|0:0,0:0:0:0:
377,175,128102,38,0,B|316:163|316:163|306:172|306:172|309:148|309:148|298:159|298:159|238:150,1,175,2|0,3:2|0:0,0:0:0:0:
90,349,128278,6,0,B|151:337|151:337|161:346|161:346|158:322|158:322|169:333|169:333|229:324,1,175,2|0,3:2|0:0,0:0:0:0:
365,299,128543,38,0,B|304:311|304:311|294:302|294:302|297:326|297:326|286:315|286:315|226:324,1,175,0|0,1:3|0:0,0:0:0:0:
0,195,128808,6,0,B|61:207|61:207|71:198|71:198|68:222|68:222|79:211|79:211|137:219,1,175,2|0,3:2|0:0,0:0:0:0:
295,126,128984,38,0,B|236:117|236:117|225:128|225:128|228:104|228:104|218:113|218:113|157:101,1,175,2|0,3:2|0:0,0:0:0:0:
386,217,129249,21,8,1:1:0:0:
448,145,129337,1,8,3:3:0:0:
429,191,129425,5,4,3:3:0:0:
438,96,129513,1,0,1:3:0:0:
512,201,129602,38,0,P|393:234|335:363,1,262.5,8|0,3:1|0:0,0:0:0:0:
473,384,129955,22,0,B|464:325|464:325|475:314|475:314|451:317|451:317|460:307|460:307|448:246,1,175,0|0,1:3|0:0,0:0:0:0:
244,332,130219,6,0,B|235:273|235:273|246:262|246:262|222:265|222:265|231:255|231:255|219:194,1,175,2|0,3:2|0:0,0:0:0:0:
24,277,130396,38,0,B|15:218|15:218|26:207|26:207|2:210|2:210|11:200|11:200|0:139,1,175,2|0,3:2|0:0,0:0:0:0:
2,344,130661,6,0,B|10:285|10:285|0:274|0:274|23:277|23:277|14:267|14:267|26:206,1,175,8|0,1:1|0:0,0:0:0:0:
240,266,130925,38,0,B|248:207|248:207|237:196|237:196|261:199|261:199|252:189|252:189|264:128,1,175,2|0,3:2|0:0,0:0:0:0:
476,178,131102,6,0,B|484:119|484:119|473:108|473:108|497:111|497:111|488:101|488:101|500:40,1,175,2|0,3:2|0:0,0:0:0:0:
498,246,131366,38,0,B|489:187|489:187|500:176|500:176|476:179|476:179|485:169|485:169|473:108,1,175,0|0,1:3|0:0,0:0:0:0:
270,201,131630,6,0,B|261:142|261:142|272:131|272:131|248:134|248:134|257:124|257:124|245:63,1,175,2|0,3:2|0:0,0:0:0:0:
49,149,131807,38,0,B|40:90|40:90|51:79|51:79|27:82|27:82|36:72|36:72|24:11,1,175,2|0,3:2|0:0,0:0:0:0:
473,108,132072,2,0,L|415:94,1,52.5,8|0,1:1|0:0,0:0:0:0:
344,49,132425,2,0,P|379:152|272:131,1,262.5,2|0,3:3|0:0,0:0:0:0:
196,215,132778,6,0,P|227:224|186:188,1,262.5,2|0,3:2|0:0,0:0:0:0:
200,211,133131,38,0,P|231:220|190:184,1,233.333333333333,0|0,3:2|0:0,0:0:0:0:
204,207,133484,6,0,P|235:216|194:180,1,175,0|0,3:2|0:0,0:0:0:0:
208,203,133837,38,0,P|239:212|198:176,1,116.666666666667,0|0,3:2|0:0,0:0:0:0:
211,198,134190,38,0,P|262:193|250:143,1,87.5,0|0,3:2|0:0,0:0:0:0:
215,194,134543,38,0,P|269:199|299:159,1,87.5,0|0,3:2|0:0,0:0:0:0:
219,190,134896,6,0,P|279:203|329:178,1,87.5,8|0,3:3|0:0,0:0:0:0:
390,130,135072,1,4,3:3:0:0:
495,307,135249,38,0,P|428:200|302:196,1,262.5,0|0,1:2|0:0,0:0:0:0:
69,37,135602,6,0,L|208:64,1,87.5,6|0,1:2|0:0,0:0:0:0:
154,53,135955,2,0,L|283:79,1,87.5,2|0,3:2|0:0,0:0:0:0:
452,28,136131,1,0,1:2:0:0:
256,160,136308,38,0,L|417:121,1,87.5,8|0,3:1|0:0,0:0:0:0:
341,139,136661,2,0,L|546:85,1,175,2|0,1:2|3:0,0:0:0:0:
490,209,136925,1,2,3:0:0:0:
365,384,137014,6,0,L|393:262,1,87.5,2|0,3:2|0:0,0:0:0:0:
202,260,137190,1,2,3:2:0:0:
202,260,137278,1,2,3:3:0:0:
274,384,137366,38,0,B|298:285|298:285|247:360,1,170.624992189408,0|0,1:2|0:0,0:0:0:0:
424,125,137719,21,8,2:1:0:0:
425,126,137837,5,0,3:3:0:0:
424,125,137955,37,0,3:3:0:0:
425,126,138072,5,0,3:3:0:0:
424,125,138190,37,0,3:3:0:0:
425,126,138308,5,0,3:3:0:0:
246,353,138425,6,0,P|292:293|372:289,1,87.5,2|0,1:2|0:0,0:0:0:0:
300,288,138778,2,0,P|350:284|412:327,1,87.5,2|0,3:2|0:0,0:0:0:0:
86,362,138955,1,0,1:2:0:0:
357,192,139131,6,0,P|311:132|231:128,1,87.5,8|0,3:1|0:0,0:0:0:0:
303,127,139484,2,0,P|252:123|170:225,1,175,2|0,1:2|3:0,0:0:0:0:
88,152,139749,1,2,3:0:0:0:
143,77,139837,38,0,L|170:-25,2,87.5,2|0|2,3:2|0:0|3:2,0:0:0:0:
88,152,140102,1,2,3:3:0:0:
171,206,140190,6,0,L|0:166,1,170.624992189408,0|0,1:2|0:0,0:0:0:0:
265,233,140543,5,8,2:1:0:0:
264,232,140661,5,0,3:3:0:0:
265,233,140778,37,0,3:3:0:0:
4,167,140896,22,0,L|68:183,1,59.0624981975556,0|0,3:3|0:0,0:0:0:0:
69,189,141249,6,0,L|97:371,1,148.750002837181,2|0,1:2|0:0,0:0:0:0:
91,336,141602,2,0,L|273:308,1,148.750002837181,2|0,3:2|0:0,0:0:0:0:
278,88,141778,1,0,1:2:0:0:
331,373,141955,38,0,L|513:345,1,148.750002837181,8|0,3:1|0:0,0:0:0:0:
478,350,142308,2,0,L|450:168,1,148.750002837181,2|0,1:2|0:0,0:0:0:0:
224,161,142484,1,0,3:0:0:0:
224,161,142572,1,0,0:0:0:0:
455,203,142661,6,0,L|283:174,1,148.750002837181,2|0,3:2|0:0,0:0:0:0:
122,103,142925,1,2,3:3:0:0:
202,65,143014,2,0,L|30:36,1,148.750002837181,0|0,1:2|0:0,0:0:0:0:
55,40,143366,38,0,B|21:81|21:81|36:174,1,99.1666685581208,8|0,2:1|0:0,0:0:0:0:
51,216,143484,21,0,3:3:0:0:
52,217,143602,5,0,3:3:0:0:
51,216,143719,37,0,3:3:0:0:
52,217,143837,5,0,3:3:0:0:
51,216,143955,37,0,3:3:0:0:
234,317,144072,6,0,L|213:394,1,65.625,2|0,1:2|0:0,0:0:0:0:
131,257,144425,6,2,B|134:275|134:275|136:272|136:272|140:293|140:293|144:286|144:286|149:309|149:309|153:298|153:298|160:324|160:324|164:309|164:309|174:337|174:337|177:318|177:318|189:348|189:348|191:325|191:325|205:356|205:356|206:329|206:329|223:361|223:361|222:331|222:331|241:364|241:364|237:331|237:331|260:364|260:364|253:330|253:330|278:361|278:361|268:326|268:326|296:355|296:355|283:321|283:321|313:347|313:347|297:314|297:314|327:336|327:336|310:305|310:305|341:322|341:322|322:296|322:296|351:307|351:307|333:284|333:284|360:291|360:291|342:271|342:271|366:273|366:273|349:258|349:258|369:255|369:255|354:243|354:243|369:236|369:236|356:227|356:227|366:218|366:218|356:211|356:211|360:200|360:200|353:196|353:196|352:184|352:184|348:181|348:181|341:169|341:169|341:167,1,1181.25004506111,2|0,3:0|0:0,0:2:0:0:
234,317,144778,38,0,L|213:394,1,65.625,2|0,1:2|0:0,0:0:0:0:
131,257,145131,6,2,B|134:275|134:275|136:272|136:272|140:293|140:293|144:286|144:286|149:309|149:309|153:298|153:298|160:324|160:324|164:309|164:309|174:337|174:337|177:318|177:318|189:348|189:348|191:325|191:325|205:356|205:356|206:329|206:329|223:361|223:361|222:331|222:331|241:364|241:364|237:331|237:331|260:364|260:364|253:330|253:330|278:361|278:361|268:326|268:326|296:355|296:355|283:321|283:321|313:347|313:347|297:314|297:314|327:336|327:336|310:305|310:305|341:322|341:322|322:296|322:296|351:307|351:307|333:284|333:284|360:291|360:291|342:271|342:271|366:273|366:273|349:258|349:258|369:255|369:255|354:243|354:243|369:236|369:236|356:227|356:227|366:218|366:218|356:211|356:211|360:200|360:200|353:196|353:196|352:184|352:184|348:181|348:181|341:169|341:169|341:167,1,1181.25004506111,2|0,3:0|0:0,0:0:0:0:
234,317,145484,38,0,L|213:394,1,65.625,2|0,1:2|0:0,0:0:0:0:
131,257,145837,6,2,B|134:275|134:275|136:272|136:272|140:293|140:293|144:286|144:286|149:309|149:309|153:298|153:298|160:324|160:324|164:309|164:309|174:337|174:337|177:318|177:318|189:348|189:348|191:325|191:325|205:356|205:356|206:329|206:329|223:361|223:361|222:331|222:331|241:364|241:364|237:331|237:331|260:364|260:364|253:330|253:330|278:361|278:361|268:326|268:326|296:355|296:355|283:321|283:321|313:347|313:347|297:314|297:314|327:336|327:336|310:305|310:305|341:322|341:322|322:296|322:296|351:307|351:307|333:284|333:284|360:291|360:291|342:271|342:271|366:273|366:273|349:258|349:258|369:255|369:255|354:243|354:243|369:236|369:236|356:227|356:227|366:218|366:218|356:211|356:211|360:200|360:200|353:196|353:196|352:184|352:184|348:181|348:181|341:169|341:169|341:167,1,1181.25004506111,2|0,3:0|0:0,0:0:0:0:
334,162,146190,21,2,3:0:0:0:
334,162,146366,1,2,3:3:0:0:
512,215,146543,2,0,L|347:250,1,131.25000500679
52,314,146896,22,0,P|15:317|54:317,1,131.25000500679,6|0,1:2|0:0,0:0:0:0:
25,355,147249,2,0,P|62:322|29:356,1,175,2|0,3:2|0:0,0:0:0:0:
32,327,147425,1,0,1:2:0:0:
204,234,147602,6,0,P|214:299|201:236,1,218.75,8|0,3:1|0:0,0:0:0:0:
220,307,147955,2,0,P|252:295|224:307,1,262.500010013581,2|0,1:2|0:0,0:0:0:0:
224,266,148131,1,0,3:0:0:0:
224,266,148219,1,2,3:0:0:0:
45,189,148308,38,0,P|96:145|49:189,1,306.250002920628,2|0,3:2|0:0,0:0:0:0:
133,104,148484,1,2,3:2:0:0:
133,104,148572,1,2,3:3:0:0:
13,87,148661,2,0,P|49:204|10:89,1,393.750015020371,0|0,1:2|3:0,0:0:0:0:
435,60,149014,21,8,2:1:0:0:
436,61,149131,5,0,3:3:0:0:
435,60,149249,37,0,3:3:0:0:
436,61,149366,5,0,3:3:0:0:
435,60,149484,37,0,3:3:0:0:
436,61,149602,5,0,3:3:0:0:
382,144,149719,6,0,P|394:89|376:148,1,262.500010013581,2|0,1:2|3:0,0:0:0:0:
477,173,149984,1,0,3:0:0:0:
477,173,150072,6,0,P|510:161|476:179,1,131.25000500679,2|0,3:2|0:0,0:0:0:0:
280,218,150249,2,0,P|313:206|279:224,1,131.25000500679,0|0,1:2|0:0,0:0:0:0:
73,264,150425,2,0,P|116:267|74:257,1,131.25000500679,8|0,3:1|0:0,0:0:0:0:
72,259,150778,38,0,P|158:244|66:268,1,393.750015020371,2|0,1:2|0:0,0:0:0:0:
36,95,151131,6,0,P|18:124|39:94,1,175,2|0,3:2|0:0,0:0:0:0:
329,33,151396,37,8,3:1:0:0:
177,144,151484,2,0,P|194:142|170:137,1,87.5,0|0,1:2|0:0,0:0:0:0:
223,0,151661,1,0,3:0:0:0:
435,60,151837,21,8,2:1:0:0:
436,61,151954,5,0,3:3:0:0:
435,60,152072,37,0,3:3:0:0:
436,61,152189,5,0,3:3:0:0:
435,60,152307,37,0,3:3:0:0:
436,61,152425,5,0,3:3:0:0:
246,183,152543,6,0,P|251:207|244:186,1,87.5,2|0,1:2|0:0,0:0:0:0:
278,185,152896,6,0,P|235:187|276:181,1,131.25000500679,2|0,3:2|0:0,0:0:0:0:
89,111,153072,1,0,1:2:0:0:
255,223,153249,38,0,P|281:175|258:223,1,175,8|0,3:1|0:0,0:0:0:0:
227,171,153602,6,0,P|261:229|225:174,1,218.75,2|0,1:2|0:0,0:0:0:0:
257,48,153778,1,0,3:0:0:0:
257,48,153866,1,2,3:0:0:0:
294,169,153955,38,0,P|213:180|292:166,1,262.500010013581,2|0,3:2|0:0,0:0:0:0:
512,192,154131,2,0,L|411:169,1,87.5,2|2,3:2|3:3,0:0:0:0:
254,242,154308,6,0,P|292:157|256:242,1,306.250002920628,0|0,1:2|0:0,0:0:0:0:
61,102,154661,38,0,P|67:58|111:3,1,87.5,8|0,2:1|0:0,0:0:0:0:
51,99,154837,2,0,P|57:55|101:0,1,87.5,2|0,3:3|0:0,0:0:0:0:
41,94,155014,2,0,P|47:50|91:-4,1,87.5,2|0,3:3|0:0,0:0:0:0:
32,92,155190,2,0,P|38:48|82:-6,1,87.5,2|0,3:3|0:0,0:0:0:0:
21,107,155366,6,0,P|27:50|57:0,1,116.666666666667,2|0,1:2|0:0,0:0:0:0:
58,164,155602,38,0,P|36:120|96:-37,1,175,2|0,3:0|0:0,0:0:0:0:
137,185,155837,6,0,P|52:112|56:0,1,233.33273993749,2|0,3:2|0:0,0:0:0:0:
257,192,156072,22,0,L|-9:244,1,262.500010013581,2|2,1:2|3:0,0:0:0:0:
241,240,156690,1,2,0:3:0:0:
398,255,156778,38,0,L|132:307,1,175,8|0,1:2|3:0,0:0:0:0:
508,325,157484,6,0,L|368:352,1,104.999996795654,2|2,1:2|0:1,0:0:0:0:
