osu file format v14

[General]
AudioFilename: audio.mp3
AudioLeadIn: 0
PreviewTime: 77796
Countdown: 0
SampleSet: Soft
StackLeniency: 0.7
Mode: 3
LetterboxInBreaks: 0
SpecialStyle: 0
WidescreenStoryboard: 1

[Editor]
Bookmarks: 56543
DistanceSpacing: 1.2
BeatDivisor: 6
GridSize: 16
TimelineZoom: 1.9

[Metadata]
Title:Glacierfall (Park Remix)
TitleUnicode:Glacierfall (Park Remix)
Artist:sakuraburst
ArtistUnicode:sakuraburst
Creator:Ainer
Version:Hard
Source:
Tags:FAMoss electronic instrumental sylvir paark dtc harpsinger S5 EP: A Collection of Three Weapons parkdtc paarkdtc sakura burst glacier fall drum n and & bass dnb drumstep dubstep glitch edm Coldpine
BeatmapID:3149656
BeatmapSetID:1540764

[Difficulty]
HPDrainRate:7.5
CircleSize:4
OverallDifficulty:7.5
ApproachRate:5
SliderMultiplier:1.4
SliderTickRate:1

[Events]
//Background and Video events
0,0,"sebastien-hue-artificial-glacier-lr-final.jpg",0,0
//Break Periods
//Storyboard Layer 0 (Background)
//Storyboard Layer 1 (Fail)
//Storyboard Layer 2 (Pass)
//Storyboard Layer 3 (Foreground)
//Storyboard Layer 4 (Overlay)
//Storyboard Sound Samples
Sample,11884,0,"C#7H_Db7H_s.wav",100
Sample,17531,0,"C#7H_Db7H_s.wav",100
Sample,18737,0,"G#6H_Ab6H_s.wav",70
Sample,23178,0,"C#8H_Db8H_s.wav",100
Sample,28825,0,"C#8H_Db8H_s.wav",100
Sample,30031,0,"G#6H_Ab6H_s.wav",70
Sample,118075,0,"soft-hitclap.wav",0
Sample,129369,0,"soft-hitclap.wav",0

[TimingPoints]
11267,352.941176470588,4,2,1,30,1,0
33855,-100,4,2,1,50,0,0
45149,-100,4,2,1,60,0,0
55737,-62.5,4,2,1,60,0,0
55825,-142.857142857143,4,2,1,60,0,0
56002,-100,4,2,1,60,0,0
56090,-71.4285714285714,4,2,1,60,0,0
56178,-166.666666666667,4,2,1,60,0,0
56266,-71.4285714285714,4,2,1,60,0,0
56355,-166.666666666667,4,2,1,60,0,0
56443,-100,4,2,1,70,0,0
56619,-71.4285714285714,4,2,1,70,0,0
56708,-166.666666666667,4,2,1,70,0,0
56796,-71.4285714285714,4,2,1,70,0,0
56884,-250.000000000001,4,2,1,70,0,0
56972,-125,4,2,1,70,0,0
57061,-71.4285714285714,4,2,1,70,0,0
57149,-100,4,2,1,70,0,0
57325,-71.4285714285714,4,2,1,70,0,0
57414,-166.666666666667,4,2,1,70,0,0
57502,-71.4285714285714,4,2,1,70,0,0
57590,-250.000000000001,4,2,1,70,0,0
57678,-125,4,2,1,70,0,0
57766,-71.4285714285714,4,2,1,70,0,0
57855,-100,4,2,1,70,0,0
58031,-71.4285714285714,4,2,1,70,0,0
58119,-166.666666666667,4,2,1,70,0,0
58208,-71.4285714285714,4,2,1,70,0,0
58296,-250.000000000001,4,2,1,70,0,0
58384,-125,4,2,1,70,0,0
58472,-71.4285714285714,4,2,1,70,0,0
58649,-90.9090909090909,4,2,1,70,0,0
58737,-111.111111111111,4,2,1,70,0,0
58825,-200,4,2,1,70,0,0
58914,-55.5555555555556,4,2,1,70,0,0
59002,-166.666666666667,4,2,1,70,0,0
59178,-100,4,2,1,70,0,0
59443,-71.42857143,4,2,1,70,0,0
59532,-166.6666667,4,2,1,70,0,0
59620,-71.42857143,4,2,1,70,0,0
59708,-250.000000075,4,2,1,70,0,0
59796,-125,4,2,1,70,0,0
59884,-71.4285714285714,4,2,1,70,0,0
59972,-100,4,2,1,70,0,0
60149,-71.42857143,4,2,1,70,0,0
60238,-166.6666667,4,2,1,70,0,0
60326,-71.42857143,4,2,1,70,0,0
60414,-250.000000075,4,2,1,70,0,0
60502,-125,4,2,1,70,0,0
60590,-71.4285714285714,4,2,1,70,0,0
60678,-100,4,2,1,70,0,0
60855,-71.42857143,4,2,1,70,0,0
60943,-166.6666667,4,2,1,70,0,0
61032,-71.42857143,4,2,1,70,0,0
61120,-250.000000075,4,2,1,70,0,0
61208,-125,4,2,1,70,0,0
61296,-71.4285714285714,4,2,1,70,0,0
61472,-90.909090905124,4,2,1,70,0,0
61560,-111.111111111111,4,2,1,70,0,0
61648,-200,4,2,1,70,0,0
61737,-55.55555556,4,2,1,70,0,0
61825,-166.6666667,4,2,1,70,0,0
62001,-100,4,2,1,70,0,0
62266,-71.42857143,4,2,1,70,0,0
62355,-166.6666667,4,2,1,70,0,0
62443,-71.42857143,4,2,1,70,0,0
62531,-250.000000075,4,2,1,70,0,0
62619,-125,4,2,1,70,0,0
62708,-71.4285714285714,4,2,1,70,0,0
62796,-100,4,2,1,70,0,0
62972,-71.42857143,4,2,1,70,0,0
63061,-166.6666667,4,2,1,70,0,0
63149,-71.42857143,4,2,1,70,0,0
63237,-250.000000075,4,2,1,70,0,0
63325,-125,4,2,1,70,0,0
63414,-71.4285714285714,4,2,1,70,0,0
63502,-100,4,2,1,70,0,0
63678,-71.42857143,4,2,1,70,0,0
63766,-166.6666667,4,2,1,70,0,0
63855,-71.42857143,4,2,1,70,0,0
63943,-166.6666667,4,2,1,70,0,0
64031,-100,4,2,1,70,0,0
64208,-71.428571432398,4,2,1,70,0,0
64296,-90.909090905124,4,2,1,70,0,0
64384,-111.111111111111,4,2,1,70,0,0
64472,-200,4,2,1,70,0,0
64561,-55.55555556,4,2,1,70,0,0
64649,-166.6666667,4,2,1,70,0,0
64825,-100,4,2,1,70,0,0
64914,-66.6666666666667,4,2,1,70,0,0
65002,-200,4,2,1,70,0,0
65090,-100,4,2,1,70,0,0
65443,-166.666666666667,4,2,1,70,0,0
65531,-71.4285714285714,4,2,1,70,0,0
65619,-66.6666666666667,4,2,1,70,0,0
65708,-200,4,2,1,70,0,0
65796,-100,4,2,1,70,0,0
66149,-166.666666666667,4,2,1,70,0,0
66237,-71.4285714285714,4,2,1,70,0,0
66325,-66.6666666666667,4,2,1,70,0,0
66414,-200,4,2,1,70,0,0
66502,-100,4,2,1,70,0,0
66852,-166.666666666667,4,2,1,70,0,0
66943,-71.4285714285714,4,2,1,70,0,0
67119,-90.909090905124,4,2,1,70,0,0
67207,-111.111111111111,4,2,1,70,0,0
67295,-200,4,2,1,70,0,0
67384,-55.55555556,4,2,1,70,0,0
67472,-166.6666667,4,2,1,70,0,0
67648,-100,4,2,1,70,0,0
67914,-71.42857143,4,2,1,70,0,0
68003,-166.6666667,4,2,1,70,0,0
68091,-71.42857143,4,2,1,70,0,0
68179,-250.000000075,4,2,1,70,0,0
68267,-125,4,2,1,70,0,0
68355,-71.4285714285714,4,2,1,70,0,0
68443,-100,4,2,1,70,0,0
68620,-71.42857143,4,2,1,70,0,0
68709,-166.6666667,4,2,1,70,0,0
68797,-71.42857143,4,2,1,70,0,0
68885,-250.000000075,4,2,1,70,0,0
68973,-125,4,2,1,70,0,0
69061,-71.4285714285714,4,2,1,70,0,0
69149,-100,4,2,1,70,0,0
69326,-71.42857143,4,2,1,70,0,0
69414,-166.6666667,4,2,1,70,0,0
69503,-71.42857143,4,2,1,70,0,0
69591,-250.000000075,4,2,1,70,0,0
69679,-125,4,2,1,70,0,0
69766,-71.4285714285714,4,2,1,70,0,0
69943,-90.909090905124,4,2,1,70,0,0
70031,-111.111111111111,4,2,1,70,0,0
70119,-200,4,2,1,70,0,0
70208,-55.55555556,4,2,1,70,0,0
70296,-166.6666667,4,2,1,70,0,0
70472,-100,4,2,1,70,0,0
70737,-71.42857143,4,2,1,70,0,0
70826,-166.6666667,4,2,1,70,0,0
70914,-71.42857143,4,2,1,70,0,0
71002,-250.000000075,4,2,1,70,0,0
71090,-125,4,2,1,70,0,0
71178,-71.4285714285714,4,2,1,70,0,0
71266,-100,4,2,1,70,0,0
71443,-71.42857143,4,2,1,70,0,0
71532,-166.6666667,4,2,1,70,0,0
71619,-62.5,4,2,1,70,0,0
71708,-142.857142857143,4,2,1,70,0,0
71884,-62.5,4,2,1,70,0,0
71972,-142.857142857143,4,2,1,70,0,0
72149,-62.5,4,2,1,70,0,0
72237,-142.857142857143,4,2,1,70,0,0
72414,-62.5,4,2,1,70,0,0
72502,-142.857142857143,4,2,1,70,0,0
72678,-71.428571432398,4,2,1,70,0,0
72766,-90.909090905124,4,2,1,70,0,0
72854,-111.111111111111,4,2,1,70,0,0
72942,-200,4,2,1,70,0,0
73031,-55.55555556,4,2,1,70,0,0
73119,-166.6666667,4,2,1,70,0,0
73295,-100,4,2,1,70,0,0
73561,-71.42857143,4,2,1,70,0,0
73650,-166.6666667,4,2,1,70,0,0
73738,-71.42857143,4,2,1,70,0,0
73826,-250.000000075,4,2,1,70,0,0
73914,-125,4,2,1,70,0,0
74002,-71.4285714285714,4,2,1,70,0,0
74090,-100,4,2,1,70,0,0
74267,-71.42857143,4,2,1,70,0,0
74356,-166.6666667,4,2,1,70,0,0
74444,-71.42857143,4,2,1,70,0,0
74532,-250.000000075,4,2,1,70,0,0
74620,-125,4,2,1,70,0,0
74708,-71.4285714285714,4,2,1,70,0,0
74796,-100,4,2,1,70,0,0
74973,-71.42857143,4,2,1,70,0,0
75061,-166.6666667,4,2,1,70,0,0
75150,-71.42857143,4,2,1,70,0,0
75238,-166.6666667,4,2,1,70,0,0
75326,-100,4,2,1,70,0,0
75502,-71.428571432398,4,2,1,70,0,0
75590,-90.909090905124,4,2,1,70,0,0
75678,-111.111111111111,4,2,1,70,0,0
75766,-200,4,2,1,70,0,0
75855,-55.55555556,4,2,1,70,0,0
75943,-166.6666667,4,2,1,70,0,0
76119,-100,4,2,1,70,0,0
77796,-100,4,2,1,70,0,1
79031,-71.4285714285714,4,2,1,70,0,0
79119,-166.666666666667,4,2,1,70,0,0
79208,-100,4,2,1,70,0,0
79561,-71.4285714285714,4,2,1,70,0,0
79649,-166.666666666667,4,2,1,70,0,0
79737,-71.4285714285714,4,2,1,70,0,0
79825,-166.666666666667,4,2,1,70,0,0
79914,-100,4,2,1,70,0,0
80090,-71.4285714285714,4,2,1,70,0,0
80178,-166.666666666667,4,2,1,70,0,0
80266,-100,4,2,1,70,0,0
80619,-71.4285714285714,4,2,1,70,0,0
80708,-166.666666666667,4,2,1,70,0,0
80796,-71.4285714285714,4,2,1,70,0,0
80884,-166.666666666667,4,2,1,70,0,0
80972,-100,4,2,1,70,0,0
81149,-71.4285714285714,4,2,1,70,0,0
81237,-166.666666666667,4,2,1,70,0,0
81325,-100,4,2,1,70,0,0
81502,-71.4285714285714,4,2,1,70,0,0
81590,-166.666666666667,4,2,1,70,0,0
81678,-100,4,2,1,70,0,0
81855,-71.42857143,4,2,1,70,0,0
81943,-166.6666667,4,2,1,70,0,0
82032,-100,4,2,1,70,0,0
82385,-71.42857143,4,2,1,70,0,0
82473,-166.6666667,4,2,1,70,0,0
82561,-71.42857143,4,2,1,70,0,0
82649,-166.6666667,4,2,1,70,0,0
82738,-100,4,2,1,70,0,0
82914,-71.42857143,4,2,1,70,0,0
83002,-166.6666667,4,2,1,70,0,0
83090,-100,4,2,1,70,0,0
83443,-71.42857143,4,2,1,70,0,0
83532,-166.6666667,4,2,1,70,0,0
83620,-71.42857143,4,2,1,70,0,0
83708,-166.6666667,4,2,1,70,0,0
83796,-100,4,2,1,70,0,0
83973,-71.42857143,4,2,1,70,0,0
84061,-166.6666667,4,2,1,70,0,0
84149,-100,4,2,1,70,0,0
84326,-71.42857143,4,2,1,70,0,0
84414,-166.6666667,4,2,1,70,0,0
84502,-100,4,2,1,70,0,0
84678,-71.42857143,4,2,1,70,0,0
84766,-166.6666667,4,2,1,70,0,0
84855,-100,4,2,1,70,0,0
85208,-71.42857143,4,2,1,70,0,0
85296,-166.6666667,4,2,1,70,0,0
85384,-71.42857143,4,2,1,70,0,0
85472,-166.6666667,4,2,1,70,0,0
85561,-100,4,2,1,70,0,0
85737,-71.42857143,4,2,1,70,0,0
85825,-166.6666667,4,2,1,70,0,0
85913,-100,4,2,1,70,0,0
86266,-71.42857143,4,2,1,70,0,0
86355,-166.6666667,4,2,1,70,0,0
86443,-71.42857143,4,2,1,70,0,0
86531,-166.6666667,4,2,1,70,0,0
86619,-100,4,2,1,70,0,0
86796,-71.42857143,4,2,1,70,0,0
86884,-166.6666667,4,2,1,70,0,0
86972,-100,4,2,1,70,0,0
87149,-71.42857143,4,2,1,70,0,0
87237,-166.6666667,4,2,1,70,0,0
87325,-100,4,2,1,70,0,0
87502,-45.4545454545455,4,2,1,70,0,0
87546,-166.666666666667,4,2,1,70,0,0
87678,-100,4,2,1,70,0,0
87855,-71.4285714285714,4,2,1,70,0,0
87943,-166.666666666667,4,2,1,70,0,0
88031,-71.4285714285714,4,2,1,70,0,0
88119,-166.666666666667,4,2,1,70,0,0
88208,-45.4545454545455,4,2,1,70,0,0
88252,-166.666666666667,4,2,1,70,0,0
88384,-100,4,2,1,70,0,0
88561,-71.4285714285714,4,2,1,70,0,0
88649,-166.666666666667,4,2,1,70,0,0
88737,-71.4285714285714,4,2,1,70,0,0
88825,-166.666666666667,4,2,1,70,0,0
88914,-45.4545454545455,4,2,1,70,0,0
88958,-166.666666666667,4,2,1,70,0,0
89090,-100,4,2,1,70,0,0
89266,-71.4285714285714,4,2,1,70,0,0
89355,-166.666666666667,4,2,1,70,0,0
89443,-71.4285714285714,4,2,1,70,0,0
89531,-166.666666666667,4,2,1,70,0,0
89619,-100,4,2,1,70,0,0
90325,-71.42857143,4,2,1,70,0,0
90413,-166.6666667,4,2,1,70,0,0
90502,-100,4,2,1,70,0,0
90855,-71.42857143,4,2,1,70,0,0
90943,-166.6666667,4,2,1,70,0,0
91031,-71.42857143,4,2,1,70,0,0
91119,-166.6666667,4,2,1,70,0,0
91208,-100,4,2,1,70,0,0
91384,-71.42857143,4,2,1,70,0,0
91472,-166.6666667,4,2,1,70,0,0
91560,-100,4,2,1,70,0,0
91913,-71.42857143,4,2,1,70,0,0
92002,-166.6666667,4,2,1,70,0,0
92090,-71.42857143,4,2,1,70,0,0
92178,-166.6666667,4,2,1,70,0,0
92266,-100,4,2,1,70,0,0
92443,-71.42857143,4,2,1,70,0,0
92531,-166.6666667,4,2,1,70,0,0
92619,-100,4,2,1,70,0,0
92796,-71.42857143,4,2,1,70,0,0
92884,-166.6666667,4,2,1,70,0,0
92972,-100,4,2,1,70,0,0
93149,-71.42857143,4,2,1,70,0,0
93237,-166.6666667,4,2,1,70,0,0
93326,-100,4,2,1,70,0,0
93679,-71.42857143,4,2,1,70,0,0
93767,-166.6666667,4,2,1,70,0,0
93855,-71.42857143,4,2,1,70,0,0
93943,-166.6666667,4,2,1,70,0,0
94032,-100,4,2,1,70,0,0
94208,-71.42857143,4,2,1,70,0,0
94296,-166.6666667,4,2,1,70,0,0
94384,-100,4,2,1,70,0,0
94737,-71.42857143,4,2,1,70,0,0
94826,-166.6666667,4,2,1,70,0,0
94914,-71.42857143,4,2,1,70,0,0
95002,-166.6666667,4,2,1,70,0,0
95090,-100,4,2,1,70,0,0
95267,-71.42857143,4,2,1,70,0,0
95355,-166.6666667,4,2,1,70,0,0
95443,-100,4,2,1,70,0,0
95620,-71.42857143,4,2,1,70,0,0
95708,-166.6666667,4,2,1,70,0,0
95796,-100,4,2,1,70,0,0
95972,-71.42857143,4,2,1,70,0,0
96060,-166.6666667,4,2,1,70,0,0
96149,-100,4,2,1,70,0,0
96502,-71.42857143,4,2,1,70,0,0
96590,-166.6666667,4,2,1,70,0,0
96678,-71.42857143,4,2,1,70,0,0
96766,-166.6666667,4,2,1,70,0,0
96855,-100,4,2,1,70,0,0
97031,-71.42857143,4,2,1,70,0,0
97119,-166.6666667,4,2,1,70,0,0
97207,-100,4,2,1,70,0,0
97560,-71.42857143,4,2,1,70,0,0
97649,-166.6666667,4,2,1,70,0,0
97737,-71.42857143,4,2,1,70,0,0
97825,-166.6666667,4,2,1,70,0,0
97913,-100,4,2,1,70,0,0
98090,-71.42857143,4,2,1,70,0,0
98178,-166.6666667,4,2,1,70,0,0
98266,-100,4,2,1,70,0,0
98443,-71.42857143,4,2,1,70,0,0
98531,-166.6666667,4,2,1,70,0,0
98619,-100,4,2,1,70,0,0
98796,-45.45454545,4,2,1,70,0,0
98840,-166.6666667,4,2,1,70,0,0
98972,-100,4,2,1,70,0,0
99149,-71.42857143,4,2,1,70,0,0
99237,-166.6666667,4,2,1,70,0,0
99325,-71.42857143,4,2,1,70,0,0
99413,-166.6666667,4,2,1,70,0,0
99502,-45.45454545,4,2,1,70,0,0
99546,-166.6666667,4,2,1,70,0,0
99678,-100,4,2,1,70,0,0
99855,-71.42857143,4,2,1,70,0,0
99943,-166.6666667,4,2,1,70,0,0
100031,-71.42857143,4,2,1,70,0,0
100119,-166.6666667,4,2,1,70,0,0
100208,-45.45454545,4,2,1,70,0,0
100252,-166.6666667,4,2,1,70,0,0
100384,-100,4,2,1,70,0,0
100560,-71.42857143,4,2,1,70,0,0
100649,-166.6666667,4,2,1,70,0,0
100737,-71.42857143,4,2,1,70,0,0
100825,-166.6666667,4,2,1,70,0,0
100913,-100,4,2,1,70,0,0
112914,-62.5,4,2,1,70,0,0
113002,-166.666666666667,4,2,1,70,0,0
113090,-125,4,2,1,70,0,0
113178,-100,4,2,1,70,0,0
113619,-62.5,4,2,1,70,0,0
113707,-166.6666667,4,2,1,70,0,0
113795,-125,4,2,1,70,0,0
113883,-100,4,2,1,70,0,0
114325,-62.5,4,2,1,70,0,0
114413,-166.6666667,4,2,1,70,0,0
114501,-125,4,2,1,70,0,0
114589,-100,4,2,1,70,0,0
115737,-62.5,4,2,1,70,0,0
115825,-166.6666667,4,2,1,70,0,0
115913,-125,4,2,1,70,0,0
116001,-100,4,2,1,70,0,0
116443,-62.5,4,2,1,70,0,0
116531,-166.6666667,4,2,1,70,0,0
116619,-125,4,2,1,70,0,0
116707,-100,4,2,1,70,0,0
117149,-62.5,4,2,1,70,0,0
117237,-166.6666667,4,2,1,70,0,0
117325,-125,4,2,1,70,0,0
117413,-100,4,2,1,70,0,0
118208,-71.4285714285714,4,2,1,70,0,0
118296,-166.666666666667,4,2,1,70,0,0
118384,-100,4,2,1,70,0,0
118561,-62.5,4,2,1,70,0,0
118649,-166.6666667,4,2,1,70,0,0
118737,-125,4,2,1,70,0,0
118825,-100,4,2,1,70,0,0
119266,-62.5,4,2,1,70,0,0
119354,-166.6666667,4,2,1,70,0,0
119442,-125,4,2,1,70,0,0
119530,-100,4,2,1,70,0,0
119972,-62.5,4,2,1,70,0,0
120060,-166.6666667,4,2,1,70,0,0
120148,-125,4,2,1,70,0,0
120236,-100,4,2,1,70,0,0
121384,-62.5,4,2,1,70,0,0
121472,-166.6666667,4,2,1,70,0,0
121560,-125,4,2,1,70,0,0
121648,-100,4,2,1,70,0,0
122090,-62.5,4,2,1,70,0,0
122178,-166.6666667,4,2,1,70,0,0
122266,-125,4,2,1,70,0,0
122354,-100,4,2,1,70,0,0
122796,-62.5,4,2,1,70,0,0
122884,-166.6666667,4,2,1,70,0,0
122972,-125,4,2,1,70,0,0
123060,-100,4,2,1,70,0,0
124031,-71.42857143,4,2,1,70,0,0
124119,-166.6666667,4,2,1,70,0,0
124208,-62.5,4,2,1,70,0,0
124296,-166.6666667,4,2,1,70,0,0
124384,-125,4,2,1,70,0,0
124472,-100,4,2,1,70,0,0
124913,-62.5,4,2,1,70,0,0
125001,-166.6666667,4,2,1,70,0,0
125089,-125,4,2,1,70,0,0
125177,-100,4,2,1,70,0,0
125619,-62.5,4,2,1,70,0,0
125707,-166.6666667,4,2,1,70,0,0
125795,-125,4,2,1,70,0,0
125883,-100,4,2,1,70,0,0
127031,-62.5,4,2,1,70,0,0
127119,-166.6666667,4,2,1,70,0,0
127207,-125,4,2,1,70,0,0
127295,-100,4,2,1,70,0,0
127737,-62.5,4,2,1,70,0,0
127825,-166.6666667,4,2,1,70,0,0
127913,-125,4,2,1,70,0,0
128001,-100,4,2,1,70,0,0
128443,-62.5,4,2,1,70,0,0
128531,-166.6666667,4,2,1,70,0,0
128619,-125,4,2,1,70,0,0
128707,-100,4,2,1,70,0,0
129502,-71.42857143,4,2,1,70,0,0
129590,-166.6666667,4,2,1,70,0,0
129678,-100,4,2,1,70,0,0
129855,-62.5,4,2,1,70,0,0
129943,-166.6666667,4,2,1,70,0,0
130031,-125,4,2,1,70,0,0
130119,-100,4,2,1,70,0,0
130560,-62.5,4,2,1,70,0,0
130648,-166.6666667,4,2,1,70,0,0
130736,-125,4,2,1,70,0,0
130824,-100,4,2,1,70,0,0
131266,-62.5,4,2,1,70,0,0
131354,-166.6666667,4,2,1,70,0,0
131442,-125,4,2,1,70,0,0
131530,-100,4,2,1,70,0,0
131972,-71.4285714285714,4,2,1,70,0,0
132061,-166.666666666667,4,2,1,70,0,0
132149,-100,4,2,1,70,0,0
132325,-200,4,2,1,70,0,0
132414,-111.111111111111,4,2,1,70,0,0
132502,-90.9090909090909,4,2,1,70,0,0
132590,-71.4285714285714,4,2,1,70,0,0
132678,-100,4,2,1,70,0,0
135502,-62.5000009275,4,2,1,70,0,0
135590,-166.666666666667,4,2,1,70,0,0
135678,-125,4,2,1,70,0,0
135766,-100,4,2,1,70,0,0
136031,-71.4285714285714,4,2,1,70,0,0
136119,-166.666666666667,4,2,1,70,0,0
136208,-66.6666666666667,4,2,1,70,0,0
136296,-200,4,2,1,70,0,0
136384,-125,4,2,1,70,0,0
136472,-83.3333333333333,4,2,1,70,0,0
136561,-71.4285714285714,4,2,1,70,0,0
136649,-166.666666666667,4,2,1,70,0,0
136737,-100,4,2,1,70,0,0
137266,-71.4285714285714,4,2,1,70,0,0
137355,-250.000000000001,4,2,1,70,0,0
137443,-125,4,2,1,70,0,0
137531,-71.4285714285714,4,2,1,70,0,0
137619,-100,4,2,1,70,0,0
138325,-62.5,4,2,1,70,0,0
138414,-166.666666666667,4,2,1,70,0,0
138502,-125,4,2,1,70,0,0
138590,-100,4,2,1,70,0,0
138855,-71.4285714285714,4,2,1,70,0,0
138943,-166.666666666667,4,2,1,70,0,0
139031,-66.6666666666667,4,2,1,70,0,0
139119,-200,4,2,1,70,0,0
139208,-125,4,2,1,70,0,0
139296,-83.3333333333333,4,2,1,70,0,0
139384,-71.4285714285714,4,2,1,70,0,0
139472,-166.666666666667,4,2,1,70,0,0
139561,-100,4,2,1,70,0,0
140090,-71.4285714285714,4,2,1,70,0,0
140178,-250.000000000001,4,2,1,70,0,0
140266,-125,4,2,1,70,0,0
140355,-71.4285714285714,4,2,1,70,0,0
140443,-100,4,2,1,70,0,0
140796,-200,4,2,1,70,0,0
140884,-111.111111111111,4,2,1,70,0,0
140972,-90.9090909090909,4,2,1,70,0,0
141061,-71.4285714285714,4,2,1,70,0,0
141149,-62.5,4,2,1,70,0,0
141237,-166.666666666667,4,2,1,70,0,0
141325,-125,4,2,1,70,0,0
141414,-100,4,2,1,70,0,0
141678,-71.4285714285714,4,2,1,70,0,0
141766,-166.666666666667,4,2,1,70,0,0
141855,-66.6666666666667,4,2,1,70,0,0
141943,-200,4,2,1,70,0,0
142031,-125,4,2,1,70,0,0
142119,-83.3333333333333,4,2,1,70,0,0
142208,-71.4285714285714,4,2,1,70,0,0
142296,-166.666666666667,4,2,1,70,0,0
142384,-100,4,2,1,70,0,0
142914,-71.4285714285714,4,2,1,70,0,0
143002,-250,4,2,1,70,0,0
143090,-125,4,2,1,70,0,0
143178,-71.4285714285714,4,2,1,70,0,0
143266,-100,4,2,1,70,0,0
143972,-45.45454545,4,2,1,70,0,0
144016,-166.6666667,4,2,1,70,0,0
144148,-100,4,2,1,70,0,0
144678,-45.45454545,4,2,1,70,0,0
144722,-166.6666667,4,2,1,70,0,0
144854,-100,4,2,1,70,0,0
145384,-45.45454545,4,2,1,70,0,0
145428,-166.6666667,4,2,1,70,0,0
145560,-100,4,2,1,70,0,0
146090,-66.6666666666667,4,2,1,70,0,0
146178,-200,4,2,1,70,0,0
146266,-66.6666666666667,4,2,1,70,0,0
146355,-200,4,2,1,70,0,0
146443,-71.4285714285714,4,2,1,70,0,0
146531,-90.9090909090909,4,2,1,70,0,0
146619,-111.111111111111,4,2,1,70,0,0
146708,-200,4,2,1,70,0,0
146796,-62.50000093,4,2,1,70,0,0
146884,-166.6666667,4,2,1,70,0,0
146972,-125,4,2,1,70,0,0
147060,-100,4,2,1,70,0,0
147325,-71.42857143,4,2,1,70,0,0
147413,-166.6666667,4,2,1,70,0,0
147502,-66.66666667,4,2,1,70,0,0
147590,-200,4,2,1,70,0,0
147678,-125,4,2,1,70,0,0
147766,-83.33333333,4,2,1,70,0,0
147855,-71.42857143,4,2,1,70,0,0
147943,-166.6666667,4,2,1,70,0,0
148031,-100,4,2,1,70,0,0
148560,-71.42857143,4,2,1,70,0,0
148649,-250,4,2,1,70,0,0
148737,-125,4,2,1,70,0,0
148825,-71.42857143,4,2,1,70,0,0
148913,-100,4,2,1,70,0,0
149619,-62.5,4,2,1,70,0,0
149708,-166.6666667,4,2,1,70,0,0
149796,-125,4,2,1,70,0,0
149884,-100,4,2,1,70,0,0
150149,-71.42857143,4,2,1,70,0,0
150237,-166.6666667,4,2,1,70,0,0
150325,-66.66666667,4,2,1,70,0,0
150413,-200,4,2,1,70,0,0
150502,-125,4,2,1,70,0,0
150590,-83.33333333,4,2,1,70,0,0
150678,-62.5000000010938,4,2,1,70,0,0
150766,-166.6666667,4,2,1,70,0,0
150855,-125,4,2,1,70,0,0
150943,-100,4,2,1,70,0,0
151384,-71.42857143,4,2,1,70,0,0
151472,-250,4,2,1,70,0,0
151560,-125,4,2,1,70,0,0
151649,-71.42857143,4,2,1,70,0,0
151737,-100,4,2,1,70,0,0
152443,-62.5,4,2,1,70,0,0
152531,-166.6666667,4,2,1,70,0,0
152619,-125,4,2,1,70,0,0
152708,-100,4,2,1,70,0,0
152972,-71.42857143,4,2,1,70,0,0
153060,-166.6666667,4,2,1,70,0,0
153149,-66.66666667,4,2,1,70,0,0
153237,-200,4,2,1,70,0,0
153325,-125,4,2,1,70,0,0
153413,-83.33333333,4,2,1,70,0,0
153502,-71.42857143,4,2,1,70,0,0
153590,-166.6666667,4,2,1,70,0,0
153678,-100,4,2,1,70,0,0
154208,-71.42857143,4,2,1,70,0,0
154296,-250,4,2,1,70,0,0
154384,-125,4,2,1,70,0,0
154472,-71.42857143,4,2,1,70,0,0
154560,-166.666666666667,4,2,1,70,0,0
154649,-71.4285714285714,4,2,1,70,0,0
154737,-166.666666666667,4,2,1,70,0,0
154825,-71.4285714285714,4,2,1,70,0,0
154914,-166.666666666667,4,2,1,70,0,0
155002,-71.4285714285714,4,2,1,70,0,0
155090,-166.666666666667,4,2,1,70,0,0
155178,-71.4285714285714,4,2,1,70,0,0
155266,-100,4,2,1,70,0,0

[HitObjects]
320,192,11267,1,0,0:0:0:100:FX_IntroKick.wav
448,192,11267,1,0,0:0:0:0:
64,192,11619,1,0,0:0:0:0:
192,192,11796,1,0,0:0:0:100:F#6H_Gb6H_s.wav
448,192,11972,1,0,0:0:0:100:G#6H_Ab6H_s.wav
320,192,12149,1,0,0:0:0:100:E6H_s.wav
192,192,12325,1,0,0:0:0:0:
64,192,12502,1,0,0:0:0:100:C#6H_Db6H_s.wav
320,192,12678,1,0,0:0:0:0:
64,192,13031,1,0,0:0:0:0:
192,192,13090,1,0,0:0:0:100:G#6H_Ab6H_s.wav
448,192,13384,1,0,0:0:0:0:
192,192,13737,1,0,0:0:0:0:
448,192,14090,1,0,0:0:0:0:
64,192,14443,1,0,0:0:0:0:
320,192,14796,1,0,0:0:0:0:
192,192,15149,1,0,0:0:0:0:
448,192,15502,1,0,0:0:0:0:
64,192,15855,1,0,0:0:0:0:
320,192,15914,1,0,0:0:0:100:F#7H_Gb7H_s.wav
320,192,16208,1,0,0:0:0:100:F#7H_Gb7H_s.wav
192,192,16561,1,0,0:0:0:0:
448,192,16914,1,0,0:0:0:0:
192,192,17266,1,0,0:0:0:0:
64,192,17443,1,0,0:0:0:100:F#6H_Gb6H_s.wav
320,192,17619,1,0,0:0:0:100:G#6H_Ab6H_s.wav
448,192,17796,1,0,0:0:0:100:E6H_s.wav
64,192,17972,1,0,0:0:0:0:
192,192,18149,1,0,0:0:0:100:B5H_s.wav
448,192,18325,1,0,0:0:0:0:
320,192,18502,1,0,0:0:0:100:C#6H_Db6H_s.wav
192,192,18678,1,0,0:0:0:0:
64,192,18855,1,0,0:0:0:100:E6H_s.wav
320,192,19031,1,0,0:0:0:0:
448,192,19208,1,0,0:0:0:100:C#6H_Db6H_s.wav
64,192,19384,1,0,0:0:0:0:
320,192,19737,1,0,0:0:0:0:
192,192,20090,1,0,0:0:0:0:
448,192,20443,1,0,0:0:0:0:
64,192,20796,1,0,0:0:0:0:
320,192,21149,1,0,0:0:0:0:
192,192,21502,1,0,0:0:0:100:F#7H_Gb7H_s.wav
448,192,21855,1,0,0:0:0:0:
64,192,22208,1,0,0:0:0:0:
448,192,22561,1,0,0:0:0:0:
192,192,22914,1,0,0:0:0:0:
64,192,23090,1,0,0:0:0:100:F#7H_Gb7H_s.wav
320,192,23266,1,0,0:0:0:100:G#7H_Ab7H_s.wav
448,192,23443,1,0,0:0:0:100:E7H_s.wav
64,192,23619,1,0,0:0:0:0:
192,192,23796,1,0,0:0:0:100:C#7H_Db7H_s.wav
448,192,23972,1,0,0:0:0:0:
192,192,24325,1,0,0:0:0:0:
64,192,24384,1,0,0:0:0:100:G#6H_Ab6H_s.wav
320,192,24678,1,0,0:0:0:0:
64,192,25031,1,0,0:0:0:0:
448,192,25384,1,0,0:0:0:0:
64,192,25737,1,0,0:0:0:0:
320,192,26090,1,0,0:0:0:0:
192,192,26443,1,0,0:0:0:0:
448,192,26796,1,0,0:0:0:0:
64,192,27149,1,0,0:0:0:0:
320,192,27193,1,0,0:0:0:70:G#7H_Ab7H_s.wav
448,192,27502,1,0,0:0:0:100:C#6H_Db6H_s.wav
192,192,27855,1,0,0:0:0:0:
320,192,28208,1,0,0:0:0:0:
64,192,28561,1,0,0:0:0:0:
192,192,28737,1,0,0:0:0:100:F#7H_Gb7H_s.wav
448,192,28914,1,0,0:0:0:100:G#7H_Ab7H_s.wav
320,192,29090,1,0,0:0:0:100:E7H_s.wav
192,192,29266,1,0,0:0:0:0:
64,192,29443,1,0,0:0:0:100:B6H_s.wav
320,192,29619,1,0,0:0:0:0:
448,192,29796,1,0,0:0:0:100:C#7H_Db7H_s.wav
64,192,29972,1,0,0:0:0:0:
192,192,30149,1,0,0:0:0:100:E7H_s.wav
448,192,30325,1,0,0:0:0:0:
320,192,30502,1,0,0:0:0:100:C#7H_Db7H_s.wav
192,192,30678,1,0,0:0:0:0:
448,192,31031,1,0,0:0:0:0:
320,192,31090,1,0,0:0:0:70:G#6H_Ab6H_s.wav
64,192,31384,1,0,0:0:0:0:
320,192,31737,1,0,0:0:0:0:
192,192,32090,1,0,0:0:0:100:E7H_s.wav
448,192,32443,1,0,0:0:0:100:F#7H_Gb7H_s.wav
64,192,32796,1,0,0:0:0:0:
320,192,33149,1,0,0:0:0:0:
192,192,33502,1,0,0:0:0:0:
320,192,33855,128,0,35972:0:0:0:100:FX_IntroKick.wav
448,192,33855,128,0,35972:0:0:0:0:
64,192,36325,128,0,36502:0:0:0:0:
192,192,36502,128,0,36678:0:0:0:0:
320,192,36678,1,0,0:0:0:0:
448,192,36678,1,0,0:0:0:0:
64,192,36943,1,0,0:0:0:0:
192,192,37031,1,0,0:0:0:0:
448,192,37296,1,0,0:0:0:0:
320,192,37384,1,0,0:0:0:0:
64,192,37649,1,0,0:0:0:0:
192,192,37737,1,0,0:0:0:0:
448,192,38002,1,0,0:0:0:0:
320,192,38090,1,0,0:0:0:0:
64,192,38355,1,0,0:0:0:0:
192,192,38443,1,0,0:0:0:0:
448,192,38708,1,0,0:0:0:0:
320,192,38796,128,0,38884:0:0:0:0:
64,192,39061,1,0,0:0:0:0:
192,192,39149,1,0,0:0:0:0:
448,192,39414,1,0,0:0:0:0:
320,192,39502,128,0,41619:0:0:0:0:
448,192,41972,128,0,42149:0:0:0:0:
320,192,42149,128,0,42325:0:0:0:0:
64,192,42325,1,0,0:0:0:0:
192,192,42325,1,0,0:0:0:0:
448,192,42590,1,0,0:0:0:0:
320,192,42678,1,0,0:0:0:0:
64,192,42943,1,0,0:0:0:0:
192,192,43031,1,0,0:0:0:0:
448,192,43296,1,0,0:0:0:0:
320,192,43384,1,0,0:0:0:0:
64,192,43649,1,0,0:0:0:0:
192,192,43737,1,0,0:0:0:0:
448,192,44002,1,0,0:0:0:0:
320,192,44090,1,0,0:0:0:0:
64,192,44355,1,0,0:0:0:0:
192,192,44443,1,0,0:0:0:0:
448,192,44708,1,0,0:0:0:0:
320,192,44796,1,0,0:0:0:0:
64,192,45149,1,0,0:0:0:100:FX_IntroKick.wav
192,192,45149,1,0,0:0:0:50:Kick 13.wav
320,192,45502,1,0,0:0:0:0:
64,192,45855,1,0,0:0:0:50:Kick 13.wav
448,192,45855,1,0,0:0:0:0:
64,192,46208,1,0,0:0:0:0:
320,192,46561,1,0,0:0:0:50:Kick 13.wav
448,192,46561,1,0,0:0:0:0:
192,192,46914,1,0,0:0:0:0:
64,192,47266,1,0,0:0:0:50:Kick 13.wav
320,192,47266,1,0,0:0:0:0:
320,192,47619,1,0,0:0:0:0:
64,192,47972,1,0,0:0:0:50:Kick 13.wav
192,192,47972,1,0,0:0:0:0:
448,192,48325,1,0,0:0:0:0:
192,192,48678,1,0,0:0:0:50:Kick 13.wav
320,192,48678,1,0,0:0:0:0:
192,192,49031,1,0,0:0:0:0:
320,192,49384,1,0,0:0:0:50:Kick 13.wav
448,192,49384,1,0,0:0:0:0:
64,192,49737,1,0,0:0:0:0:
192,192,50090,1,0,0:0:0:50:Kick 13.wav
448,192,50090,1,0,0:0:0:0:
448,192,50443,1,0,0:0:0:0:
64,192,50796,1,0,0:0:0:50:Kick 13.wav
192,192,50796,1,0,0:0:0:0:
320,192,51149,1,0,0:0:0:50:Kick 13.wav
448,192,51149,1,0,0:0:0:0:
64,192,51502,1,0,0:0:0:50:Kick 13.wav
192,192,51502,1,0,0:0:0:0:
320,192,51855,1,0,0:0:0:50:Kick 13.wav
448,192,51855,1,0,0:0:0:0:
64,192,52208,1,0,0:0:0:50:Kick 13.wav
192,192,52208,1,0,0:0:0:0:
64,192,52561,1,0,0:0:0:50:Kick 13.wav
192,192,52561,1,0,0:0:0:0:
320,192,52914,1,0,0:0:0:50:Kick 13.wav
448,192,52914,1,0,0:0:0:0:
320,192,53266,1,0,0:0:0:50:Kick 13.wav
448,192,53266,1,0,0:0:0:0:
64,192,53619,1,0,0:0:0:50:Kick 13.wav
192,192,53619,1,0,0:0:0:0:
448,192,53796,1,0,0:0:0:0:
64,192,53972,1,0,0:0:0:50:Kick 13.wav
192,192,53972,1,0,0:0:0:0:
320,192,54149,1,0,0:0:0:0:
192,192,54237,1,0,0:0:0:0:
320,192,54325,1,0,0:0:0:50:Kick 13.wav
448,192,54325,1,0,0:0:0:0:
64,192,54502,1,0,0:0:0:0:
320,192,54678,1,0,0:0:0:50:Kick 13.wav
448,192,54678,1,0,0:0:0:0:
192,192,54855,1,0,0:0:0:0:
320,192,54943,1,0,0:0:0:0:
64,192,55031,1,0,0:0:0:50:Kick 13.wav
448,192,55031,1,0,0:0:0:0:
192,192,55119,1,0,0:0:0:50:Kick 13.wav
320,192,55208,1,0,0:0:0:50:Kick 13.wav
192,192,55296,1,0,0:0:0:50:Kick 13.wav
64,192,55384,1,0,0:0:0:50:Kick 13.wav
448,192,55384,1,0,0:0:0:0:
320,192,55472,1,0,0:0:0:0:
192,192,55561,1,0,0:0:0:0:
320,192,55649,1,0,0:0:0:0:
448,192,55737,1,0,0:0:0:0:
64,192,56002,1,0,0:0:0:0:
448,192,56090,1,0,0:0:0:0:
320,192,56266,1,0,0:0:0:0:
64,192,56443,128,2,56619:0:0:0:0:
192,192,56443,1,0,0:0:0:0:
448,192,56619,128,0,56796:0:0:0:0:
192,192,56796,1,0,0:0:0:0:
320,192,57149,128,8,57325:0:0:0:0:
448,192,57149,1,2,0:0:0:0:
192,192,57325,128,0,57502:0:0:0:0:
448,192,57502,1,0,0:0:0:0:
64,192,57855,128,2,58031:0:0:0:0:
192,192,57855,1,0,0:0:0:0:
448,192,58031,128,0,58208:0:0:0:0:
192,192,58208,1,0,0:0:0:0:
64,192,58561,128,8,59266:0:0:0:0:
320,192,58561,128,0,58914:0:0:0:0:
192,192,58914,128,2,59266:0:0:0:0:
448,192,58914,1,0,0:0:0:0:
320,192,59266,1,2,0:0:0:0:
448,192,59266,128,0,59443:0:0:0:0:
192,192,59443,128,0,59619:0:0:0:0:
320,192,59619,1,0,0:0:0:0:
64,192,59972,128,8,60149:0:0:0:0:
192,192,59972,1,2,0:0:0:0:
320,192,60149,128,0,60325:0:0:0:0:
192,192,60325,1,0,0:0:0:0:
320,192,60678,1,2,0:0:0:0:
448,192,60678,128,0,60855:0:0:0:0:
192,192,60855,128,0,61031:0:0:0:0:
320,192,61031,1,0,0:0:0:0:
64,192,61384,128,8,61737:0:0:0:0:
448,192,61384,128,0,62090:0:0:0:0:
192,192,61737,1,2,0:0:0:0:
320,192,61737,128,0,62090:0:0:0:0:
64,192,62090,1,2,0:0:0:0:
192,192,62090,128,0,62266:0:0:0:0:
320,192,62266,128,0,62443:0:0:0:0:
64,192,62443,1,0,0:0:0:0:
320,192,62796,1,8,0:0:0:0:
448,192,62796,128,2,62972:0:0:0:0:
64,192,62972,128,0,63149:0:0:0:0:
320,192,63149,1,0,0:0:0:0:
64,192,63502,1,2,0:0:0:0:
192,192,63502,128,0,63678:0:0:0:0:
320,192,63678,128,0,63855:0:0:0:0:
64,192,63855,1,0,0:0:0:0:
448,192,64031,1,0,0:0:0:0:
192,192,64208,128,8,64914:0:0:0:0:
320,192,64208,128,0,64561:0:0:0:0:
64,192,64561,128,2,64914:0:0:0:0:
448,192,64561,1,0,0:0:0:0:
320,192,64914,128,2,65266:0:0:0:0:
448,192,64914,128,0,65443:0:0:0:0:
192,192,65266,128,0,65443:0:0:0:0:
64,192,65619,128,8,65972:0:0:0:0:
320,192,65619,128,2,66149:0:0:0:0:
448,192,65972,128,0,66149:0:0:0:0:
64,192,66325,128,2,66678:0:0:0:0:
192,192,66325,128,0,66855:0:0:0:0:
320,192,66678,128,0,66855:0:0:0:0:
64,192,67031,128,8,67737:0:0:0:0:
448,192,67031,128,0,67384:0:0:0:0:
192,192,67384,128,2,67737:0:0:0:0:
320,192,67384,1,0,0:0:0:0:
320,192,67737,128,2,67914:0:0:0:0:
448,192,67737,1,0,0:0:0:0:
64,192,67914,128,0,68090:0:0:0:0:
448,192,68090,1,0,0:0:0:0:
64,192,68443,1,8,0:0:0:0:
192,192,68443,128,2,68619:0:0:0:0:
448,192,68619,128,0,68796:0:0:0:0:
64,192,68796,1,0,0:0:0:0:
320,192,69149,128,2,69325:0:0:0:0:
448,192,69149,1,0,0:0:0:0:
64,192,69325,128,0,69502:0:0:0:0:
448,192,69502,1,0,0:0:0:0:
192,192,69855,128,8,70208:0:0:0:0:
320,192,69855,128,0,70561:0:0:0:0:
64,192,70208,1,2,0:0:0:0:
448,192,70208,128,0,70561:0:0:0:0:
64,192,70561,128,2,70737:0:0:0:0:
192,192,70561,1,0,0:0:0:0:
448,192,70737,128,0,70914:0:0:0:0:
192,192,70914,1,0,0:0:0:0:
320,192,71266,128,8,71443:0:0:0:0:
448,192,71266,1,2,0:0:0:0:
192,192,71443,128,0,71619:0:0:0:0:
448,192,71619,1,0,0:0:0:0:
448,192,71884,1,0,0:0:0:0:
448,192,72149,1,0,0:0:0:0:
448,192,72414,1,0,0:0:0:0:
192,192,72678,128,8,73384:0:0:0:0:
320,192,72678,128,0,73031:0:0:0:0:
64,192,73031,128,2,73384:0:0:0:0:
448,192,73031,1,0,0:0:0:0:
320,192,73384,1,2,0:0:0:0:
448,192,73384,128,0,73561:0:0:0:0:
192,192,73561,128,0,73737:0:0:0:0:
320,192,73737,1,0,0:0:0:0:
64,192,74090,128,8,74266:0:0:0:0:
192,192,74090,1,2,0:0:0:0:
320,192,74266,128,0,74443:0:0:0:0:
192,192,74443,1,0,0:0:0:0:
320,192,74796,1,2,0:0:0:0:
448,192,74796,128,0,74972:0:0:0:0:
192,192,74972,128,0,75149:0:0:0:0:
320,192,75149,1,0,0:0:0:0:
64,192,75502,128,8,75855:0:0:0:0:
448,192,75502,128,0,76208:0:0:0:0:
192,192,75855,1,2,0:0:0:0:
320,192,75855,128,0,76208:0:0:0:0:
64,192,76208,1,2,0:0:0:0:
192,192,76208,128,0,76561:0:0:0:0:
320,192,76561,1,0,0:0:0:0:
64,192,76737,1,0,0:0:0:0:
320,192,76914,1,0,0:0:0:0:
448,192,76914,128,0,77266:0:0:0:0:
192,192,77266,1,0,0:0:0:0:
320,192,77443,1,0,0:0:0:0:
64,192,77619,128,0,77972:0:0:0:0:
192,192,77619,1,0,0:0:0:0:
448,192,77972,1,0,0:0:0:0:
320,192,79031,1,2,0:0:0:0:
448,192,79031,128,0,79208:0:0:0:0:
192,192,79208,1,0,0:0:0:0:
64,192,79296,1,0,0:0:0:0:
448,192,79384,1,0,0:0:0:0:
192,192,79561,1,2,0:0:0:0:
320,192,79561,1,0,0:0:0:0:
64,192,79737,128,8,79914:0:0:0:0:
448,192,79737,1,0,0:0:0:0:
320,192,79914,1,0,0:0:0:0:
448,192,80002,1,0,0:0:0:0:
64,192,80090,1,2,0:0:0:0:
192,192,80090,1,0,0:0:0:0:
320,192,80266,1,8,0:0:0:0:
448,192,80266,128,0,80443:0:0:0:0:
64,192,80355,1,0,0:0:0:0:
192,192,80443,1,0,0:0:0:0:
320,192,80619,1,2,0:0:0:0:
448,192,80619,1,0,0:0:0:0:
64,192,80796,128,2,80972:0:0:0:0:
192,192,80796,1,0,0:0:0:0:
320,192,80972,1,0,0:0:0:0:
192,192,81061,1,0,0:0:0:0:
64,192,81149,1,8,0:0:0:0:
448,192,81149,128,0,81855:0:0:0:0:
192,192,81325,1,0,0:0:0:0:
64,192,81502,1,2,0:0:0:0:
320,192,81502,128,0,81855:0:0:0:0:
64,192,81855,1,2,0:0:0:0:
192,192,81855,128,0,82031:0:0:0:0:
448,192,82031,1,0,0:0:0:0:
320,192,82119,1,0,0:0:0:0:
192,192,82208,1,0,0:0:0:0:
64,192,82384,1,2,0:0:0:0:
448,192,82384,1,0,0:0:0:0:
192,192,82561,1,8,0:0:0:0:
320,192,82561,128,0,82737:0:0:0:0:
64,192,82737,1,0,0:0:0:0:
192,192,82825,1,0,0:0:0:0:
320,192,82914,1,2,0:0:0:0:
448,192,82914,1,0,0:0:0:0:
64,192,83090,1,8,0:0:0:0:
192,192,83090,128,0,83266:0:0:0:0:
448,192,83178,1,0,0:0:0:0:
320,192,83266,1,0,0:0:0:0:
64,192,83443,1,2,0:0:0:0:
192,192,83443,1,0,0:0:0:0:
320,192,83619,128,2,83796:0:0:0:0:
448,192,83619,1,0,0:0:0:0:
64,192,83796,1,0,0:0:0:0:
448,192,83884,1,0,0:0:0:0:
192,192,83972,128,8,84678:0:0:0:0:
320,192,83972,1,0,0:0:0:0:
448,192,84149,1,0,0:0:0:0:
64,192,84325,128,2,84678:0:0:0:0:
320,192,84325,1,0,0:0:0:0:
320,192,84678,1,2,0:0:0:0:
448,192,84678,128,0,84855:0:0:0:0:
192,192,84855,1,0,0:0:0:0:
64,192,84943,1,0,0:0:0:0:
448,192,85031,1,0,0:0:0:0:
192,192,85208,1,2,0:0:0:0:
320,192,85208,1,0,0:0:0:0:
64,192,85384,128,8,85561:0:0:0:0:
448,192,85384,1,0,0:0:0:0:
320,192,85561,1,0,0:0:0:0:
448,192,85649,1,0,0:0:0:0:
64,192,85737,1,2,0:0:0:0:
192,192,85737,1,0,0:0:0:0:
320,192,85914,1,8,0:0:0:0:
448,192,85914,128,0,86090:0:0:0:0:
64,192,86002,1,0,0:0:0:0:
192,192,86090,1,0,0:0:0:0:
320,192,86266,1,2,0:0:0:0:
448,192,86266,1,0,0:0:0:0:
64,192,86443,128,2,86619:0:0:0:0:
192,192,86443,1,0,0:0:0:0:
320,192,86619,1,0,0:0:0:0:
192,192,86708,1,0,0:0:0:0:
64,192,86796,1,8,0:0:0:0:
448,192,86796,128,0,87502:0:0:0:0:
192,192,86972,1,0,0:0:0:0:
64,192,87149,1,2,0:0:0:0:
320,192,87149,128,0,87502:0:0:0:0:
64,192,87502,128,2,87855:0:0:0:0:
192,192,87502,1,0,0:0:0:0:
320,192,87855,1,0,0:0:0:0:
448,192,88031,1,0,0:0:0:0:
64,192,88208,128,2,88561:0:0:0:0:
192,192,88208,1,0,0:0:0:0:
320,192,88561,1,0,0:0:0:0:
448,192,88737,1,0,0:0:0:0:
64,192,88914,128,2,89266:0:0:0:0:
192,192,88914,1,0,0:0:0:0:
320,192,89266,1,0,0:0:0:0:
448,192,89443,1,0,0:0:0:0:
192,192,89619,1,0,0:0:0:0:
320,192,89796,1,0,0:0:0:0:
192,192,89884,1,0,0:0:0:0:
64,192,89972,1,2,0:0:0:0:
448,192,89972,1,0,0:0:0:0:
320,192,90149,1,0,0:0:0:0:
64,192,90325,1,2,0:0:0:0:
192,192,90325,128,0,90502:0:0:0:0:
320,192,90502,1,0,0:0:0:0:
448,192,90590,1,0,0:0:0:0:
192,192,90678,1,0,0:0:0:0:
64,192,90855,1,2,0:0:0:0:
320,192,90855,1,0,0:0:0:0:
192,192,91031,1,8,0:0:0:0:
448,192,91031,128,0,91208:0:0:0:0:
64,192,91208,1,0,0:0:0:0:
192,192,91296,1,0,0:0:0:0:
320,192,91384,1,2,0:0:0:0:
448,192,91384,1,0,0:0:0:0:
64,192,91561,1,8,0:0:0:0:
192,192,91561,128,0,91737:0:0:0:0:
448,192,91649,1,0,0:0:0:0:
320,192,91737,1,0,0:0:0:0:
64,192,91914,1,2,0:0:0:0:
192,192,91914,1,0,0:0:0:0:
320,192,92090,1,2,0:0:0:0:
448,192,92090,128,0,92266:0:0:0:0:
64,192,92266,1,0,0:0:0:0:
320,192,92355,1,0,0:0:0:0:
192,192,92443,128,8,93149:0:0:0:0:
448,192,92443,1,0,0:0:0:0:
320,192,92619,1,0,0:0:0:0:
64,192,92796,128,2,93149:0:0:0:0:
448,192,92796,1,0,0:0:0:0:
320,192,93149,128,2,93325:0:0:0:0:
448,192,93149,1,0,0:0:0:0:
192,192,93325,1,0,0:0:0:0:
64,192,93414,1,0,0:0:0:0:
320,192,93502,1,0,0:0:0:0:
192,192,93678,1,2,0:0:0:0:
448,192,93678,1,0,0:0:0:0:
64,192,93855,128,8,94031:0:0:0:0:
320,192,93855,1,0,0:0:0:0:
448,192,94031,1,0,0:0:0:0:
320,192,94119,1,0,0:0:0:0:
64,192,94208,1,2,0:0:0:0:
192,192,94208,1,0,0:0:0:0:
320,192,94384,128,8,94561:0:0:0:0:
448,192,94384,1,0,0:0:0:0:
64,192,94472,1,0,0:0:0:0:
192,192,94561,1,0,0:0:0:0:
320,192,94737,1,2,0:0:0:0:
448,192,94737,1,0,0:0:0:0:
64,192,94914,128,2,95090:0:0:0:0:
192,192,94914,1,0,0:0:0:0:
448,192,95090,1,0,0:0:0:0:
192,192,95178,1,0,0:0:0:0:
64,192,95266,1,8,0:0:0:0:
320,192,95266,128,0,95972:0:0:0:0:
192,192,95443,1,0,0:0:0:0:
64,192,95619,1,2,0:0:0:0:
448,192,95619,128,0,95972:0:0:0:0:
64,192,95972,1,2,0:0:0:0:
192,192,95972,128,0,96149:0:0:0:0:
320,192,96149,1,0,0:0:0:0:
448,192,96237,1,0,0:0:0:0:
192,192,96325,1,0,0:0:0:0:
64,192,96502,1,2,0:0:0:0:
320,192,96502,1,0,0:0:0:0:
192,192,96678,1,8,0:0:0:0:
448,192,96678,128,0,96855:0:0:0:0:
64,192,96855,1,0,0:0:0:0:
192,192,96943,1,0,0:0:0:0:
320,192,97031,1,2,0:0:0:0:
448,192,97031,1,0,0:0:0:0:
64,192,97208,1,8,0:0:0:0:
192,192,97208,128,0,97384:0:0:0:0:
448,192,97296,1,0,0:0:0:0:
320,192,97384,1,0,0:0:0:0:
64,192,97561,1,2,0:0:0:0:
192,192,97561,1,0,0:0:0:0:
320,192,97737,1,2,0:0:0:0:
448,192,97737,128,0,97914:0:0:0:0:
64,192,97914,1,0,0:0:0:0:
320,192,98002,1,0,0:0:0:0:
192,192,98090,128,8,98796:0:0:0:0:
448,192,98090,1,0,0:0:0:0:
320,192,98266,1,0,0:0:0:0:
64,192,98443,128,2,98796:0:0:0:0:
448,192,98443,1,0,0:0:0:0:
320,192,98796,1,2,0:0:0:0:
448,192,98796,128,0,99149:0:0:0:0:
192,192,99149,1,0,0:0:0:0:
64,192,99325,1,2,0:0:0:0:
320,192,99502,1,2,0:0:0:0:
448,192,99502,128,0,99855:0:0:0:0:
192,192,99855,1,0,0:0:0:0:
64,192,100031,1,2,0:0:0:0:
320,192,100208,1,2,0:0:0:0:
448,192,100208,128,0,100561:0:0:0:0:
192,192,100561,1,0,0:0:0:0:
64,192,100737,1,2,0:0:0:0:
320,192,100914,1,0,0:0:0:0:
192,192,101090,1,0,0:0:0:0:
320,192,101178,1,0,0:0:0:0:
64,192,101266,1,2,0:0:0:0:
448,192,101266,1,0,0:0:0:0:
192,192,101443,1,0,0:0:0:0:
320,192,101619,1,2,0:0:0:0:
448,192,101619,1,0,0:0:0:0:
192,192,101972,1,0,0:0:0:0:
64,192,102325,1,0,0:0:0:50:Kick 13.wav
448,192,102325,1,0,0:0:0:0:
448,192,102678,1,0,0:0:0:0:
64,192,103031,1,0,0:0:0:50:Kick 13.wav
192,192,103031,1,0,0:0:0:0:
320,192,103384,1,0,0:0:0:0:
192,192,103737,1,0,0:0:0:50:Kick 13.wav
448,192,103737,1,0,0:0:0:0:
192,192,104090,1,0,0:0:0:0:
320,192,104443,1,0,0:0:0:50:Kick 13.wav
448,192,104443,1,0,0:0:0:0:
64,192,104796,1,0,0:0:0:0:
192,192,105149,1,0,0:0:0:50:Kick 13.wav
320,192,105149,1,0,0:0:0:0:
320,192,105502,1,0,0:0:0:0:
64,192,105855,1,0,0:0:0:50:Kick 13.wav
192,192,105855,1,0,0:0:0:0:
448,192,106208,1,0,0:0:0:0:
64,192,106561,1,0,0:0:0:50:Kick 13.wav
320,192,106561,1,0,0:0:0:0:
64,192,106914,1,0,0:0:0:0:
320,192,107266,1,0,0:0:0:50:Kick 13.wav
448,192,107266,1,0,0:0:0:0:
192,192,107443,1,0,0:0:0:0:
448,192,107531,1,0,0:0:0:0:
320,192,107619,1,0,0:0:0:50:Kick 13.wav
64,192,107708,1,0,0:0:0:0:
192,192,107796,1,0,0:0:0:0:
64,192,107972,1,0,0:0:0:50:Kick 13.wav
448,192,107972,1,0,0:0:0:0:
320,192,108149,1,0,0:0:0:0:
448,192,108237,1,0,0:0:0:0:
192,192,108325,1,0,0:0:0:50:Kick 13.wav
64,192,108414,1,0,0:0:0:0:
320,192,108502,1,0,0:0:0:0:
64,192,108678,1,0,0:0:0:50:Kick 13.wav
192,192,108678,1,0,0:0:0:0:
448,192,108855,1,0,0:0:0:0:
192,192,108943,1,0,0:0:0:0:
64,192,109031,1,0,0:0:0:50:Kick 13.wav
320,192,109119,1,0,0:0:0:0:
448,192,109208,1,0,0:0:0:0:
64,192,109296,1,0,0:0:0:0:
192,192,109384,1,0,0:0:0:50:Kick 13.wav
320,192,109384,1,0,0:0:0:0:
64,192,109561,1,0,0:0:0:0:
192,192,109649,1,0,0:0:0:0:
448,192,109737,1,0,0:0:0:50:Kick 13.wav
320,192,109825,1,0,0:0:0:0:
64,192,109914,1,0,0:0:0:0:
192,192,110002,1,0,0:0:0:0:
320,192,110090,1,0,0:0:0:50:Kick 13.wav
448,192,110090,1,0,0:0:0:0:
64,192,110266,1,0,0:0:0:0:
448,192,110355,1,0,0:0:0:0:
320,192,110443,1,0,0:0:0:50:Kick 13.wav
192,192,110531,1,0,0:0:0:0:
64,192,110619,1,0,0:0:0:0:
320,192,110708,1,0,0:0:0:0:
192,192,110796,1,0,0:0:0:50:Kick 13.wav
448,192,110796,1,0,0:0:0:0:
320,192,110972,1,0,0:0:0:0:
448,192,111061,1,0,0:0:0:0:
64,192,111149,1,0,0:0:0:50:Kick 13.wav
192,192,111237,1,0,0:0:0:0:
320,192,111325,1,0,0:0:0:0:
448,192,111414,1,0,0:0:0:0:
64,192,111502,1,0,0:0:0:40:Kick 13.wav
192,192,111502,1,0,0:0:0:0:
320,192,111590,1,0,0:0:0:40:Kick 13.wav
64,192,111678,1,0,0:0:0:40:Kick 13.wav
448,192,111766,1,0,0:0:0:40:Kick 13.wav
320,192,111855,1,0,0:0:0:30:Kick 13.wav
192,192,111943,1,0,0:0:0:30:Kick 13.wav
320,192,112031,1,0,0:0:0:30:Kick 13.wav
64,192,112119,1,0,0:0:0:0:
320,192,112561,1,0,0:0:0:0:
448,192,112737,1,0,0:0:0:0:
64,192,112914,1,2,0:0:0:0:
192,192,112914,1,0,0:0:0:0:
320,192,113178,1,0,0:0:0:0:
320,192,113355,1,0,0:0:0:0:
64,192,113619,1,8,0:0:0:0:
192,192,113619,1,2,0:0:0:0:
448,192,113619,1,0,0:0:0:0:
192,192,113884,1,0,0:0:0:0:
192,192,114061,1,0,0:0:0:0:
320,192,114325,1,2,0:0:0:0:
448,192,114325,1,0,0:0:0:0:
64,192,114590,1,0,0:0:0:0:
64,192,114766,1,0,0:0:0:0:
192,192,115031,1,2,0:0:0:0:
320,192,115031,1,8,0:0:0:0:
448,192,115149,1,0,0:0:0:0:
320,192,115266,1,0,0:0:0:0:
192,192,115384,1,0,0:0:0:0:
64,192,115502,1,0,0:0:0:0:
192,192,115619,1,0,0:0:0:0:
320,192,115737,1,2,0:0:0:0:
448,192,115737,1,0,0:0:0:0:
192,192,116002,1,0,0:0:0:0:
192,192,116178,1,0,0:0:0:0:
64,192,116443,1,2,0:0:0:0:
320,192,116443,1,8,0:0:0:0:
448,192,116443,1,0,0:0:0:0:
320,192,116708,1,0,0:0:0:0:
320,192,116884,1,0,0:0:0:0:
64,192,117149,1,2,0:0:0:0:
192,192,117149,1,0,0:0:0:0:
320,192,117414,1,8,0:0:0:0:
448,192,117414,1,0,0:0:0:0:
448,192,117590,1,0,0:0:0:0:
192,192,117855,1,8,0:0:0:0:
320,192,117855,1,2,0:0:0:0:
64,192,117943,1,0,0:0:0:0:
448,192,118031,1,0,0:0:0:0:
320,192,118119,1,0,0:0:0:0:
192,192,118208,128,0,118384:0:0:0:0:
448,192,118384,1,0,0:0:0:0:
64,192,118561,1,2,0:0:0:0:
192,192,118561,1,0,0:0:0:0:
320,192,118825,1,0,0:0:0:0:
320,192,119002,1,0,0:0:0:0:
64,192,119266,1,2,0:0:0:0:
192,192,119266,1,8,0:0:0:0:
448,192,119266,1,0,0:0:0:0:
64,192,119531,1,0,0:0:0:0:
64,192,119708,1,0,0:0:0:0:
320,192,119972,1,2,0:0:0:0:
448,192,119972,1,0,0:0:0:0:
192,192,120237,1,0,0:0:0:0:
192,192,120414,1,0,0:0:0:0:
64,192,120678,1,8,0:0:0:0:
320,192,120678,1,2,0:0:0:0:
448,192,120796,1,0,0:0:0:0:
320,192,120914,1,0,0:0:0:0:
64,192,121031,1,0,0:0:0:0:
192,192,121149,1,0,0:0:0:0:
64,192,121266,1,0,0:0:0:0:
320,192,121384,1,2,0:0:0:0:
448,192,121384,1,0,0:0:0:0:
192,192,121649,1,0,0:0:0:0:
192,192,121825,1,0,0:0:0:0:
64,192,122090,1,8,0:0:0:0:
320,192,122090,1,2,0:0:0:0:
448,192,122090,1,0,0:0:0:0:
448,192,122355,1,0,0:0:0:0:
448,192,122531,1,0,0:0:0:0:
64,192,122796,1,2,0:0:0:0:
192,192,122796,1,0,0:0:0:0:
320,192,123061,1,0,0:0:0:0:
320,192,123237,1,0,0:0:0:0:
192,192,123502,1,2,0:0:0:0:
448,192,123502,1,8,0:0:0:0:
64,192,123590,1,0,0:0:0:0:
320,192,123678,1,0,0:0:0:0:
192,192,123766,1,0,0:0:0:0:
64,192,123855,128,0,124031:0:0:0:70:kick1.wav
448,192,123855,1,0,0:0:0:0:
320,192,124031,128,0,124208:0:0:0:0:
64,192,124208,1,2,0:0:0:0:
192,192,124208,1,0,0:0:0:0:
448,192,124472,1,2,0:0:0:0:
448,192,124649,1,2,0:0:0:0:
64,192,124914,1,8,0:0:0:0:
192,192,124914,1,2,0:0:0:0:
320,192,124914,1,0,0:0:0:0:
192,192,125178,1,2,0:0:0:0:
192,192,125355,1,2,0:0:0:0:
320,192,125619,1,2,0:0:0:0:
448,192,125619,1,0,0:0:0:0:
64,192,125884,1,2,0:0:0:0:
64,192,126061,1,2,0:0:0:0:
192,192,126325,1,2,0:0:0:0:
448,192,126325,1,8,0:0:0:0:
320,192,126443,1,0,0:0:0:0:
448,192,126561,1,0,0:0:0:0:
192,192,126678,1,0,0:0:0:50:Kick 13.wav
64,192,126796,1,0,0:0:0:0:
192,192,126914,1,0,0:0:0:0:
320,192,127031,1,2,0:0:0:0:
448,192,127031,1,0,0:0:0:0:
192,192,127296,1,2,0:0:0:0:
192,192,127472,1,2,0:0:0:0:
64,192,127737,1,2,0:0:0:0:
320,192,127737,1,8,0:0:0:0:
448,192,127737,1,0,0:0:0:0:
448,192,128002,1,2,0:0:0:0:
448,192,128178,1,2,0:0:0:0:
64,192,128443,1,2,0:0:0:0:
192,192,128443,1,0,0:0:0:0:
320,192,128708,1,8,0:0:0:0:
448,192,128708,1,2,0:0:0:0:
320,192,128884,1,2,0:0:0:0:
192,192,129149,1,8,0:0:0:0:
448,192,129149,1,2,0:0:0:0:
64,192,129237,1,0,0:0:0:0:
320,192,129325,1,0,0:0:0:0:
448,192,129414,1,0,0:0:0:0:
192,192,129502,128,0,129678:0:0:0:0:
320,192,129678,1,0,0:0:0:0:
64,192,129855,1,2,0:0:0:0:
192,192,129855,1,0,0:0:0:0:
448,192,130119,1,2,0:0:0:0:
448,192,130296,1,2,0:0:0:0:
64,192,130561,1,8,0:0:0:0:
192,192,130561,1,2,0:0:0:0:
320,192,130561,1,0,0:0:0:0:
64,192,130825,1,2,0:0:0:0:
64,192,131002,1,2,0:0:0:0:
320,192,131266,1,2,0:0:0:0:
448,192,131266,1,0,0:0:0:0:
192,192,131531,1,2,0:0:0:0:
192,192,131708,1,2,0:0:0:0:
64,192,131972,1,2,0:0:0:0:
448,192,131972,1,8,0:0:0:0:
320,192,132325,128,0,132678:0:0:0:50:Kick 13.wav
192,192,132678,1,0,0:0:0:70:clap10.wav
320,192,133031,1,0,0:0:0:70:clap10.wav
192,192,133384,1,0,0:0:0:70:clap10.wav
320,192,133737,1,0,0:0:0:70:clap10.wav
192,192,134090,1,0,0:0:0:70:clap10.wav
64,192,134266,1,0,0:0:0:0:
320,192,134443,1,0,0:0:0:70:clap10.wav
192,192,134796,1,0,0:0:0:70:clap10.wav
448,192,134972,1,0,0:0:0:0:
320,192,135149,1,0,0:0:0:70:clap10.wav
64,192,135502,1,2,0:0:0:0:
192,192,135502,1,0,0:0:0:0:
64,192,135855,1,0,0:0:0:0:
320,192,136031,1,2,0:0:0:0:
448,192,136031,1,0,0:0:0:0:
64,192,136208,1,8,0:0:0:0:
192,192,136208,1,0,0:0:0:0:
64,192,136561,1,2,0:0:0:0:
448,192,136561,1,0,0:0:0:0:
192,192,136737,1,0,0:0:0:0:
320,192,136825,1,0,0:0:0:0:
64,192,136914,1,0,0:0:0:0:
192,192,137090,1,0,0:0:0:0:
320,192,137178,1,0,0:0:0:0:
448,192,137178,1,0,0:0:0:0:
64,192,137266,1,2,0:0:0:0:
192,192,137266,1,0,0:0:0:0:
64,192,137619,1,8,0:0:0:0:
448,192,137619,1,0,0:0:0:0:
320,192,137737,1,0,0:0:0:0:
448,192,137855,1,0,0:0:0:0:
64,192,137972,1,0,0:0:0:0:
192,192,138090,1,0,0:0:0:0:
64,192,138208,1,0,0:0:0:0:
320,192,138325,1,2,0:0:0:0:
448,192,138325,1,0,0:0:0:0:
448,192,138678,1,0,0:0:0:0:
64,192,138855,1,2,0:0:0:0:
192,192,138855,1,0,0:0:0:0:
320,192,139031,1,8,0:0:0:0:
448,192,139031,1,0,0:0:0:0:
64,192,139384,1,2,0:0:0:0:
448,192,139384,1,0,0:0:0:0:
320,192,139561,1,0,0:0:0:0:
192,192,139649,1,0,0:0:0:0:
448,192,139737,1,0,0:0:0:0:
320,192,139914,1,0,0:0:0:0:
64,192,140002,1,0,0:0:0:0:
192,192,140002,1,0,0:0:0:0:
320,192,140090,1,2,0:0:0:0:
448,192,140090,1,0,0:0:0:0:
64,192,140443,1,8,0:0:0:0:
448,192,140443,1,0,0:0:0:0:
192,192,140561,1,0,0:0:0:0:
64,192,140678,1,0,0:0:0:0:
448,192,140796,128,0,141149:0:0:0:0:
64,192,141149,1,2,0:0:0:0:
192,192,141149,1,0,0:0:0:0:
64,192,141502,1,0,0:0:0:0:
320,192,141678,1,2,0:0:0:0:
448,192,141678,1,0,0:0:0:0:
64,192,141855,1,8,0:0:0:0:
192,192,141855,1,0,0:0:0:0:
64,192,142208,1,2,0:0:0:0:
448,192,142208,1,0,0:0:0:0:
192,192,142384,1,0,0:0:0:0:
320,192,142472,1,0,0:0:0:0:
64,192,142561,1,0,0:0:0:0:
192,192,142737,1,0,0:0:0:0:
320,192,142825,1,0,0:0:0:0:
448,192,142825,1,0,0:0:0:0:
64,192,142914,1,2,0:0:0:0:
192,192,142914,1,0,0:0:0:0:
64,192,143266,1,8,0:0:0:0:
448,192,143266,1,0,0:0:0:0:
320,192,143384,1,0,0:0:0:0:
448,192,143502,1,0,0:0:0:0:
64,192,143619,1,0,0:0:0:0:
192,192,143737,1,0,0:0:0:0:
64,192,143855,1,0,0:0:0:0:
320,192,143972,1,2,0:0:0:0:
448,192,143972,128,0,144325:0:0:0:0:
192,192,144325,128,0,144678:0:0:0:0:
320,192,144678,1,2,0:0:0:0:
448,192,144678,128,0,145031:0:0:0:0:
192,192,145031,128,0,145384:0:0:0:0:
320,192,145384,1,2,0:0:0:0:
448,192,145384,128,0,145737:0:0:0:0:
192,192,145737,128,0,146090:0:0:0:0:
448,192,146090,1,0,0:0:0:0:
320,192,146266,1,0,0:0:0:0:
64,192,146443,128,0,146796:0:0:0:0:
320,192,146796,1,2,0:0:0:0:
448,192,146796,1,0,0:0:0:0:
320,192,147149,1,0,0:0:0:0:
64,192,147325,1,2,0:0:0:0:
192,192,147325,1,0,0:0:0:0:
320,192,147502,1,8,0:0:0:0:
448,192,147502,1,0,0:0:0:0:
192,192,147855,1,2,0:0:0:0:
320,192,147855,1,0,0:0:0:0:
448,192,148031,1,0,0:0:0:0:
64,192,148119,1,0,0:0:0:0:
320,192,148208,1,0,0:0:0:0:
448,192,148384,1,0,0:0:0:0:
64,192,148472,1,0,0:0:0:0:
192,192,148472,1,0,0:0:0:0:
320,192,148561,1,2,0:0:0:0:
448,192,148561,1,0,0:0:0:0:
192,192,148914,1,8,0:0:0:0:
320,192,148914,1,0,0:0:0:0:
64,192,149031,1,0,0:0:0:0:
192,192,149149,1,0,0:0:0:0:
320,192,149266,1,0,0:0:0:0:
448,192,149384,1,0,0:0:0:0:
320,192,149502,1,0,0:0:0:0:
64,192,149619,1,2,0:0:0:0:
192,192,149619,1,0,0:0:0:0:
192,192,149972,1,0,0:0:0:0:
192,192,150149,1,2,0:0:0:0:
448,192,150149,1,0,0:0:0:0:
64,192,150325,1,8,0:0:0:0:
192,192,150325,1,0,0:0:0:0:
192,192,150678,1,2,0:0:0:0:
320,192,150678,1,0,0:0:0:0:
192,192,151031,1,0,0:0:0:0:
320,192,151296,1,0,0:0:0:0:
448,192,151296,1,0,0:0:0:0:
64,192,151384,1,2,0:0:0:0:
192,192,151384,1,0,0:0:0:0:
192,192,151737,1,8,0:0:0:0:
320,192,151737,1,0,0:0:0:0:
448,192,151855,1,0,0:0:0:0:
320,192,151972,1,0,0:0:0:0:
192,192,152090,1,0,0:0:0:0:
64,192,152208,1,0,0:0:0:0:
192,192,152325,1,0,0:0:0:0:
320,192,152443,1,2,0:0:0:0:
448,192,152443,1,0,0:0:0:0:
320,192,152796,1,0,0:0:0:0:
64,192,152972,1,2,0:0:0:0:
192,192,152972,1,0,0:0:0:0:
320,192,153149,1,8,0:0:0:0:
448,192,153149,1,0,0:0:0:0:
192,192,153502,1,2,0:0:0:0:
320,192,153502,1,0,0:0:0:0:
448,192,153678,1,0,0:0:0:0:
64,192,153766,1,0,0:0:0:0:
320,192,153855,1,0,0:0:0:0:
448,192,154031,1,0,0:0:0:0:
64,192,154119,1,0,0:0:0:0:
192,192,154119,1,0,0:0:0:0:
320,192,154208,1,2,0:0:0:0:
448,192,154208,1,0,0:0:0:0:
192,192,154561,1,8,0:0:0:0:
320,192,154561,1,0,0:0:0:0:
448,192,154737,1,0,0:0:0:0:
64,192,154914,1,0,0:0:0:0:
320,192,155090,1,0,0:0:0:0:
64,192,155266,128,2,155796:0:0:0:0:
448,192,155266,1,0,0:0:0:0:
64,192,155972,128,2,156502:0:0:0:0:
320,192,155972,1,0,0:0:0:0:
64,192,156678,128,2,157208:0:0:0:0:
192,192,156678,1,0,0:0:0:0:
64,192,157384,1,2,0:0:0:0:
448,192,157384,128,0,158090:0:0:0:0:
64,192,158090,1,0,0:0:0:100:FX_IntroKick.wav
192,192,158090,1,0,0:0:0:0:
