osu file format v14

[General]
AudioFilename: audio.mp3
AudioLeadIn: 0
PreviewTime: 62087
Countdown: 1
SampleSet: Soft
StackLeniency: 0.4
Mode: 0
LetterboxInBreaks: 0
WidescreenStoryboard: 1

[Editor]
Bookmarks: 183814
DistanceSpacing: 0.9
BeatDivisor: 8
GridSize: 8
TimelineZoom: 3.199999

[Metadata]
Title:GLASS RIVER
TitleUnicode:GLASS RIVER
Artist:sakuraburst
ArtistUnicode:sakuraburst
Creator:Niva
Version:normal
Source:osu!
Tags:mappers' guild featured artist harpsinger singles
BeatmapID:2235408
BeatmapSetID:1061218

[Difficulty]
HPDrainRate:3.5
CircleSize:4
OverallDifficulty:4
ApproachRate:5.5
SliderMultiplier:1.4
SliderTickRate:1

[Events]
//Background and Video events
0,0,"river.jpg",0,0
//Break Periods
//Storyboard Layer 0 (Background)
//Storyboard Layer 1 (Fail)
//Storyboard Layer 2 (Pass)
//Storyboard Layer 3 (Foreground)
//Storyboard Layer 4 (Overlay)
//Storyboard Sound Samples

[TimingPoints]
1195,476.190476190476,4,2,77,25,1,0
1195,-166.666666666667,4,2,77,25,0,0
1254,-166.666666666667,4,2,77,30,0,0
1790,-166.666666666667,4,2,77,5,0,0
1909,-166.666666666667,4,2,77,30,0,0
4052,-166.666666666667,4,2,77,30,0,0
5004,-166.666666666667,4,2,77,25,0,0
5064,-166.666666666667,4,2,77,30,0,0
5599,-166.666666666667,4,2,77,5,0,0
5718,-166.666666666667,4,2,77,30,0,0
7861,-166.666666666667,4,2,77,30,0,0
8814,-166.666666666667,4,2,77,25,0,0
8873,-166.666666666667,4,2,77,30,0,0
9409,-166.666666666667,4,2,77,5,0,0
9528,-166.666666666667,4,2,77,30,0,0
11671,-166.666666666667,4,2,77,30,0,0
12623,-166.666666666667,4,2,77,25,0,0
12683,-166.666666666667,4,2,77,30,0,0
13218,-166.666666666667,4,2,77,5,0,0
13337,-166.666666666667,4,2,77,30,0,0
15480,-166.666666666667,4,2,77,30,0,0
15718,-166.666666666667,4,2,77,40,0,0
15956,-166.666666666667,4,2,77,50,0,0
16194,-166.666666666667,4,2,77,60,0,0
16671,-133.333333333333,4,2,77,85,0,1
18575,-133.333333333333,4,2,77,85,0,1
20004,-133.333333333333,4,2,78,85,0,1
20242,-133.333333333333,4,2,77,85,0,1
26194,-133.333333333333,4,2,77,85,0,1
27623,-133.333333333333,4,2,0,85,0,1
27861,-133.333333333333,4,2,77,85,0,1
33814,-133.333333333333,4,2,77,85,0,1
35242,-133.333333333333,4,2,0,85,0,1
35480,-133.333333333333,4,2,77,85,0,1
41433,-133.333333333333,4,2,77,85,0,1
42861,-133.333333333333,4,2,0,85,0,1
43099,-133.333333333333,4,2,77,85,0,1
46254,-133.333333333333,4,2,77,5,0,1
46433,-133.333333333333,4,2,77,85,0,1
46492,-133.333333333333,4,2,77,5,0,1
46671,-133.333333333333,4,2,77,85,0,1
46730,-133.333333333333,4,2,77,5,0,1
46909,-142.857142857143,4,2,77,85,0,0
46968,-142.857142857143,4,2,0,60,0,0
49766,-142.857142857143,4,2,0,60,0,0
50718,-142.857142857143,4,2,0,60,0,0
53575,-142.857142857143,4,2,0,60,0,0
54528,-142.857142857143,4,2,0,65,0,0
55480,-142.857142857143,4,2,0,70,0,0
57385,-142.857142857143,4,2,0,70,0,0
61194,-142.857142857143,4,2,77,70,0,0
62147,-166.666666666667,4,2,77,85,0,0
62504,-166.666666666667,4,2,77,5,0,0
62623,-166.666666666667,4,2,77,30,0,0
62683,-166.666666666667,4,2,77,5,0,0
63099,-142.857142857143,4,2,77,85,0,0
63159,-142.857142857143,4,2,77,30,0,0
64528,-142.857142857143,4,2,77,85,0,0
65004,-142.857142857143,4,2,77,85,0,0
65718,-142.857142857143,4,2,77,85,0,0
66194,-166.666666666667,4,2,77,85,0,0
66254,-250,4,2,77,30,0,0
66909,-142.857142857143,4,2,77,85,0,0
66968,-142.857142857143,4,2,77,30,0,0
67385,-142.857142857143,4,2,77,85,0,0
67683,-142.857142857143,4,2,77,5,0,0
67861,-142.857142857143,4,2,77,85,0,0
68159,-142.857142857143,4,2,77,5,0,0
68337,-142.857142857143,4,2,77,85,0,0
68814,-142.857142857143,4,2,77,85,0,0
69290,-142.857142857143,4,2,77,85,0,0
69766,-166.666666666667,4,2,77,85,0,0
70123,-166.666666666667,4,2,77,5,0,0
70242,-166.666666666667,4,2,77,30,0,0
70302,-166.666666666667,4,2,77,5,0,0
70718,-142.857142857143,4,2,77,85,0,0
70778,-142.857142857143,4,2,77,30,0,0
71194,-142.857142857143,4,2,77,85,0,0
71254,-142.857142857143,4,2,77,30,0,0
71671,-142.857142857143,4,2,77,85,0,0
71730,-142.857142857143,4,2,77,30,0,0
72147,-142.857142857143,4,2,77,85,0,0
72623,-142.857142857143,4,2,77,85,0,0
73337,-142.857142857143,4,2,77,85,0,0
73814,-166.666666666667,4,2,77,85,0,0
74052,-250,4,2,77,30,0,0
74528,-142.857142857143,4,2,77,85,0,0
74587,-142.857142857143,4,2,77,30,0,0
75004,-142.857142857143,4,2,77,85,0,0
75302,-142.857142857143,4,2,77,5,0,0
75480,-142.857142857143,4,2,77,85,0,0
75778,-142.857142857143,4,2,77,5,0,0
75956,-142.857142857143,4,2,77,85,0,0
76433,-142.857142857143,4,2,77,85,0,0
77147,-166.666666666667,4,2,77,85,0,0
77206,-142.857142857143,4,2,77,5,0,0
77623,-142.857142857143,4,2,77,85,0,0
77683,-142.857142857143,4,2,77,5,0,0
78337,-142.857142857143,4,2,77,85,0,0
78397,-142.857142857143,4,2,77,30,0,0
79766,-142.857142857143,4,2,77,85,0,0
80242,-142.857142857143,4,2,77,85,0,0
80956,-142.857142857143,4,2,77,85,0,0
81433,-166.666666666667,4,2,77,85,0,0
81671,-166.666666666667,4,2,77,30,0,0
82147,-142.857142857143,4,2,77,85,0,0
82206,-142.857142857143,4,2,77,30,0,0
82623,-142.857142857143,4,2,77,85,0,0
82921,-142.857142857143,4,2,77,5,0,0
83099,-142.857142857143,4,2,77,85,0,0
83397,-142.857142857143,4,2,77,5,0,0
83575,-142.857142857143,4,2,77,85,0,0
84052,-142.857142857143,4,2,77,85,0,0
84528,-142.857142857143,4,2,77,85,0,0
85004,-166.666666666667,4,2,77,85,0,0
85361,-166.666666666667,4,2,77,5,0,0
85480,-166.666666666667,4,2,77,30,0,0
85599,-166.666666666667,4,2,77,5,0,0
85956,-142.857142857143,4,2,77,85,0,0
86016,-142.857142857143,4,2,77,30,0,0
86433,-142.857142857143,4,2,77,85,0,0
86492,-142.857142857143,4,2,77,30,0,0
86909,-142.857142857143,4,2,77,85,0,0
86968,-142.857142857143,4,2,77,30,0,0
87385,-142.857142857143,4,2,77,85,0,0
87861,-142.857142857143,4,2,77,85,0,0
88575,-142.857142857143,4,2,77,85,0,0
89052,-166.666666666667,4,2,77,85,0,0
89290,-250,4,2,77,30,0,0
89766,-142.857142857143,4,2,77,85,0,0
89825,-142.857142857143,4,2,77,30,0,0
90242,-142.857142857143,4,2,77,85,0,0
90540,-142.857142857143,4,2,77,5,0,0
90718,-142.857142857143,4,2,77,85,0,0
91016,-142.857142857143,4,2,77,5,0,0
91194,-142.857142857143,4,2,77,85,0,0
91671,-142.857142857143,4,2,77,85,0,0
92147,-142.857142857143,4,2,77,85,0,0
92623,-166.666666666667,4,2,77,50,0,0
93337,-60.6060606060606,4,2,77,85,0,0
93575,-133.333333333333,4,2,77,85,0,1
95004,-133.333333333333,4,2,77,85,0,1
96433,-166.666666666667,4,2,77,50,0,0
97147,-133.333333333333,4,2,77,85,0,0
97385,-133.333333333333,4,2,77,85,0,1
100480,-166.666666666667,4,2,77,50,0,0
100956,-133.333333333333,4,2,77,85,0,0
101194,-133.333333333333,4,2,77,85,0,1
102385,-133.333333333333,4,2,77,85,0,1
104052,-166.666666666667,4,2,77,50,0,0
104766,-133.333333333333,4,2,77,85,0,0
105004,-133.333333333333,4,2,77,85,0,1
107206,-133.333333333333,4,2,77,5,0,1
107385,-133.333333333333,4,2,77,85,0,1
107444,-133.333333333333,4,2,77,5,0,1
107623,-133.333333333333,4,2,77,85,0,1
107683,-133.333333333333,4,2,77,5,0,1
107861,-60.6060606060606,4,2,77,5,0,0
110480,-142.857142857143,4,2,77,70,0,0
111671,-166.666666666667,4,2,77,85,0,0
112028,-250,4,2,77,5,0,0
112147,-250,4,2,77,30,0,0
112266,-250,4,2,77,5,0,0
112623,-142.857142857143,4,2,77,85,0,0
112683,-142.857142857143,4,2,77,30,0,0
114052,-142.857142857143,4,2,77,85,0,0
114528,-142.857142857143,4,2,77,85,0,0
115242,-142.857142857143,4,2,77,85,0,0
115718,-166.666666666667,4,2,77,85,0,0
115956,-250,4,2,77,30,0,0
116433,-142.857142857143,4,2,77,85,0,0
116492,-142.857142857143,4,2,77,30,0,0
116909,-142.857142857143,4,2,77,85,0,0
117206,-142.857142857143,4,2,77,5,0,0
117385,-142.857142857143,4,2,77,85,0,0
117683,-142.857142857143,4,2,77,5,0,0
117861,-142.857142857143,4,2,77,85,0,0
118337,-142.857142857143,4,2,77,85,0,0
118814,-142.857142857143,4,2,77,85,0,0
119290,-166.666666666667,4,2,77,85,0,0
119647,-166.666666666667,4,2,77,5,0,0
119766,-166.666666666667,4,2,77,30,0,0
119825,-166.666666666667,4,2,77,5,0,0
120242,-142.857142857143,4,2,77,85,0,0
120302,-142.857142857143,4,2,77,30,0,0
120718,-142.857142857143,4,2,77,85,0,0
120778,-142.857142857143,4,2,77,30,0,0
121194,-142.857142857143,4,2,77,85,0,0
121254,-142.857142857143,4,2,77,30,0,0
121671,-142.857142857143,4,2,77,85,0,0
122147,-142.857142857143,4,2,77,85,0,0
122861,-142.857142857143,4,2,77,85,0,0
123337,-166.666666666667,4,2,77,85,0,0
123575,-250,4,2,77,30,0,0
124052,-142.857142857143,4,2,77,85,0,0
124111,-142.857142857143,4,2,77,30,0,0
124528,-142.857142857143,4,2,77,85,0,0
124825,-142.857142857143,4,2,77,30,0,0
125004,-142.857142857143,4,2,77,85,0,0
125302,-142.857142857143,4,2,77,30,0,0
125480,-142.857142857143,4,2,77,85,0,0
125956,-142.857142857143,4,2,77,85,0,0
126671,-166.666666666667,4,2,77,85,0,0
126730,-142.857142857143,4,2,77,5,0,0
127147,-142.857142857143,4,2,77,85,0,0
127206,-142.857142857143,4,2,77,5,0,0
127861,-142.857142857143,4,2,77,85,0,0
127921,-142.857142857143,4,2,77,30,0,0
129290,-142.857142857143,4,2,77,85,0,0
129766,-142.857142857143,4,2,77,85,0,0
130480,-142.857142857143,4,2,77,85,0,0
130956,-166.666666666667,4,2,77,85,0,0
131194,-250,4,2,77,30,0,0
131671,-142.857142857143,4,2,77,85,0,0
131730,-142.857142857143,4,2,77,30,0,0
132147,-142.857142857143,4,2,77,85,0,0
132444,-142.857142857143,4,2,77,5,0,0
132623,-142.857142857143,4,2,77,85,0,0
132921,-142.857142857143,4,2,77,5,0,0
133099,-142.857142857143,4,2,77,85,0,0
133575,-142.857142857143,4,2,77,85,0,0
134052,-142.857142857143,4,2,77,85,0,0
134528,-166.666666666667,4,2,77,85,0,0
134885,-166.666666666667,4,2,77,5,0,0
135004,-166.666666666667,4,2,77,30,0,0
135064,-166.666666666667,4,2,77,5,0,0
135480,-142.857142857143,4,2,77,85,0,0
135540,-142.857142857143,4,2,77,30,0,0
135956,-142.857142857143,4,2,77,85,0,0
136016,-142.857142857143,4,2,77,30,0,0
136433,-142.857142857143,4,2,77,85,0,0
136492,-142.857142857143,4,2,77,30,0,0
136909,-142.857142857143,4,2,77,85,0,0
137385,-142.857142857143,4,2,77,85,0,0
138099,-142.857142857143,4,2,77,85,0,0
138575,-166.666666666667,4,2,77,85,0,0
138814,-250,4,2,77,30,0,0
139290,-142.857142857143,4,2,77,85,0,0
139349,-142.857142857143,4,2,77,30,0,0
139766,-142.857142857143,4,2,77,85,0,0
140064,-142.857142857143,4,2,77,30,0,0
140242,-142.857142857143,4,2,77,85,0,0
140540,-142.857142857143,4,2,77,30,0,0
140718,-142.857142857143,4,2,77,85,0,0
141194,-142.857142857143,4,2,77,85,0,0
141671,-142.857142857143,4,2,77,50,0,0
143099,-166.666666666667,4,2,77,30,0,0
145956,-166.666666666667,4,2,77,30,0,0
146909,-166.666666666667,4,2,77,30,0,0
149766,-166.666666666667,4,2,77,30,0,0
150718,-166.666666666667,4,2,77,30,0,0
153575,-166.666666666667,4,2,77,30,0,0
154528,-166.666666666667,4,2,77,30,0,0
156909,-166.666666666667,4,2,77,40,0,0
157147,-166.666666666667,4,2,77,50,0,0
157385,-142.857142857143,4,2,0,60,0,0
166909,-142.857142857143,4,2,0,60,0,0
167861,-142.857142857143,4,2,0,60,0,0
168814,-142.857142857143,4,2,0,60,0,0
169766,-142.857142857143,4,2,0,60,0,0
170718,-142.857142857143,4,2,0,60,0,0
171194,-142.857142857143,4,2,0,60,0,0
171433,-142.857142857143,4,2,0,85,0,0
171671,-142.857142857143,4,2,77,85,0,0
172147,-142.857142857143,4,2,77,60,0,0
172385,-133.333333333333,4,2,77,50,0,0
172623,-142.857142857143,4,2,77,70,0,0
173575,-142.857142857143,4,2,77,70,0,0
175480,-142.857142857143,4,2,77,70,0,0
176433,-142.857142857143,4,2,77,70,0,0
177147,-142.857142857143,4,2,77,70,0,0
179290,-142.857142857143,4,2,77,70,0,0
180242,-166.666666666667,4,2,77,70,0,0
180599,-142.857142857143,4,2,77,5,0,0
180718,-142.857142857143,4,2,77,30,0,0
180778,-142.857142857143,4,2,77,5,0,0
180956,-142.857142857143,4,2,77,70,0,0
183099,-142.857142857143,4,2,77,70,0,0
184052,-142.857142857143,4,2,77,70,0,0
184766,-142.857142857143,4,2,77,70,0,0
186909,-142.857142857143,4,2,77,70,0,0
187623,-166.666666666667,4,2,77,70,0,0
187683,-142.857142857143,4,2,77,5,0,0
188099,-142.857142857143,4,2,77,70,0,0
188159,-142.857142857143,4,2,77,5,0,0
188575,-142.857142857143,4,2,77,70,0,0
190004,-142.857142857143,4,2,77,70,0,0
190718,-142.857142857143,4,2,77,70,0,0
191671,-142.857142857143,4,2,77,70,0,0
192623,-142.857142857143,4,2,77,70,0,0
193814,-142.857142857143,4,2,77,70,0,0
195480,-166.666666666667,4,2,77,70,0,0
195837,-142.857142857143,4,2,77,5,0,0
195956,-142.857142857143,4,2,77,30,0,0
196016,-142.857142857143,4,2,77,5,0,0
196194,-142.857142857143,4,2,77,70,0,0
197623,-142.857142857143,4,2,77,70,0,0
198337,-142.857142857143,4,2,77,70,0,0
199290,-142.857142857143,4,2,77,70,0,0
200242,-142.857142857143,4,2,77,70,0,0
202147,-142.857142857143,4,2,77,70,0,0
202623,-142.857142857143,4,2,77,70,0,0
203099,-142.857142857143,4,2,77,50,0,0

[Colours]
Combo1 : 17,254,176
Combo2 : 173,255,95
Combo3 : 255,88,100
Combo4 : 255,94,55

[HitObjects]
116,117,1195,6,0,P|180:117|249:117,1,125.999996154785,4|2,3:0|0:0,0:0:0:0:
282,134,2147,1,2,0:0:0:0:
375,93,2623,1,2,0:0:0:0:
454,156,3099,1,0,3:0:0:0:
454,156,3337,2,0,P|470:194|452:240,1,83.9999974365235,2|2,0:0|0:0,0:0:0:0:
481,270,4052,1,2,0:0:0:0:
381,289,4528,1,2,0:0:0:0:
328,376,5004,6,0,B|282:370|282:370|250:385|250:385|205:379,1,125.999996154785,4|2,3:0|0:0,0:0:0:0:
162,383,5956,1,2,0:0:0:0:
61,364,6433,1,2,0:0:0:0:
80,266,6909,1,0,3:0:0:0:
80,266,7147,2,0,P|121:271|155:248,1,83.9999974365235,2|2,0:0|0:0,0:0:0:0:
177,209,7861,1,2,0:0:0:0:
256,271,8337,1,2,0:0:0:0:
335,335,8814,6,0,P|376:297|446:301,1,125.999996154785,4|2,3:0|0:0,0:0:0:0:
471,265,9766,1,2,0:0:0:0:
414,184,10242,1,2,0:0:0:0:
491,117,10718,1,0,3:0:0:0:
491,117,10956,2,0,P|519:86|517:46,1,83.9999974365235,2|2,0:0|0:0,0:0:0:0:
494,8,11671,1,2,0:0:0:0:
393,21,12147,1,2,0:0:0:0:
292,34,12623,6,0,P|297:98|303:171,1,125.999996154785,4|2,3:0|0:0,0:0:0:0:
330,193,13575,1,2,0:0:0:0:
255,262,14052,1,2,0:0:0:0:
164,219,14528,1,0,3:0:0:0:
164,219,14766,2,0,L|80:219,1,83.9999974365235,2|2,0:0|0:0,0:0:0:0:
39,201,15480,1,10,0:0:0:0:
0,295,15956,1,10,0:0:0:0:
0,295,16671,6,0,P|45:354|122:343,1,157.500006008148,6|10,1:2|0:0,0:0:0:0:
231,378,17861,1,2,1:2:0:0:
231,378,18099,2,0,B|269:359|269:359|333:360,1,105.000004005432,2|2,0:0|1:2,0:0:0:0:
364,325,18814,1,2,1:2:0:0:
473,363,19290,1,10,0:0:0:0:
505,253,19766,2,0,L|522:199,2,52.5000020027161,2|8|2,1:2|0:0|0:0,0:0:0:0:
511,299,20480,6,0,P|450:252|374:260,1,157.500006008148,2|10,1:2|0:0,0:0:0:0:
279,195,21671,1,2,1:2:0:0:
279,195,21909,2,0,P|237:226|180:225,1,105.000004005432,2|2,0:0|1:2,0:0:0:0:
143,247,22623,1,2,1:2:0:0:
39,197,23099,1,8,0:0:0:0:
39,197,23337,2,0,L|-16:197,2,52.5000020027161,2|2|2,1:2|1:2|0:2,0:0:0:0:
126,120,24290,6,0,B|168:109|199:134|199:134|231:159|274:150,1,157.500006008148,2|10,1:2|0:0,0:0:0:0:
380,106,25480,1,0,1:2:0:0:
380,106,25718,2,0,P|410:157|453:166,1,105.000004005432,2|2,0:0|1:2,0:0:0:0:
491,140,26433,1,2,1:2:0:0:
484,255,26909,1,10,0:0:0:0:
476,370,27385,2,0,L|527:340,2,52.5000020027161,2|10|2,1:2|2:0|0:0,0:0:0:0:
433,350,28099,6,0,B|380:350|380:350|356:359|356:359|332:350|332:350|273:350,1,157.500006008148,2|10,1:2|0:0,0:0:0:0:
168,382,29290,1,2,1:2:0:0:
168,382,29528,2,0,P|127:370|112:310,1,105.000004005432,2|2,0:0|1:2,0:0:0:0:
87,273,30242,1,2,1:2:0:0:
192,225,30718,1,10,0:0:0:0:
192,225,30956,2,0,L|189:173,2,52.5000020027161,2|2|2,1:2|1:2|0:0,0:0:0:0:
300,266,31909,6,0,P|351:263|404:260,1,105.000004005432,6|0,1:2|0:0,0:0:0:0:
441,289,32623,1,10,0:0:0:0:
508,195,33099,1,0,1:2:0:0:
508,195,33337,2,0,P|530:149|505:104,1,105.000004005432,2|2,0:0|1:2,0:0:0:0:
511,57,34052,1,2,1:2:0:0:
399,82,34528,1,10,0:0:0:0:
399,82,34766,2,0,L|340:95,2,52.5000020027161,2|2|10,0:0|1:2|0:0,0:0:0:0:
397,197,35718,6,0,P|343:210|294:222,1,105.000004005432,2|2,1:2|0:0,0:0:0:0:
308,267,36433,2,0,P|271:243|211:244,1,105.000004005432,10|0,0:0|1:2,0:0:0:0:
166,257,37147,1,2,0:0:0:0:
64,203,37623,1,2,1:2:0:0:
64,203,37861,2,0,P|44:158|67:107,1,105.000004005432,2|8,1:2|0:0,0:0:0:0:
111,117,38575,1,2,1:2:0:0:
157,123,38814,2,0,L|150:68,1,52.5000020027161,2|2,1:2|0:0,0:0:0:0:
266,93,39528,6,0,P|317:93|371:93,1,105.000004005432,2|0,1:2|0:0,0:0:0:0:
409,65,40242,1,10,0:0:0:0:
503,132,40718,1,0,1:2:0:0:
503,132,40956,2,0,P|500:189|497:245,1,105.000004005432,2|2,0:0|1:2,0:0:0:0:
509,282,41671,1,2,1:2:0:0:
410,342,42147,1,10,0:0:0:0:
410,342,42385,2,0,L|406:288,2,52.5000020027161,2|2|10,0:0|1:2|0:0,0:0:0:0:
295,335,43337,6,0,P|248:352|197:333,1,105.000004005432,2|2,0:0|0:0,0:0:0:0:
155,355,44052,2,0,P|102:355|50:355,1,105.000004005432,10|2,0:0|1:2,0:0:0:0:
6,373,44766,1,2,0:0:0:0:
0,258,45242,1,2,1:2:0:0:
0,258,45480,2,0,P|-4:206|-8:152,1,105.000004005432,2|8,1:2|0:0,0:0:0:0:
31,127,46194,1,2,0:0:0:0:
72,103,46433,1,2,0:0:0:0:
135,16,46909,6,0,P|159:58|207:66,1,97.9999970092774,4|8,1:2|0:0,0:0:0:0:
295,125,47861,2,0,L|320:73,2,48.9999985046387,10|0|8,0:0|0:0|0:0,0:0:0:0:
214,197,48814,1,0,1:2:0:0:
285,278,49290,1,8,0:0:0:0:
228,369,49766,1,8,0:0:0:0:
228,369,50004,2,0,L|170:369,2,48.9999985046387,2|2|2,0:0|3:0|0:0,0:0:0:0:
269,384,50718,6,0,P|308:355|363:357,1,97.9999970092774,0|8,1:2|0:0,0:0:0:0:
455,311,51671,2,0,L|491:351,2,48.9999985046387,10|0|8,0:0|0:0|0:0,0:0:0:0:
445,203,52623,1,0,1:2:0:0:
340,176,53099,1,8,0:0:0:0:
282,267,53575,1,8,0:0:0:0:
282,267,53814,2,0,L|223:267,2,48.9999985046387,2|2|2,0:0|3:0|0:0,0:0:0:0:
321,286,54528,6,0,P|370:285|401:248,1,97.9999970092774,0|0,1:2|1:2,0:0:0:0:
368,147,55480,2,0,P|415:144|466:140,1,97.9999970092774,2|0,1:2|1:2,0:0:0:0:
417,42,56433,2,0,P|368:45|319:48,1,97.9999970092774,0|0,1:2|1:2,0:0:0:0:
280,69,57147,1,2,1:2:0:0:
280,69,57385,2,0,L|271:19,2,48.9999985046387,0|2|0,1:2|1:2|1:2,0:0:0:0:
300,177,58337,6,0,L|244:173,2,48.9999985046387,0|0|0,1:2|1:2|1:2,0:0:0:0:
296,221,59052,1,0,1:2:0:0:
292,264,59290,2,0,L|347:267,2,48.9999985046387,2|0|0,1:2|1:2|1:2,0:0:0:0:
215,337,60242,2,0,P|169:352|123:335,1,97.9999970092774,0|0,1:2|1:2,0:0:0:0:
83,353,60956,1,2,0:0:0:0:
83,353,61194,2,0,L|32:354,2,48.9999985046387,8|2|2,0:0|0:0|3:0,0:0:0:0:
67,311,61909,1,2,0:0:0:0:
57,270,62147,6,0,B|70:230|70:230|51:186,1,83.9999974365235,0|2,1:2|0:0,0:0:0:0:
129,113,63099,6,0,B|196:145|263:88|263:88|332:29|400:58,1,293.999991027832,8|0,0:0|1:2,0:0:0:0:
502,98,65004,1,8,0:0:0:0:
502,98,65242,2,0,L|513:44,2,48.9999985046387,2|8|2,0:0|0:3|0:0,0:0:0:0:
463,197,66194,6,0,P|455:240|446:289,1,83.9999974365235,0|2,1:2|0:0,0:0:0:0:
464,320,66909,6,0,P|428:351|380:348,1,97.9999970092774,10|0,0:0|0:0,0:0:0:0:
349,380,67623,1,2,0:0:0:0:
244,352,68099,2,0,L|234:293,1,48.9999985046387,2|0,0:0|1:2,0:0:0:0:
263,269,68575,1,2,0:0:0:0:
263,269,68814,2,0,L|253:205,2,48.9999985046387,8|2|8,0:0|0:0|1:3,0:0:0:0:
366,298,69766,6,0,P|408:304|443:282,1,83.9999974365235,0|2,1:2|0:0,0:0:0:0:
400,182,70718,6,0,P|351:179|303:176,1,97.9999970092774,10|2,0:0|0:0,0:0:0:0:
206,224,71671,2,0,P|157:221|109:218,1,97.9999970092774,2|2,0:0|0:0,0:0:0:0:
5,253,72623,1,8,0:0:0:0:
5,253,72861,2,0,L|1:311,2,48.9999985046387,2|8|2,0:0|3:0|0:0,0:0:0:0:
0,147,73814,6,0,P|39:128|51:76,1,83.9999974365235,0|2,1:2|0:0,0:0:0:0:
43,48,74528,6,0,B|80:71|80:71|140:71,1,97.9999970092774,10|0,0:0|0:0,0:0:0:0:
173,91,75242,1,2,0:0:0:0:
279,80,75718,2,0,L|333:80,1,48.9999985046387,2|0,0:0|1:2,0:0:0:0:
367,59,76194,1,2,0:0:0:0:
411,63,76433,2,0,L|418:14,2,48.9999985046387,8|2|8,0:0|0:0|3:0,0:0:0:0:
449,85,77147,6,0,P|465:122|452:161,1,83.9999974365235,2|2,3:0|3:0,0:0:0:0:
471,315,78337,6,0,B|350:305|350:305|308:339|308:339|186:330,1,293.999991027832,10|0,0:0|1:2,0:0:0:0:
82,345,80242,1,8,0:0:0:0:
82,345,80480,2,0,L|51:391,2,48.9999985046387,2|8|2,0:0|3:0|0:0,0:0:0:0:
120,244,81433,6,0,P|114:200|108:150,1,83.9999974365235,0|2,1:2|0:0,0:0:0:0:
95,118,82147,6,0,P|137:142|189:134,1,97.9999970092774,10|0,0:0|0:0,0:0:0:0:
217,164,82861,1,2,0:0:0:0:
323,145,83337,2,0,L|319:211,1,48.9999985046387,2|0,0:0|1:2,0:0:0:0:
357,218,83814,1,2,0:0:0:0:
357,218,84052,2,0,L|354:281,2,48.9999985046387,8|2|8,0:0|0:0|3:0,0:0:0:0:
451,166,85004,6,0,P|466:128|445:85,1,83.9999974365235,0|2,1:2|0:0,0:0:0:0:
350,50,85956,6,0,B|288:50|288:50|256:31,1,97.9999970092774,10|2,0:0|0:0,0:0:0:0:
187,112,86909,2,0,B|156:93|156:93|94:93,1,97.9999970092774,2|2,0:0|0:0,0:0:0:0:
44,190,87861,1,8,0:0:0:0:
44,190,88099,2,0,L|4:163,2,48.9999985046387,2|8|2,0:0|3:0|0:0,0:0:0:0:
87,289,89052,6,0,P|123:269|166:264,1,83.9999974365235,0|2,1:2|0:0,0:0:0:0:
189,226,89766,6,0,P|232:250|281:245,1,97.9999970092774,10|0,0:0|0:0,0:0:0:0:
309,278,90480,1,2,0:0:0:0:
385,202,90956,2,0,L|375:152,1,48.9999985046387,2|0,0:0|1:2,0:0:0:0:
332,143,91433,1,2,0:0:0:0:
303,109,91671,2,0,L|250:109,2,48.9999985046387,8|2|0,0:0|0:0|1:2,0:0:0:0:
303,64,92385,5,2,0:0:0:0:
397,7,92861,2,0,P|428:36|472:38,1,83.9999974365235,2|0,0:0|0:0,0:0:0:0:
512,28,93575,5,10,0:0:0:0:
490,142,94052,1,0,0:0:0:0:
490,142,94290,2,0,P|495:193|500:248,1,105.000004005432,2|2,0:0|1:2,0:0:0:0:
504,293,95004,1,2,1:2:0:0:
393,330,95480,1,10,0:0:0:0:
393,330,95718,2,0,L|399:389,2,52.5000020027161,2|2|2,0:0|1:2|0:0,0:0:0:0:
408,295,96433,6,0,P|346:303|312:254,1,125.999996154785,4|2,0:0|0:0,0:0:0:0:
286,217,97385,6,0,B|308:171|308:171|282:117,1,105.000004005432,10|0,0:0|0:0,0:0:0:0:
310,83,98099,1,2,0:0:0:0:
213,19,98575,1,2,1:2:0:0:
213,19,98814,2,0,P|172:50|119:44,1,105.000004005432,2|8,1:2|0:0,0:0:0:0:
80,70,99528,1,2,1:2:0:0:
39,95,99766,2,0,L|-16:95,1,52.5000020027161,2|2,0:0|0:0,0:0:0:0:
30,192,100480,6,0,P|70:192|113:192,1,83.9999974365235,2|0,0:0|0:0,0:0:0:0:
147,224,101194,5,10,0:0:0:0:
130,340,101671,1,0,0:0:0:0:
130,340,101909,2,0,P|176:311|237:314,1,105.000004005432,2|2,0:0|1:2,0:0:0:0:
263,282,102623,1,2,1:2:0:0:
366,334,103099,1,10,0:0:0:0:
366,334,103337,2,0,L|366:394,2,52.5000020027161,2|2|2,0:0|0:0|0:0,0:0:0:0:
399,312,104052,6,0,B|414:271|388:239|388:239|388:191,1,125.999996154785,4|2,0:0|1:2,0:0:0:0:
415,152,105004,6,0,P|361:144|305:136,1,105.000004005432,10|0,0:2|0:0,0:0:0:0:
274,107,105718,1,2,0:0:0:0:
200,195,106194,1,2,1:2:0:0:
200,195,106433,2,0,P|150:204|106:167,1,105.000004005432,2|8,1:2|0:0,0:0:0:0:
92,217,107147,1,2,1:2:0:0:
72,260,107385,2,0,L|82:320,1,52.5000020027161,2|2,0:0|1:2,0:0:0:0:
80,311,110480,5,2,0:0:0:0:
80,311,110718,2,0,L|86:262,2,48.9999985046387,8|2|8,0:0|0:0|3:0,0:0:0:0:
116,334,111433,1,2,0:0:0:0:
153,357,111671,6,0,P|192:357|245:357,1,83.9999974365235,0|2,1:2|0:0,0:0:0:0:
340,322,112623,6,0,P|480:311|506:177,1,293.999991027832,10|0,0:0|1:2,0:0:0:0:
452,91,114528,1,8,0:0:0:0:
452,91,114766,2,0,L|457:35,2,48.9999985046387,2|8|2,0:0|3:0|0:0,0:0:0:0:
352,129,115718,6,0,P|308:129|261:129,1,83.9999974365235,0|2,1:2|0:0,0:0:0:0:
225,116,116433,6,0,P|184:151|190:193,1,97.9999970092774,10|0,0:0|0:0,0:0:0:0:
214,226,117147,1,2,0:0:0:0:
322,222,117623,2,0,L|382:220,1,48.9999985046387,2|0,0:0|1:2,0:0:0:0:
407,245,118099,1,2,0:0:0:0:
407,245,118337,2,0,L|467:243,2,48.9999985046387,8|2|8,0:0|0:0|3:0,0:0:0:0:
364,343,119290,6,0,P|322:345|274:347,1,83.9999974365235,0|2,1:2|0:0,0:0:0:0:
178,380,120242,6,0,P|127:378|97:338,1,97.9999970092774,10|2,0:0|0:0,0:0:0:0:
46,250,121194,2,0,P|98:244|130:203,1,97.9999970092774,2|2,0:0|0:0,0:0:0:0:
92,110,122147,1,8,0:0:0:0:
92,110,122385,2,0,L|92:56,2,48.9999985046387,2|8|2,0:0|3:0|0:2,0:0:0:0:
198,89,123337,6,0,P|240:89|296:89,1,83.9999974365235,0|2,1:2|0:0,0:0:0:0:
318,63,124052,6,0,P|330:110|373:131,1,97.9999970092774,10|0,0:0|0:0,0:0:0:0:
413,118,124766,1,2,0:0:0:0:
493,191,125242,2,0,L|490:240,1,48.9999985046387,2|0,0:0|1:2,0:0:0:0:
486,283,125718,1,2,0:0:0:0:
484,327,125956,2,0,L|534:322,2,48.9999985046387,8|2|8,0:0|0:0|3:0,0:0:0:0:
481,371,126671,6,0,P|433:377|386:382,1,83.9999974365235,2|2,3:0|3:0,0:0:0:0:
252,298,127861,6,0,B|179:306|144:237|180:172|252:178|252:178|325:183,1,293.999991027832,10|0,0:0|1:2,0:0:0:0:
430,154,129766,1,8,0:0:0:0:
430,154,130004,2,0,L|480:157,2,48.9999985046387,2|8|2,0:0|3:0|0:0,0:0:0:0:
460,53,130956,6,0,P|415:51|370:49,1,83.9999974365235,0|2,1:2|0:0,0:0:0:0:
358,91,131671,6,0,P|319:62|268:61,1,97.9999970092774,10|0,0:0|0:0,0:0:0:0:
252,20,132385,1,2,0:0:0:0:
149,52,132861,2,0,L|94:52,1,48.9999985046387,2|0,0:0|1:2,0:0:0:0:
58,36,133337,1,2,0:0:0:0:
58,36,133575,2,0,L|7:36,2,48.9999985046387,8|2|8,0:0|0:0|3:0,0:0:0:0:
160,0,134528,6,0,P|174:38|158:79,1,83.9999974365235,0|2,1:2|0:0,0:0:0:0:
92,161,135480,6,0,P|96:215|100:264,1,97.9999970092774,10|2,0:0|0:0,0:0:0:0:
40,350,136433,2,0,P|86:361|152:376,1,97.9999970092774,2|2,0:0|0:0,0:0:0:0:
237,334,137385,1,8,0:0:0:0:
237,334,137623,2,0,L|218:286,2,48.9999985046387,2|8|2,0:0|3:0|0:0,0:0:0:0:
340,361,138575,6,0,P|380:373|419:362,1,83.9999974365235,0|2,1:2|0:0,0:0:0:0:
458,383,139290,6,0,P|479:343|527:328,1,97.9999970092774,10|0,0:0|0:0,0:0:0:0:
511,286,140004,1,2,0:0:0:0:
445,202,140480,2,0,L|390:202,1,48.9999985046387,2|0,0:0|1:2,0:0:0:0:
357,223,140956,1,2,0:0:0:0:
313,217,141194,2,0,L|297:263,2,48.9999985046387,8|2|0,0:0|0:0|1:2,0:0:0:0:
281,185,141909,1,2,0:0:0:0:
276,141,142147,5,0,1:2:0:0:
110,202,143099,6,0,P|97:243|85:282,1,83.9999974365235,2|0,0:0|0:0,0:0:0:0:
51,311,143814,2,0,P|83:360|148:356,1,125.999996154785,2|2,0:0|0:0,0:0:0:0:
246,378,145004,1,0,0:0:0:0:
246,378,145242,2,0,L|307:378,2,41.9999987182618,2|2|2,0:0|0:0|0:0,0:0:0:0:
271,280,146194,6,0,P|272:239|273:197,1,83.9999974365235,0|0,0:0|0:0,0:0:0:0:
288,154,146909,2,0,B|233:154|233:154|217:164|217:164|165:164,1,125.999996154785,2|2,0:0|0:0,0:0:0:0:
72,208,148099,1,2,0:0:0:0:
72,208,148337,2,0,P|31:203|4:159,1,83.9999974365235,2|0,0:0|0:0,0:0:0:0:
0,127,149052,2,0,L|10:75,2,41.9999987182618,2|2|2,0:0|0:0|0:0,0:0:0:0:
102,115,150004,6,0,P|142:113|189:111,1,83.9999974365235,2|0,0:0|0:0,0:0:0:0:
223,133,150718,2,0,P|263:131|310:129,1,83.9999974365235,2|0,0:0|0:0,0:0:0:0:
345,106,151433,2,0,P|371:167|429:173,1,125.999996154785,2|2,0:0|0:0,0:0:0:0:
489,253,152623,1,0,0:0:0:0:
489,253,152861,2,0,L|528:229,2,41.9999987182618,2|2|2,0:0|0:0|0:0,0:0:0:0:
505,354,153814,6,0,P|464:347|407:337,1,83.9999974365235
384,316,154528,2,0,P|339:355|275:346,1,125.999996154785,2|2,0:0|0:0,0:0:0:0:
179,373,155718,1,2,0:0:0:0:
179,373,155956,2,0,P|141:373|88:373,1,83.9999974365235,2|0,0:0|0:0,0:0:0:0:
52,283,156909,1,0,0:0:0:0:
9,195,157385,6,0,L|17:89,1,97.9999970092774,4|8,1:2|0:0,0:0:0:0:
120,133,158337,1,10,0:0:0:0:
224,108,158814,1,8,0:0:0:0:
272,11,159290,2,0,P|305:42|370:39,1,97.9999970092774,8|10,0:0|0:0,0:0:0:0:
443,111,160242,1,8,0:0:0:0:
377,197,160718,1,10,0:0:0:0:
420,297,161194,6,0,P|391:333|335:331,1,97.9999970092774,8|8,0:0|0:0,0:0:0:0:
236,365,162147,1,10,0:0:0:0:
206,261,162623,1,8,0:0:0:0:
287,186,163099,2,0,P|334:189|386:192,1,97.9999970092774,8|10,0:0|0:0,0:0:0:0:
465,120,164052,1,8,0:0:0:0:
408,27,164528,1,10,0:0:0:0:
300,48,165004,6,0,L|303:-1,2,48.9999985046387,8|2|8,0:0|0:0|0:0,0:0:0:0:
195,79,165956,2,0,L|163:32,2,48.9999985046387,10|0|8,0:0|0:0|0:0,0:0:0:0:
136,169,166909,2,0,L|79:157,2,48.9999985046387,8|2|8,0:0|0:0|0:0,0:0:0:0:
147,277,167861,2,0,L|77:307,2,48.9999985046387,10|0|8,0:0|0:0|0:0,0:0:0:0:
219,358,168814,6,0,P|263:338|308:317,1,97.9999970092774,8|8,0:0|0:0,0:0:0:0:
350,329,169528,1,2,0:0:0:0:
392,341,169766,2,0,P|415:295|392:255,1,97.9999970092774,10|8,0:0|0:0,0:0:0:0:
418,152,170718,2,0,P|370:158|331:132,1,97.9999970092774,8|10,0:0|0:0,0:0:0:0:
287,141,171433,1,2,0:0:0:0:
243,149,171671,2,0,L|247:100,2,48.9999985046387,8|2|2,0:0|0:0|3:0,0:0:0:0:
134,137,172623,6,0,P|141:213|149:293,1,146.999995513916,0|2,1:2|0:0,0:0:0:0:
124,320,173575,1,10,0:0:0:0:
217,375,174052,1,2,0:0:0:0:
320,343,174528,1,0,1:2:0:0:
320,343,174766,2,0,P|368:343|417:343,1,97.9999970092774,2|2,0:0|0:0,0:0:0:0:
454,367,175480,1,10,0:0:0:0:
495,267,175956,1,2,3:0:0:0:
491,223,176194,1,2,0:0:0:0:
488,178,176433,6,0,P|450:226|369:224,1,146.999995513916,0|2,1:2|0:0,0:0:0:0:
345,261,177385,1,10,0:0:0:0:
237,249,177861,1,2,0:0:0:0:
152,315,178337,1,0,1:2:0:0:
152,315,178575,2,0,P|102:322|63:288,1,97.9999970092774,2|2,0:0|0:0,0:0:0:0:
77,251,179290,1,8,0:0:0:0:
88,208,179528,2,0,L|40:209,2,48.9999985046387,2|8|2,0:0|3:0|0:0,0:0:0:0:
100,165,180242,6,0,P|142:165|190:165,1,83.9999974365235,0|2,1:2|0:0,0:0:0:0:
279,216,181194,5,10,0:0:0:0:
374,165,181671,1,2,0:0:0:0:
469,216,182147,2,0,L|517:216,2,48.9999985046387,0|2|0,3:2|0:0|1:2,0:0:0:0:
492,321,183099,1,10,0:0:0:0:
405,383,183575,1,2,3:0:0:0:
361,374,183814,1,2,0:0:0:0:
318,363,184052,6,0,B|257:363|257:363|236:376|236:376|175:376,1,146.999995513916,0|2,1:2|0:0,0:0:0:0:
131,382,185004,1,10,0:0:0:0:
164,280,185480,1,2,0:0:0:0:
197,178,185956,2,0,P|235:210|282:206,1,97.9999970092774,0|0,1:2|1:2,0:0:0:0:
302,244,186671,1,2,0:0:0:0:
343,259,186909,2,0,L|339:311,2,48.9999985046387,8|2|8,0:0|0:0|3:0,0:0:0:0:
386,252,187623,6,0,P|426:252|482:252,1,83.9999974365235,2|2,3:0|3:0,0:0:0:0:
512,155,188575,5,2,0:0:0:0:
512,155,188814,1,10,0:0:0:0:
421,98,189290,1,2,0:0:0:0:
421,98,189528,2,0,P|385:131|336:127,1,97.9999970092774,2|2,0:0|0:0,0:0:0:0:
299,149,190242,1,2,1:2:0:0:
192,136,190718,1,8,0:0:0:0:
192,136,190956,2,0,L|197:77,2,48.9999985046387,2|2|2,0:0|3:0|0:0,0:0:0:0:
163,169,191671,6,0,P|186:237|259:242,1,146.999995513916,0|2,1:2|0:0,0:0:0:0:
295,233,192623,2,0,P|278:280|303:329,1,97.9999970092774,10|0,0:0|0:0,0:0:0:0:
321,358,193337,1,2,0:0:0:0:
211,352,193814,1,2,0:0:0:0:
211,352,194052,2,0,P|160:352|110:352,1,97.9999970092774,2|8,0:0|0:0,0:0:0:0:
71,335,194766,2,0,L|65:384,2,48.9999985046387,2|8|2,0:0|3:0|0:0,0:0:0:0:
31,318,195480,6,0,B|16:280|16:280|31:239,1,83.9999974365235,0|2,1:2|0:0,0:0:0:0:
137,259,196433,5,10,0:2:0:0:
232,207,196909,1,0,0:0:0:0:
232,207,197147,2,0,P|266:242|316:240,1,97.9999970092774,2|2,0:0|0:0,0:0:0:0:
343,273,197861,1,2,1:2:0:0:
437,221,198337,1,10,0:0:0:0:
437,221,198575,2,0,L|497:221,2,48.9999985046387,2|2|2,0:0|0:3|0:0,0:0:0:0:
397,200,199290,6,0,P|323:200|241:200,1,146.999995513916,0|2,1:2|0:0,0:0:0:0:
216,228,200242,2,0,P|190:189|139:173,1,97.9999970092774,10|0,0:0|0:0,0:0:0:0:
101,186,200956,1,2,0:0:0:0:
59,200,201194,1,0,1:2:0:0:
0,107,201671,1,2,1:2:0:0:
74,30,202147,1,8,0:0:0:0:
74,30,202385,2,0,L|31:0,2,48.9999985046387,2|8|2,0:0|3:0|0:0,0:0:0:0:
110,55,203099,5,0,1:2:0:0:
