osu file format v14

[General]
AudioFilename: audio.mp3
AudioLeadIn: 0
PreviewTime: 62087
Countdown: 1
SampleSet: Soft
StackLeniency: 0.4
Mode: 0
LetterboxInBreaks: 0
WidescreenStoryboard: 1

[Editor]
Bookmarks: 183814
DistanceSpacing: 0.4
BeatDivisor: 8
GridSize: 8
TimelineZoom: 3.199999

[Metadata]
Title:GLASS RIVER
TitleUnicode:GLASS RIVER
Artist:sakuraburst
ArtistUnicode:sakuraburst
Creator:Niva
Version:confluence
Source:osu!
Tags:mappers' guild featured artist harpsinger singles
BeatmapID:2223721
BeatmapSetID:1061218

[Difficulty]
HPDrainRate:5
CircleSize:4.5
OverallDifficulty:8
ApproachRate:8.8
SliderMultiplier:1.4
SliderTickRate:1

[Events]
//Background and Video events
0,0,"river.jpg",0,0
//Break Periods
//Storyboard Layer 0 (Background)
//Storyboard Layer 1 (Fail)
//Storyboard Layer 2 (Pass)
//Storyboard Layer 3 (Foreground)
//Storyboard Layer 4 (Overlay)
//Storyboard Sound Samples

[TimingPoints]
1195,476.190476190476,4,2,77,25,1,0
1195,-117.647058823529,4,2,77,25,0,0
1254,-117.647058823529,4,2,77,30,0,0
1790,-117.647058823529,4,2,77,5,0,0
1909,-117.647058823529,4,2,77,30,0,0
4052,-90.9090909090909,4,2,77,30,0,0
5004,-117.647058823529,4,2,77,25,0,0
5064,-117.647058823529,4,2,77,30,0,0
5599,-117.647058823529,4,2,77,5,0,0
5718,-117.647058823529,4,2,77,30,0,0
7861,-90.9090909090909,4,2,77,30,0,0
8814,-117.647058823529,4,2,77,25,0,0
8873,-117.647058823529,4,2,77,30,0,0
9409,-117.647058823529,4,2,77,5,0,0
9528,-117.647058823529,4,2,77,30,0,0
11671,-90.9090909090909,4,2,77,30,0,0
12623,-117.647058823529,4,2,77,25,0,0
12683,-117.647058823529,4,2,77,30,0,0
13218,-117.647058823529,4,2,77,5,0,0
13337,-117.647058823529,4,2,77,30,0,0
15718,-100,4,2,77,40,0,0
15956,-86.9565217391304,4,2,77,50,0,0
16194,-76.9230769230769,4,2,77,60,0,0
16671,-60.6060606060606,4,2,77,85,0,1
18575,-66.6666666666667,4,2,77,85,0,1
20004,-66.6666666666667,4,2,78,85,0,1
20242,-60.6060606060606,4,2,77,85,0,1
26194,-66.6666666666667,4,2,77,85,0,1
27623,-66.6666666666667,4,2,0,85,0,1
27861,-60.6060606060606,4,2,77,85,0,1
33814,-66.6666666666667,4,2,77,85,0,1
35242,-66.6666666666667,4,2,0,85,0,1
35480,-60.6060606060606,4,2,77,85,0,1
42861,-60.6060606060606,4,2,0,85,0,1
43099,-60.6060606060606,4,2,77,85,0,1
46254,-60.6060606060606,4,2,77,5,0,1
46433,-60.6060606060606,4,2,77,85,0,1
46492,-60.6060606060606,4,2,77,5,0,1
46671,-60.6060606060606,4,2,77,85,0,1
46730,-60.6060606060606,4,2,77,5,0,1
46909,-83.3333333333333,4,2,77,85,0,0
46968,-83.3333333333333,4,2,0,60,0,0
49766,-71.4285714285714,4,2,0,60,0,0
50718,-83.3333333333333,4,2,0,60,0,0
53575,-71.4285714285714,4,2,0,60,0,0
54528,-100,4,2,0,65,0,0
55480,-83.3333333333333,4,2,0,70,0,0
57385,-71.4285714285714,4,2,0,70,0,0
61194,-71.4285714285714,4,2,77,70,0,0
62147,-166.666666666667,4,2,77,85,0,0
62504,-166.666666666667,4,2,77,5,0,0
62623,-166.666666666667,4,2,77,30,0,0
62683,-166.666666666667,4,2,77,5,0,0
63099,-33.3333333333333,4,2,77,85,0,0
63159,-33.3333333333333,4,2,77,30,0,0
64528,-71.4285714285714,4,2,77,85,0,0
65004,-66.6666666666667,4,2,77,85,0,0
65718,-71.4285714285714,4,2,77,85,0,0
66194,-250,4,2,77,85,0,0
66254,-250,4,2,77,30,0,0
66909,-33.3333333333333,4,2,77,85,0,0
66968,-33.3333333333333,4,2,77,30,0,0
67385,-71.4285714285714,4,2,77,85,0,0
67683,-71.4285714285714,4,2,77,5,0,0
67861,-71.4285714285714,4,2,77,85,0,0
68159,-71.4285714285714,4,2,77,5,0,0
68337,-71.4285714285714,4,2,77,85,0,0
68814,-66.6666666666667,4,2,77,85,0,0
69290,-52.6315789473684,4,2,77,85,0,0
69766,-166.666666666667,4,2,77,85,0,0
70123,-166.666666666667,4,2,77,5,0,0
70242,-166.666666666667,4,2,77,30,0,0
70302,-166.666666666667,4,2,77,5,0,0
70718,-33.3333333333333,4,2,77,85,0,0
70778,-33.3333333333333,4,2,77,30,0,0
71194,-40,4,2,77,85,0,0
71254,-40,4,2,77,30,0,0
71671,-50,4,2,77,85,0,0
71730,-50,4,2,77,30,0,0
72147,-71.4285714285714,4,2,77,85,0,0
72623,-66.6666666666667,4,2,77,85,0,0
73337,-71.4285714285714,4,2,77,85,0,0
73814,-250,4,2,77,85,0,0
74052,-250,4,2,77,30,0,0
74528,-33.3333333333333,4,2,77,85,0,0
74587,-33.3333333333333,4,2,77,30,0,0
75004,-71.4285714285714,4,2,77,85,0,0
75302,-71.4285714285714,4,2,77,5,0,0
75480,-71.4285714285714,4,2,77,85,0,0
75778,-71.4285714285714,4,2,77,5,0,0
75956,-71.4285714285714,4,2,77,85,0,0
76433,-66.6666666666667,4,2,77,85,0,0
77147,-71.4285714285714,4,2,77,85,0,0
77206,-71.4285714285714,4,2,77,5,0,0
77623,-71.4285714285714,4,2,77,85,0,0
77683,-71.4285714285714,4,2,77,5,0,0
78337,-33.3333333333333,4,2,77,85,0,0
78397,-33.3333333333333,4,2,77,30,0,0
79766,-71.4285714285714,4,2,77,85,0,0
80242,-66.6666666666667,4,2,77,85,0,0
80956,-71.4285714285714,4,2,77,85,0,0
81433,-250,4,2,77,85,0,0
81671,-250,4,2,77,30,0,0
82147,-33.3333333333333,4,2,77,85,0,0
82206,-33.3333333333333,4,2,77,30,0,0
82623,-71.4285714285714,4,2,77,85,0,0
82921,-71.4285714285714,4,2,77,5,0,0
83099,-71.4285714285714,4,2,77,85,0,0
83397,-71.4285714285714,4,2,77,5,0,0
83575,-71.4285714285714,4,2,77,85,0,0
84052,-66.6666666666667,4,2,77,85,0,0
84528,-52.6315789473684,4,2,77,85,0,0
85004,-166.666666666667,4,2,77,85,0,0
85361,-166.666666666667,4,2,77,5,0,0
85480,-166.666666666667,4,2,77,30,0,0
85599,-166.666666666667,4,2,77,5,0,0
85956,-33.3333333333333,4,2,77,85,0,0
86016,-33.3333333333333,4,2,77,30,0,0
86433,-40,4,2,77,85,0,0
86492,-40,4,2,77,30,0,0
86909,-50,4,2,77,85,0,0
86968,-50,4,2,77,30,0,0
87385,-71.4285714285714,4,2,77,85,0,0
87861,-66.6666666666667,4,2,77,85,0,0
88575,-71.4285714285714,4,2,77,85,0,0
89052,-250,4,2,77,85,0,0
89290,-250,4,2,77,30,0,0
89766,-33.3333333333333,4,2,77,85,0,0
89825,-33.3333333333333,4,2,77,30,0,0
90242,-71.4285714285714,4,2,77,85,0,0
90540,-71.4285714285714,4,2,77,5,0,0
90718,-71.4285714285714,4,2,77,85,0,0
91016,-71.4285714285714,4,2,77,5,0,0
91194,-71.4285714285714,4,2,77,85,0,0
91671,-66.6666666666667,4,2,77,85,0,0
92147,-52.6315789473684,4,2,77,85,0,0
92504,-52.6315789473684,4,2,77,5,0,0
92623,-250,4,2,77,50,0,0
93337,-60.6060606060606,4,2,77,85,0,0
93575,-60.6060606060606,4,2,77,85,0,1
95004,-66.6666666666667,4,2,77,85,0,1
96433,-250,4,2,77,50,0,0
97147,-60.6060606060606,4,2,77,85,0,0
97385,-60.6060606060606,4,2,77,85,0,1
100480,-250,4,2,77,50,0,0
100956,-60.6060606060606,4,2,77,85,0,0
101194,-60.6060606060606,4,2,77,85,0,1
102385,-66.6666666666667,4,2,77,85,0,1
104052,-250,4,2,77,50,0,0
104766,-60.6060606060606,4,2,77,85,0,0
105004,-60.6060606060606,4,2,77,85,0,1
107206,-60.6060606060606,4,2,77,5,0,1
107385,-60.6060606060606,4,2,77,85,0,1
107444,-60.6060606060606,4,2,77,5,0,1
107623,-60.6060606060606,4,2,77,85,0,1
107683,-60.6060606060606,4,2,77,5,0,1
107861,-60.6060606060606,4,2,77,5,0,0
110480,-71.4285714285714,4,2,77,70,0,0
111671,-250,4,2,77,85,0,0
112028,-250,4,2,77,5,0,0
112147,-250,4,2,77,30,0,0
112266,-250,4,2,77,5,0,0
112623,-33.3333333333333,4,2,77,85,0,0
112683,-33.3333333333333,4,2,77,30,0,0
114052,-71.4285714285714,4,2,77,85,0,0
114528,-66.6666666666667,4,2,77,85,0,0
115242,-71.4285714285714,4,2,77,85,0,0
115718,-250,4,2,77,85,0,0
115956,-250,4,2,77,30,0,0
116433,-33.3333333333333,4,2,77,85,0,0
116492,-33.3333333333333,4,2,77,30,0,0
116909,-71.4285714285714,4,2,77,85,0,0
117206,-71.4285714285714,4,2,77,5,0,0
117385,-71.4285714285714,4,2,77,85,0,0
117683,-71.4285714285714,4,2,77,5,0,0
117861,-71.4285714285714,4,2,77,85,0,0
118337,-66.6666666666667,4,2,77,85,0,0
118814,-52.6315789473684,4,2,77,85,0,0
119290,-166.666666666667,4,2,77,85,0,0
119647,-166.666666666667,4,2,77,5,0,0
119766,-166.666666666667,4,2,77,30,0,0
119825,-166.666666666667,4,2,77,5,0,0
120242,-33.3333333333333,4,2,77,85,0,0
120302,-33.3333333333333,4,2,77,30,0,0
120718,-40,4,2,77,85,0,0
120778,-40,4,2,77,30,0,0
121194,-50,4,2,77,85,0,0
121254,-50,4,2,77,30,0,0
121671,-71.4285714285714,4,2,77,85,0,0
122147,-66.6666666666667,4,2,77,85,0,0
122861,-71.4285714285714,4,2,77,85,0,0
123337,-250,4,2,77,85,0,0
123575,-250,4,2,77,30,0,0
124052,-33.3333333333333,4,2,77,85,0,0
124111,-33.3333333333333,4,2,77,30,0,0
124528,-71.4285714285714,4,2,77,85,0,0
124825,-71.4285714285714,4,2,77,30,0,0
125004,-71.4285714285714,4,2,77,85,0,0
125302,-71.4285714285714,4,2,77,30,0,0
125480,-71.4285714285714,4,2,77,85,0,0
125956,-66.6666666666667,4,2,77,85,0,0
126671,-71.4285714285714,4,2,77,85,0,0
126730,-71.4285714285714,4,2,77,5,0,0
127147,-71.4285714285714,4,2,77,85,0,0
127206,-71.4285714285714,4,2,77,5,0,0
127861,-33.3333333333333,4,2,77,85,0,0
127921,-33.3333333333333,4,2,77,30,0,0
129290,-71.4285714285714,4,2,77,85,0,0
129766,-66.6666666666667,4,2,77,85,0,0
130480,-71.4285714285714,4,2,77,85,0,0
130956,-250,4,2,77,85,0,0
131194,-250,4,2,77,30,0,0
131671,-33.3333333333333,4,2,77,85,0,0
131730,-33.3333333333333,4,2,77,30,0,0
132147,-71.4285714285714,4,2,77,85,0,0
132444,-71.4285714285714,4,2,77,5,0,0
132623,-71.4285714285714,4,2,77,85,0,0
132921,-71.4285714285714,4,2,77,5,0,0
133099,-71.4285714285714,4,2,77,85,0,0
133575,-66.6666666666667,4,2,77,85,0,0
134052,-52.6315789473684,4,2,77,85,0,0
134528,-166.666666666667,4,2,77,85,0,0
134885,-166.666666666667,4,2,77,5,0,0
135004,-166.666666666667,4,2,77,30,0,0
135064,-166.666666666667,4,2,77,5,0,0
135480,-33.3333333333333,4,2,77,85,0,0
135540,-33.3333333333333,4,2,77,30,0,0
135956,-40,4,2,77,85,0,0
136016,-40,4,2,77,30,0,0
136433,-50,4,2,77,85,0,0
136492,-50,4,2,77,30,0,0
136909,-71.4285714285714,4,2,77,85,0,0
137385,-66.6666666666667,4,2,77,85,0,0
138099,-71.4285714285714,4,2,77,85,0,0
138575,-250,4,2,77,85,0,0
138814,-250,4,2,77,30,0,0
139290,-33.3333333333333,4,2,77,85,0,0
139349,-33.3333333333333,4,2,77,30,0,0
139766,-71.4285714285714,4,2,77,85,0,0
140064,-71.4285714285714,4,2,77,30,0,0
140242,-71.4285714285714,4,2,77,85,0,0
140540,-71.4285714285714,4,2,77,30,0,0
140718,-71.4285714285714,4,2,77,85,0,0
141194,-66.6666666666667,4,2,77,85,0,0
141671,-52.6315789473684,4,2,77,50,0,0
142028,-52.6315789473684,4,2,77,5,0,0
142147,-52.6315789473684,4,2,77,50,0,0
143099,-125,4,2,77,30,0,0
145956,-166.666666666667,4,2,77,30,0,0
146909,-125,4,2,77,30,0,0
149766,-166.666666666667,4,2,77,30,0,0
150718,-125,4,2,77,30,0,0
153575,-166.666666666667,4,2,77,30,0,0
154528,-125,4,2,77,30,0,0
156909,-125,4,2,77,40,0,0
157147,-125,4,2,77,50,0,0
157385,-83.3333333333333,4,2,0,60,0,0
166909,-66.6666666666667,4,2,0,60,0,0
167861,-55.5555555555556,4,2,0,60,0,0
168814,-47.6190476190476,4,2,0,60,0,0
169766,-41.6666666666667,4,2,0,60,0,0
171194,-71.4285714285714,4,2,0,60,0,0
171433,-71.4285714285714,4,2,0,85,0,0
171671,-66.6666666666667,4,2,77,85,0,0
172147,-133.333333333333,4,2,77,60,0,0
172385,-133.333333333333,4,2,77,50,0,0
172623,-71.4285714285714,4,2,77,70,0,0
175480,-66.6666666666667,4,2,77,70,0,0
176433,-125,4,2,77,70,0,0
177147,-71.4285714285714,4,2,77,70,0,0
179290,-66.6666666666667,4,2,77,70,0,0
180242,-250,4,2,77,70,0,0
180599,-250,4,2,77,5,0,0
180718,-250,4,2,77,30,0,0
180778,-250,4,2,77,5,0,0
180956,-71.4285714285714,4,2,77,70,0,0
183099,-66.6666666666667,4,2,77,70,0,0
184052,-125,4,2,77,70,0,0
184766,-71.4285714285714,4,2,77,70,0,0
186909,-66.6666666666667,4,2,77,70,0,0
187623,-71.4285714285714,4,2,77,70,0,0
187683,-71.4285714285714,4,2,77,5,0,0
188099,-71.4285714285714,4,2,77,70,0,0
188159,-71.4285714285714,4,2,77,5,0,0
188575,-71.4285714285714,4,2,77,70,0,0
190004,-76.9230769230769,4,2,77,70,0,0
190718,-66.6666666666667,4,2,77,70,0,0
191671,-71.4285714285714,4,2,77,70,0,0
193814,-66.6666666666667,4,2,77,70,0,0
195480,-250,4,2,77,70,0,0
195837,-250,4,2,77,5,0,0
195956,-250,4,2,77,30,0,0
196016,-250,4,2,77,5,0,0
196194,-71.4285714285714,4,2,77,70,0,0
197623,-76.9230769230769,4,2,77,70,0,0
198337,-66.6666666666667,4,2,77,70,0,0
199290,-71.4285714285714,4,2,77,70,0,0
202147,-66.6666666666667,4,2,77,70,0,0
202623,-52.6315789473684,4,2,77,70,0,0
203099,-52.6315789473684,4,2,77,50,0,0

[Colours]
Combo1 : 17,254,176
Combo2 : 173,255,95
Combo3 : 255,88,100
Combo4 : 255,94,55

[HitObjects]
236,135,1195,6,0,P|278:188|351:178,1,148.750002837181,4|0,3:0|0:0,0:0:0:0:
451,188,1909,2,0,L|452:159,3,19.8333337116242,2|0|0|2,0:0|0:0|0:0|0:0,0:0:0:0:
451,188,2623,1,2,0:0:0:0:
323,217,2861,1,2,0:0:0:0:
450,269,3099,5,0,3:0:0:0:
329,336,3337,2,0,P|326:274|323:217,1,119.000002269745,2|2,0:0|0:0,0:0:0:0:
323,207,3893,1,2,0:0:0:0:
323,197,3972,1,0,0:0:0:0:
322,187,4052,6,0,P|354:204|393:200,1,77.0000023498536,2|2,0:0|0:0,0:0:0:0:
204,263,4528,2,0,P|173:282|157:317,1,77.0000023498536,2|2,0:0|0:0,0:0:0:0:
44,113,5004,6,0,P|114:114|202:115,1,148.750002837181,4|0,3:0|0:0,0:0:0:0:
290,59,5718,2,0,L|326:60,3,19.8333337116242,2|0|0|2,0:0|0:0|0:0|0:0,0:0:0:0:
290,59,6433,1,2,0:0:0:0:
173,23,6671,1,2,0:0:0:0:
193,146,6909,5,0,3:0:0:0:
95,139,7147,2,0,P|151:135|224:130,1,119.000002269745,2|2,0:0|0:0,0:0:0:0:
220,125,7702,1,2,0:0:0:0:
228,120,7782,1,0,0:0:0:0:
236,114,7861,6,0,P|227:155|246:191,1,77.0000023498536,2|2,0:0|0:0,0:0:0:0:
419,146,8337,2,0,L|334:152,1,77.0000023498536,2|2,0:0|0:0,0:0:0:0:
259,288,8814,6,0,B|207:285|207:285|171:306|171:306|117:303,1,148.750002837181,4|0,3:0|0:0,0:0:0:0:
18,318,9528,2,0,L|15:286,3,19.8333337116242,2|0|0|2,0:0|0:0|0:0|0:0,0:0:0:0:
18,318,10242,1,2,0:0:0:0:
111,202,10480,1,2,0:0:0:0:
5,221,10718,5,0,3:0:0:0:
194,289,10956,2,0,P|253:290|289:237,1,119.000002269745,2|2,0:0|0:0,0:0:0:0:
284,236,11512,1,2,0:0:0:0:
281,226,11591,1,0,0:0:0:0:
278,217,11671,6,0,L|281:136,1,77.0000023498536,2|2,0:0|0:0,0:0:0:0:
359,312,12147,2,0,L|435:316,1,77.0000023498536,2|2,0:0|0:0,0:0:0:0:
505,133,12623,6,0,P|472:202|395:202,1,148.750002837181,4|0,3:0|0:0,0:0:0:0:
297,187,13337,2,0,L|271:187,3,19.8333337116242,2|0|0|2,0:0|0:0|0:0|0:0,0:0:0:0:
297,187,14052,1,2,0:0:0:0:
333,293,14290,1,2,0:0:0:0:
389,204,14528,5,0,3:0:0:0:
243,279,14766,2,0,P|184:278|124:277,1,119.000002269745,2|2,0:0|0:0,0:0:0:0:
117,283,15321,1,2,0:0:0:0:
108,288,15401,1,0,0:0:0:0:
100,293,15480,6,0,L|88:256,1,29.7500005674362,10|0,0:0|0:0,0:0:0:0:
190,215,15718,6,0,L|184:262,1,35,10|0,0:0|0:0,0:0:0:0:
284,270,15956,6,0,L|307:235,1,40.2500007677078,10|0,0:0|0:0,0:0:0:0:
405,323,16194,6,0,L|354:337,1,45.4999979171754,10|0,0:0|0:0,0:0:0:0:
361,335,16671,6,0,P|462:331|499:217,1,231.000002202988,6|2,1:2|0:0,0:0:0:0:
485,217,17226,1,0,0:0:0:0:
470,212,17306,1,0,0:0:0:0:
455,207,17385,2,0,B|437:117|437:117|456:138,1,115.500001101494,10|0,0:0|0:0,0:0:0:0:
365,298,17861,1,2,1:2:0:0:
298,187,18099,2,0,B|258:187|258:187|214:187|220:157|169:157|169:157|130:157,1,173.250001652241,2|0,0:0|0:0,0:0:0:0:
64,205,18575,5,2,1:2:0:0:
153,361,18814,2,0,B|132:313|132:313|150:264,1,105.000004005432,2|0,1:2|0:0,0:0:0:0:
162,271,19131,1,0,0:0:0:0:
173,279,19210,1,0,0:0:0:0:
185,286,19290,2,0,P|134:286|79:286,1,105.000004005432,10|0,0:0|0:0,0:0:0:0:
278,343,19766,1,2,1:2:0:0:
337,230,20004,1,8,0:0:0:0:
456,368,20242,5,2,0:0:0:0:
456,368,20480,2,0,P|529:318|497:191,1,231.000002202988,2|2,1:2|0:0,0:0:0:0:
486,200,21036,1,0,0:0:0:0:
471,205,21115,1,0,0:0:0:0:
456,210,21194,2,0,P|400:207|341:204,1,115.500001101494,10|0,0:0|0:0,0:0:0:0:
249,199,21671,1,2,1:2:0:0:
401,119,21909,2,0,P|399:208|396:301,1,173.250001652241,2|0,0:2|0:0,0:0:0:0:
431,360,22385,5,2,1:2:0:0:
331,384,22623,1,2,1:2:0:0:
228,347,22861,2,0,L|192:368,3,38.5000003671646,0|0|0|8,0:0|0:0|0:0|0:0,0:0:0:0:
154,243,23337,1,2,1:2:0:0:
171,116,23575,1,2,1:2:0:0:
283,35,23814,1,2,0:2:0:0:
283,35,24290,6,0,B|329:32|329:32|349:43|349:43|396:39,1,115.500001101494,2|0,1:2|0:0,0:0:0:0:
499,177,24766,1,0,0:0:0:0:
496,169,24845,1,0,0:0:0:0:
493,161,24925,1,0,0:0:0:0:
490,153,25004,2,0,P|457:198|402:194,1,115.500001101494,10|0,0:0|0:0,0:0:0:0:
276,338,25480,1,0,1:2:0:0:
276,338,25718,2,0,B|339:336|339:336|363:345|363:345|385:333|385:333|451:330,1,173.250001652241,2|0,0:0|0:0,0:0:0:0:
490,267,26194,5,2,1:2:0:0:
358,312,26433,2,0,P|337:265|359:216,1,105.000004005432,2|0,1:2|0:0,0:0:0:0:
344,211,26750,1,0,0:0:0:0:
333,202,26829,1,0,0:0:0:0:
321,193,26909,2,0,P|342:146|319:99,1,105.000004005432,10|0,0:0|0:0,0:0:0:0:
446,6,27385,1,2,1:2:0:0:
474,158,27623,1,10,2:0:0:0:
415,88,27861,5,2,0:0:0:0:
415,88,28099,2,0,B|313:83|313:83|287:100|287:100|190:95,1,231.000002202988,2|2,1:2|0:0,0:0:0:0:
180,82,28655,1,0,0:0:0:0:
173,68,28734,1,0,0:0:0:0:
165,54,28814,2,0,P|162:113|159:177,1,115.500001101494,10|0,0:0|0:0,0:0:0:0:
149,321,29290,1,2,1:2:0:0:
76,259,29528,2,0,P|128:207|221:215,1,173.250001652241,2|0,0:0|0:0,0:0:0:0:
283,157,30004,5,2,1:2:0:0:
160,123,30242,1,2,1:2:0:0:
40,92,30480,1,0,0:0:0:0:
41,81,30560,1,0,0:0:0:0:
42,69,30639,1,0,0:0:0:0:
44,58,30718,1,10,0:0:0:0:
162,151,30956,6,0,L|159:113,1,28.8750002753735,2|0,1:2|0:0,0:0:0:0:
26,249,31194,2,0,L|29:218,1,28.8750002753735,2|0,1:2|0:0,0:0:0:0:
176,329,31433,2,0,L|172:290,1,28.8750002753735,2|0,0:0|0:0,0:0:0:0:
173,300,31909,6,0,P|154:349|97:342,1,115.500001101494,6|0,1:2|0:0,0:0:0:0:
320,325,32385,1,0,0:0:0:0:
301,320,32464,1,0,0:0:0:0:
282,316,32544,1,0,0:0:0:0:
300,338,32623,2,0,P|366:335|419:333,1,115.500001101494,10|0,0:0|0:0,0:0:0:0:
293,200,33099,1,0,1:2:0:0:
293,200,33337,2,0,B|406:196|406:196|428:217|462:216,1,173.250001652241,2|0,0:0|0:0,0:0:0:0:
460,138,33814,5,2,1:2:0:0:
321,144,34052,2,0,P|325:199|329:256,1,105.000004005432,2|0,1:2|0:0,0:0:0:0:
337,259,34369,1,0,0:0:0:0:
345,270,34448,1,0,0:0:0:0:
354,280,34528,2,0,P|318:320|265:302,1,105.000004005432,10|2,0:0|0:0,0:0:0:0:
163,253,35004,1,2,1:2:0:0:
59,336,35242,1,10,0:0:0:0:
231,384,35480,5,0,0:0:0:0:
231,384,35718,2,0,B|267:363|267:363|302:363|302:363|336:345,1,115.500001101494,2|0,1:2|0:0,0:0:0:0:
485,306,36194,1,2,0:0:0:0:
480,296,36274,1,0,0:0:0:0:
474,287,36353,1,0,0:0:0:0:
470,277,36433,2,0,P|414:273|375:231,1,115.500001101494,10|0,0:0|0:0,0:0:0:0:
215,199,36909,1,0,1:2:0:0:
186,383,37147,2,0,P|241:320|336:315,1,173.250001652241,2|0,0:0|0:0,0:0:0:0:
405,337,37623,5,2,1:2:0:0:
350,216,37861,1,2,1:2:0:0:
464,281,38099,2,0,L|505:277,3,38.5000003671646,0|0|0|8,0:0|0:0|0:0|0:0,0:0:0:0:
334,296,38575,1,2,1:2:0:0:
431,208,38814,1,2,1:2:0:0:
413,367,39052,1,2,0:0:0:0:
413,367,39528,6,0,P|469:351|524:336,1,115.500001101494,2|0,1:2|0:0,0:0:0:0:
375,267,40004,1,0,0:0:0:0:
360,271,40083,1,0,0:0:0:0:
347,274,40163,1,0,0:0:0:0:
333,278,40242,2,0,P|363:228|397:172,1,115.500001101494,10|0,0:0|0:0,0:0:0:0:
201,250,40718,1,0,1:2:0:0:
201,250,40956,2,0,P|209:169|217:75,1,173.250001652241,2|0,0:0|0:0,0:0:0:0:
251,150,41433,5,2,1:2:0:0:
294,276,41671,2,0,P|239:266|187:291,1,115.500001101494,2|0,1:2|0:0,0:0:0:0:
176,280,41988,1,0,0:0:0:0:
165,269,42068,1,0,0:0:0:0:
155,258,42147,2,0,P|95:258|40:258,1,115.500001101494,10|2,0:0|0:0,0:0:0:0:
263,187,42623,1,2,1:2:0:0:
165,112,42861,1,10,0:0:0:0:
234,2,43099,5,0,0:0:0:0:
234,2,43337,2,0,P|272:46|332:39,1,115.500001101494,2|0,0:0|1:2,0:0:0:0:
439,113,43814,1,2,0:0:0:0:
445,122,43893,1,0,0:0:0:0:
451,131,43972,1,0,0:0:0:0:
458,141,44052,2,0,P|402:138|342:135,1,115.500001101494,10|0,0:0|0:0,0:0:0:0:
408,10,44528,1,2,1:2:0:0:
486,171,44766,2,0,P|400:166|308:161,1,173.250001652241,2|0,0:0|0:0,0:0:0:0:
228,172,45242,5,2,1:2:0:0:
342,135,45480,1,2,1:2:0:0:
462,96,45718,1,0,0:0:0:0:
476,91,45798,1,0,0:0:0:0:
490,87,45877,1,0,0:0:0:0:
504,82,45956,1,8,0:0:0:0:
352,33,46194,6,0,L|354:4,1,28.8750002753735,2|0,0:0|0:0,0:0:0:0:
340,163,46433,2,0,L|343:135,1,28.8750002753735,2|0,0:0|0:0,0:0:0:0:
326,292,46671,2,0,L|329:264,1,28.8750002753735,2|0,0:0|0:0,0:0:0:0:
416,353,46909,6,0,B|371:365|337:340|337:340|302:315|254:332,1,167.999994873047,4|8,1:2|0:0,0:0:0:0:
91,337,47623,1,0,0:0:0:0:
121,326,47742,1,0,0:0:0:0:
152,316,47861,2,0,P|108:316|65:316,1,83.9999974365235,10|0,0:0|0:0,0:0:0:0:
253,376,48337,1,8,0:0:0:0:
274,258,48575,1,2,0:0:0:0:
348,301,48814,5,0,1:2:0:0:
168,349,49052,2,0,P|87:330|67:256,1,167.999994873047,2|2,0:0|0:0,0:0:0:0:
58,236,49647,1,2,0:0:0:0:
48,217,49766,6,0,L|108:199,1,48.9999985046387,8|0,0:0|0:0,0:0:0:0:
195,255,50004,2,0,L|135:274,1,48.9999985046387,2|0,0:0|0:0,0:0:0:0:
227,122,50242,6,0,L|240:60,1,48.9999985046387,2|0,3:0|0:0,0:0:0:0:
320,220,50480,2,0,L|366:262,1,48.9999985046387,2|0,0:0|0:0,0:0:0:0:
195,255,50718,6,0,B|113:255|113:255|78:284|26:268,1,167.999994873047,0|8,1:2|0:0,0:0:0:0:
202,148,51433,1,0,0:0:0:0:
205,177,51552,1,0,0:0:0:0:
208,206,51671,2,0,P|213:251|219:311,1,83.9999974365235,10|0,0:0|0:0,0:0:0:0:
99,346,52147,1,8,0:0:0:0:
2,262,52385,1,2,0:0:0:0:
59,185,52623,5,0,1:2:0:0:
19,369,52861,2,0,B|76:359|76:359|125:375|125:375|183:364,1,167.999994873047,2|2,0:0|0:0,0:0:0:0:
208,373,53456,1,2,0:0:0:0:
234,381,53575,6,0,L|290:369,1,48.9999985046387,8|0,0:0|0:0,0:0:0:0:
382,384,53814,2,0,L|398:331,1,48.9999985046387,2|0,0:0|0:0,0:0:0:0:
477,252,54052,6,0,L|500:302,1,48.9999985046387,2|0,3:0|0:0,0:0:0:0:
457,129,54290,2,0,L|520:144,1,48.9999985046387,2|0,0:0|0:0,0:0:0:0:
388,4,54528,6,0,P|346:31|292:28,1,105,0|0,1:2|0:0,0:0:0:0:
292,28,55004,2,0,P|343:24|387:52,1,105,0|0,1:2|0:0,0:0:0:0:
363,172,55480,6,0,P|301:176|253:137,1,125.999996154785,2|0,1:2|0:0,0:0:0:0:
253,137,55956,2,0,P|304:170|319:229,1,125.999996154785,0|0,1:2|0:0,0:0:0:0:
373,348,56433,6,0,P|387:310|424:284,1,83.9999974365235,0|2,1:2|1:2,0:0:0:0:
245,310,56909,2,0,P|219:278|215:237,1,83.9999974365235,0|2,1:2|1:2,0:0:0:0:
237,220,57266,1,2,0:0:0:0:
259,203,57385,6,0,L|250:147,1,48.9999985046387,0|0,1:2|0:0,0:0:0:0:
383,169,57623,2,0,L|355:219,1,48.9999985046387,2|0,1:2|0:0,0:0:0:0:
434,288,57861,6,0,L|481:272,1,48.9999985046387,0|0,1:2|0:0,0:0:0:0:
345,204,58099,2,0,L|372:140,1,48.9999985046387,2|0,1:2|0:0,0:0:0:0:
218,175,58337,5,0,1:2:0:0:
218,175,58456,1,0,1:2:0:0:
218,175,58575,2,0,L|212:124,1,48.9999985046387,0|0,1:2|0:0,0:0:0:0:
105,273,58814,5,0,1:2:0:0:
105,273,58933,1,0,1:2:0:0:
105,273,59052,2,0,L|111:333,1,48.9999985046387,0|0,1:2|0:0,0:0:0:0:
296,304,59290,5,2,1:2:0:0:
296,304,59409,1,0,1:2:0:0:
296,304,59528,2,0,L|242:297,1,48.9999985046387,0|0,1:2|0:0,0:0:0:0:
420,225,59766,5,0,1:2:0:0:
420,225,59885,1,0,1:2:0:0:
420,225,60004,2,0,L|474:233,1,48.9999985046387,2|0,1:2|0:0,0:0:0:0:
370,90,60242,5,0,1:2:0:0:
358,122,60361,1,0,1:2:0:0:
329,141,60480,1,2,1:2:0:0:
295,147,60599,1,0,1:2:0:0:
261,136,60718,1,0,1:2:0:0:
240,108,60837,1,0,1:2:0:0:
233,73,60956,5,2,0:0:0:0:
228,86,61075,1,2,0:0:0:0:
222,99,61194,6,0,L|285:96,1,48.9999985046387,8|0,0:0|0:0,0:0:0:0:
386,142,61433,2,0,L|454:138,1,48.9999985046387,2|0,0:0|0:0,0:0:0:0:
229,224,61671,6,0,L|292:221,1,48.9999985046387,2|0,3:0|0:0,0:0:0:0:
393,267,61910,2,0,L|461:263,1,48.9999985046387,2|0,0:0|0:0,0:0:0:0:
294,384,62147,6,0,P|289:355|269:369,1,62.9999980773926,0|0,1:2|0:0,0:0:0:0:
156,380,62623,2,0,L|171:380,1,10.4999996795654,2|0,0:0|0:0,0:0:0:0:
133,368,63099,6,0,L|185:368,22,52.5000020027161,10|2|2|2|2|2|2|2|2|2|2|2|2|2|2|2|2|2|2|2|2|2|2,0:0|0:0|0:0|0:0|0:0|0:0|0:0|0:0|0:0|0:0|0:0|0:0|0:0|0:0|0:0|0:0|0:0|0:0|0:0|0:0|0:0|0:0|0:0,0:0:0:0:
33,384,64528,6,0,P|9:346|34:301,1,97.9999970092774,0|2,1:2|0:0,0:0:0:0:
21,279,64885,1,2,0:0:0:0:
12,256,65004,6,0,L|65:258,1,52.5000020027161,8|0,0:0|0:0,0:0:0:0:
162,296,65242,2,0,L|214:298,1,52.5000020027161,2|0,0:0|0:0,0:0:0:0:
307,345,65480,2,0,L|359:346,1,52.5000020027161,8|0,0:3|0:0,0:0:0:0:
478,369,65718,6,0,B|444:364|444:364|413:359|399:382|371:379|371:379|333:375,1,146.999995513916,2|0,0:0|0:0,0:0:0:0:
231,355,66194,6,0,L|233:324,2,28,0|2|2,1:2|3:0|0:0,0:0:0:0:
147,361,66909,6,0,L|152:296,6,52.5000020027161,10|2|2|2|2|2|2,0:0|0:0|0:0|0:0|0:0|0:0|0:0,0:0:0:0:
63,369,67385,5,0,0:0:0:0:
231,355,67623,2,0,L|264:352,1,24.4999992523194,2|0,0:0|0:0,0:0:0:0:
146,384,67861,5,0,0:0:0:0:
53,266,68099,2,0,L|25:264,1,24.4999992523194,2|0,0:0|0:0,0:0:0:0:
219,206,68337,2,0,P|239:160|217:122,1,97.9999970092774,0|2,1:2|0:0,0:0:0:0:
208,126,68694,1,2,0:0:0:0:
199,130,68814,6,0,L|268:126,1,52.5000020027161,8|0,0:0|0:0,0:0:0:0:
331,4,69052,2,0,L|334:63,1,52.5000020027161,2|0,0:0|0:0,0:0:0:0:
441,128,69290,6,0,B|489:186|457:258|381:250|370:188,1,199.499994672775,8|0,1:3|0:0,0:0:0:0:
305,77,69766,6,0,B|324:68|324:68|348:68|348:68|367:58,1,62.9999980773926,0|0,1:2|0:0,0:0:0:0:
455,21,70242,2,0,L|457:38,1,10.4999996795654,2|2,0:0|0:0,0:0:0:0:
492,48,70718,6,0,L|486:-4,6,52.5000020027161,10|2|2|2|2|2|2,0:0|0:0|0:0|0:0|0:0|0:0|0:0,0:0:0:0:
404,94,71194,2,0,L|364:78,6,43.75,2|2|2|2|2|2|2,0:0|0:0|0:0|0:0|0:0|0:0|0:0,0:0:0:0:
412,190,71671,2,0,L|374:215,6,35,2|2|2|2|2|2|2,0:0|0:0|0:0|0:0|0:0|0:0|0:0,0:0:0:0:
512,245,72147,6,0,P|534:287|513:328,1,97.9999970092774,2|2,0:0|0:0,0:0:0:0:
486,324,72504,1,2,0:0:0:0:
460,318,72623,6,0,L|469:373,1,52.5000020027161,8|0,0:0|0:0,0:0:0:0:
336,296,72861,2,0,L|346:353,1,52.5000020027161,2|0,0:0|0:0,0:0:0:0:
220,333,73099,2,0,L|228:388,1,52.5000020027161,8|0,3:0|0:0,0:0:0:0:
102,314,73337,6,0,P|26:313|5:240,1,146.999995513916,2|0,0:0|0:0,0:0:0:0:
74,192,73814,6,0,L|77:160,2,28,0|2|2,1:2|3:0|0:0,0:0:0:0:
164,155,74528,6,0,P|171:181|164:205,6,52.5000020027161,10|2|2|2|2|2|2,0:0|0:0|0:0|0:0|0:0|0:0|0:0,0:0:0:0:
88,182,75004,5,0,0:0:0:0:
102,339,75242,2,0,L|99:314,1,24.4999992523194,2|0,0:0|0:0,0:0:0:0:
42,250,75480,5,0,0:0:0:0:
195,286,75718,2,0,L|163:278,1,24.4999992523194,2|0,0:0|0:0,0:0:0:0:
297,369,75956,2,0,P|335:339|383:333,1,97.9999970092774,0|2,1:2|0:0,0:0:0:0:
412,338,76314,1,2,0:0:0:0:
440,344,76433,6,0,L|398:306,1,52.5000020027161,8|0,0:0|0:0,0:0:0:0:
297,257,76671,2,0,L|333:218,1,52.5000020027161,2|0,0:0|0:0,0:0:0:0:
223,165,76909,2,0,L|181:128,1,52.5000020027161,8|0,3:0|0:0,0:0:0:0:
92,68,77147,6,0,L|111:48,1,24.4999992523194,2|0,3:0|0:0,0:0:0:0:
111,67,77623,6,0,L|88:48,1,24.4999992523194,2|0,3:0|0:0,0:0:0:0:
474,77,78337,6,0,L|479:23,22,52.5000020027161,10|2|2|2|2|2|2|2|2|2|2|2|2|2|2|2|2|2|2|2|2|2|2,0:0|0:0|0:0|0:0|0:0|0:0|0:0|0:0|0:0|0:0|0:0|0:0|0:0|0:0|0:0|0:0|0:0|0:0|0:0|0:0|0:0|0:0|0:0,0:0:0:0:
511,163,79766,6,0,P|480:198|434:188,1,97.9999970092774,0|2,1:2|0:0,0:0:0:0:
410,202,80123,1,2,0:0:0:0:
385,215,80242,6,0,L|406:166,1,52.5000020027161,8|0,0:0|0:0,0:0:0:0:
268,265,80480,2,0,L|298:311,1,52.5000020027161,2|0,0:0|0:0,0:0:0:0:
170,191,80718,2,0,L|212:159,1,52.5000020027161,8|0,3:0|0:0,0:0:0:0:
63,257,80956,6,0,P|0:233|4:160,1,146.999995513916,2|0,0:0|0:0,0:0:0:0:
47,81,81433,6,0,L|73:104,2,28,0|2|2,1:2|3:0|0:0,0:0:0:0:
153,131,82147,6,0,L|107:93,6,52.5000020027161,10|2|2|2|2|2|2,0:0|0:0|0:0|0:0|0:0|0:0|0:0,0:0:0:0:
134,218,82623,5,0,0:0:0:0:
273,137,82861,2,0,L|251:117,1,24.4999992523194,2|0,0:0|0:0,0:0:0:0:
255,225,83099,5,0,0:0:0:0:
394,145,83337,2,0,L|372:125,1,24.4999992523194,2|0,0:0|0:0,0:0:0:0:
376,232,83575,6,0,P|427:234|478:236,1,97.9999970092774,0|2,1:2|0:0,0:0:0:0:
493,245,83933,1,2,0:0:0:0:
512,254,84052,6,0,L|508:200,1,52.5000020027161,8|0,0:0|0:0,0:0:0:0:
489,370,84290,2,0,L|539:385,1,52.5000020027161,2|0,0:0|0:0,0:0:0:0:
386,290,84528,6,0,B|336:270|290:306|290:306|246:341|199:323,1,199.499994672775,8|0,3:0|0:0,0:0:0:0:
141,252,85004,6,0,B|152:222|152:222|137:183,1,62.9999980773926,0|0,1:2|0:0,0:0:0:0:
62,223,85480,2,0,L|37:223,1,20.9999993591309,2|0,0:0|0:0,0:0:0:0:
0,241,85956,6,0,L|52:241,6,52.5000020027161,10|2|2|2|2|2|2,0:0|0:0|0:0|0:0|0:0|0:0|0:0,0:0:0:0:
132,327,86433,2,0,L|81:327,6,43.75,2|2|2|2|2|2|2,0:0|0:0|0:0|0:0|0:0|0:0|0:0,0:0:0:0:
207,253,86909,2,0,L|258:253,6,35,2|2|2|2|2|2|2,0:0|0:0|0:0|0:0|0:0|0:0|0:0,0:0:0:0:
285,339,87385,6,0,P|333:339|383:339,1,97.9999970092774,2|2,0:0|0:0,0:0:0:0:
406,352,87742,1,2,0:0:0:0:
431,365,87861,6,0,P|457:362|450:338,1,52.5000020027161,8|0,0:0|0:0,0:0:0:0:
366,219,88099,2,0,P|363:249|383:260,1,52.5000020027161,2|0,0:0|0:0,0:0:0:0:
483,170,88337,2,0,P|497:150|488:120,1,52.5000020027161,8|0,3:0|0:0,0:0:0:0:
394,42,88575,6,0,B|340:47|340:47|304:28|304:28|252:33,1,146.999995513916,2|0,0:0|0:0,0:0:0:0:
214,113,89052,6,0,L|202:138,2,28,0|2|2,1:2|3:0|0:0,0:0:0:0:
131,0,89766,6,0,L|159:44,6,52.5000020027161,10|2|2|2|2|2|2,0:0|0:0|0:0|0:0|0:0|0:0|0:0,0:0:0:0:
81,87,90242,5,0,0:0:0:0:
19,208,90480,2,0,L|39:170,1,24.4999992523194,2|2,0:0|0:0,0:0:0:0:
4,112,90718,5,0,0:0:0:0:
130,173,90956,2,0,L|101:159,1,24.4999992523194,2|0,0:0|0:0,0:0:0:0:
160,44,91194,2,0,P|206:60|252:47,1,97.9999970092774,0|2,1:2|0:0,0:0:0:0:
266,69,91552,1,2,0:0:0:0:
284,87,91671,6,0,L|340:86,1,52.5000020027161,8|0,0:0|0:0,0:0:0:0:
178,170,91909,2,0,L|123:172,1,52.5000020027161,2|0,0:0|0:0,0:0:0:0:
195,18,92147,6,0,L|192:89,1,66.4999982242585,0|0,1:2|0:0,0:0:0:0:
281,174,92385,2,0,L|279:242,1,66.4999982242585,2|0,0:0|0:0,0:0:0:0:
253,358,92861,6,0,L|316:353,1,56,2|0,0:0|0:0,0:0:0:0:
322,359,93417,1,0,0:0:0:0:
335,365,93496,1,0,0:0:0:0:
348,371,93575,6,0,P|385:333|445:333,1,115.500001101494,10|0,0:0|0:0,0:0:0:0:
417,180,94052,1,0,0:0:0:0:
500,242,94290,2,0,P|443:302|342:266,1,173.250001652241,2|0,0:0|0:0,0:0:0:0:
281,318,94766,5,2,1:2:0:0:
155,294,95004,2,0,P|101:294|49:294,1,105.000004005432,2|0,1:2|0:0,0:0:0:0:
40,303,95321,1,0,0:0:0:0:
29,312,95401,1,0,0:0:0:0:
18,321,95480,2,0,P|-22:294|-9:229,1,105.000004005432,10|2,0:0|0:0,0:0:0:0:
32,110,95956,1,2,1:2:0:0:
138,202,96194,1,2,0:0:0:0:
67,344,96433,5,0,0:0:0:0:
67,344,96671,2,0,L|56:282,1,56,2|2,0:0|0:0,0:0:0:0:
67,279,97226,1,0,0:0:0:0:
79,270,97306,1,0,0:0:0:0:
90,260,97385,6,0,P|82:209|73:146,1,115.500001101494,10|0,0:0|0:0,0:0:0:0:
54,6,97861,1,0,0:0:0:0:
0,118,98099,2,0,B|73:113|73:113|114:148|167:129,1,173.250001652241,2|0,0:0|0:0,0:0:0:0:
238,161,98575,5,2,1:2:0:0:
280,19,98814,1,2,1:2:0:0:
133,48,99052,2,0,L|126:1,3,38.5000003671646,0|0|0|8,0:0|0:0|0:0|0:0,0:0:0:0:
25,70,99528,5,2,1:2:0:0:
159,90,99766,1,2,0:0:0:0:
310,113,100004,1,2,0:0:0:0:
310,113,100480,6,0,L|250:126,1,56,2|0,0:0|0:0,0:0:0:0:
241,130,101036,1,0,0:0:0:0:
226,134,101115,1,0,0:0:0:0:
211,138,101194,6,0,P|237:193|295:192,1,115.500001101494,10|0,0:0|0:0,0:0:0:0:
412,113,101671,1,0,0:0:0:0:
313,57,101909,2,0,P|316:146|319:243,1,173.250001652241,2|0,0:0|0:0,0:0:0:0:
259,292,102385,5,2,1:2:0:0:
374,378,102623,2,0,P|427:380|460:333,1,105.000004005432,2|0,1:2|0:0,0:0:0:0:
452,329,102941,1,0,0:0:0:0:
447,315,103020,1,0,0:0:0:0:
442,301,103099,2,0,B|492:283|492:283|546:300,1,105.000004005432,10|2,0:0|0:0,0:0:0:0:
318,229,103575,1,2,0:0:0:0:
216,301,103814,1,2,0:0:0:0:
91,229,104052,5,0,0:0:0:0:
91,229,104290,2,0,L|94:170,1,56,2|2,0:0|1:2,0:0:0:0:
107,166,104845,1,0,0:0:0:0:
120,158,104925,1,0,0:0:0:0:
133,151,105004,6,0,P|79:159|34:124,1,115.500001101494,10|0,0:2|0:0,0:0:0:0:
226,52,105480,1,0,0:0:0:0:
270,206,105718,2,0,P|316:150|409:159,1,173.250001652241,2|0,0:0|0:0,0:0:0:0:
461,96,106194,5,2,1:2:0:0:
512,220,106433,1,2,1:2:0:0:
410,307,106671,1,0,0:0:0:0:
412,321,106750,1,0,0:0:0:0:
414,335,106829,1,0,0:0:0:0:
417,349,106909,1,8,0:0:0:0:
292,251,107147,6,0,L|260:275,1,28.8750002753735,2|0,1:2|0:0,0:0:0:0:
151,186,107385,2,0,L|145:229,1,28.8750002753735,2|0,0:0|0:0,0:0:0:0:
7,211,107623,2,0,L|24:245,1,28.8750002753735,2|0,1:2|0:0,0:0:0:0:
19,236,110480,5,2,0:0:0:0:
13,223,110599,1,2,0:0:0:0:
7,211,110718,6,0,L|46:172,1,48.9999985046387,8|0,0:0|0:0,0:0:0:0:
43,83,110956,2,0,L|-1:60,1,48.9999985046387,2|0,0:0|0:0,0:0:0:0:
143,14,111194,6,0,L|135:62,1,48.9999985046387,8|0,3:0|0:0,0:0:0:0:
198,135,111433,2,0,L|246:127,1,48.9999985046387,2|0,0:0|0:0,0:0:0:0:
156,251,111671,6,0,L|135:209,1,42,0|0,1:2|0:0,0:0:0:0:
61,292,112147,2,0,L|73:316,1,14,2|0,0:0|0:0,0:0:0:0:
50,337,112623,6,0,L|24:281,22,52.5000020027161,10|2|2|2|2|2|2|2|2|2|2|2|2|2|2|2|2|2|2|2|2|2|2,0:0|0:0|0:0|0:0|0:0|0:0|0:0|0:0|0:0|0:0|0:0|0:0|0:0|0:0|0:0|0:0|0:0|0:0|0:0|0:0|0:0|0:0|0:0,0:0:0:0:
145,303,114052,6,0,B|189:303|189:303|199:308|199:308|249:308,1,97.9999970092774,0|2,1:2|0:0,0:0:0:0:
259,330,114409,1,2,0:0:0:0:
279,351,114528,6,0,P|295:333|324:323,1,52.5000020027161,8|0,0:0|0:0,0:0:0:0:
358,217,114766,2,0,P|339:200|314:195,1,52.5000020027161,2|0,0:0|0:0,0:0:0:0:
470,143,115004,2,0,P|477:165|471:195,1,52.5000020027161,8|0,3:0|0:0,0:0:0:0:
512,38,115242,6,0,P|473:93|398:90,1,146.999995513916,2|0,0:0|0:0,0:0:0:0:
311,59,115718,6,0,L|312:29,2,28,0|2|2,1:2|3:0|0:0,0:0:0:0:
220,69,116433,6,0,L|209:16,6,52.5000020027161,10|2|2|2|2|2|2,0:0|0:0|0:0|0:0|0:0|0:0|0:0,0:0:0:0:
147,123,116909,5,0,0:0:0:0:
311,59,117147,2,0,L|315:30,1,24.4999992523194,2|0,0:0|0:0,0:0:0:0:
220,69,117385,5,0,0:0:0:0:
399,90,117623,2,0,L|414:63,1,24.4999992523194,2|0,0:0|0:0,0:0:0:0:
469,220,117861,6,0,B|435:214|435:214|409:226|409:226|373:220,1,97.9999970092774,0|2,1:2|0:0,0:0:0:0:
347,228,118218,1,2,0:0:0:0:
319,235,118337,6,0,L|347:183,1,52.5000020027161,8|0,0:0|0:0,0:0:0:0:
238,339,118575,2,0,L|274:384,1,52.5000020027161,2|0,0:0|0:0,0:0:0:0:
116,279,118814,6,0,P|37:262|14:157,1,199.499994672775,8|0,3:0|0:0,0:0:0:0:
48,61,119290,6,0,L|-16:64,1,62.9999980773926,0|0,1:2|0:0,0:0:0:0:
142,52,119766,2,0,L|149:69,1,10.4999996795654,2|0,0:0|0:0,0:0:0:0:
292,49,120242,6,0,L|229:52,6,52.5000020027161,10|2|2|2|2|2|2,0:0|0:0|0:0|0:0|0:0|0:0|0:0,0:0:0:0:
344,130,120718,2,0,L|317:164,6,43.75,2|2|2|2|2|2|2,0:0|0:0|0:0|0:0|0:0|0:0|0:0,0:0:0:0:
442,140,121194,2,0,L|453:176,6,35,2|2|2|2|2|2|2,0:0|0:0|0:0|0:0|0:0|0:0|0:0,0:0:0:0:
316,164,121671,6,0,P|268:164|219:164,1,97.9999970092774,2|2,0:0|0:0,0:0:0:0:
205,170,122028,1,2,0:0:0:0:
192,175,122147,6,0,P|167:166|171:194,1,52.5000020027161,8|0,0:0|0:0,0:0:0:0:
41,264,122385,2,0,P|60:250|44:232,1,52.5000020027161,2|0,0:0|0:0,0:0:0:0:
29,85,122623,2,0,P|31:108|54:103,1,52.5000020027161,8|0,3:0|0:0,0:0:0:0:
148,276,122861,6,0,P|83:242|12:253,1,146.999995513916,2|0,0:2|0:0,0:0:0:0:
0,175,123337,6,0,L|-29:175,2,28,0|2|2,1:2|3:0|0:0,0:0:0:0:
88,198,124052,6,0,L|84:142,6,52.5000020027161,10|2|2|2|2|2|2,0:0|0:0|0:0|0:0|0:0|0:0|0:0,0:0:0:0:
174,220,124528,5,0,0:0:0:0:
332,251,124766,2,0,L|358:258,1,24.4999992523194,2|0,0:0|0:0,0:0:0:0:
178,249,125004,5,0,0:0:0:0:
330,225,125242,2,0,L|356:232,1,24.4999992523194,2|0,0:0|0:0,0:0:0:0:
255,58,125480,6,0,P|255:108|255:156,1,97.9999970092774,0|2,1:2|0:0,0:0:0:0:
255,185,125837,1,2,0:0:0:0:
255,214,125956,6,0,L|255:272,1,52.5000020027161,8|0,0:0|0:0,0:0:0:0:
351,329,126194,2,0,L|410:322,1,52.5000020027161,2|0,0:0|0:0,0:0:0:0:
158,300,126433,2,0,L|97:307,1,52.5000020027161,8|0,3:0|0:0,0:0:0:0:
249,384,126671,6,0,L|276:373,1,24.4999992523194,2|0,3:0|0:0,0:0:0:0:
249,374,127147,6,0,L|276:385,1,24.4999992523194,2|0,3:0|0:0,0:0:0:0:
64,107,127861,6,0,L|126:99,22,52.5000020027161,10|2|2|2|2|2|2|2|2|2|2|2|2|2|2|2|2|2|2|2|2|2|2,0:0|0:0|0:0|0:0|0:0|0:0|0:0|0:0|0:0|0:0|0:0|0:0|0:0|0:0|0:0|0:0|0:0|0:0|0:0|0:0|0:0|0:0|0:0,0:0:0:0:
3,184,129290,6,0,P|21:237|81:237,1,97.9999970092774,0|2,1:2|0:0,0:0:0:0:
86,241,129647,1,2,0:0:0:0:
115,235,129766,6,0,L|97:284,1,52.5000020027161,8|0,0:0|0:0,0:0:0:0:
251,202,130004,2,0,L|228:263,1,52.5000020027161,2|0,0:0|0:0,0:0:0:0:
387,169,130242,2,0,L|364:230,1,52.5000020027161,8|0,3:0|0:0,0:0:0:0:
324,345,130480,6,0,B|386:345|386:345|417:375|465:366,1,146.999995513916,2|0,0:0|0:0,0:0:0:0:
512,288,130956,6,0,L|510:256,2,28,0|2|2,1:2|3:0|0:0,0:0:0:0:
468,178,131671,6,0,L|473:253,6,52.5000020027161,10|2|2|2|2|2|2,0:0|0:0|0:0|0:0|0:0|0:0|0:0,0:0:0:0:
376,210,132147,5,0,0:0:0:0:
208,213,132385,2,0,L|245:212,1,24.4999992523194,2|2,0:0|0:0,0:0:0:0:
279,131,132623,5,0,0:0:0:0:
328,309,132861,2,0,L|321:283,1,24.4999992523194,2|0,0:0|0:0,0:0:0:0:
134,216,133099,6,0,P|186:214|246:212,1,97.9999970092774,0|2,1:2|0:0,0:0:0:0:
243,197,133456,1,2,0:0:0:0:
254,182,133575,6,0,L|241:122,1,52.5000020027161,8|0,0:0|0:0,0:0:0:0:
329,309,133814,2,0,L|274:311,1,52.5000020027161,2|0,0:0|0:0,0:0:0:0:
465,376,134052,6,0,B|444:324|481:284|481:284|516:244|500:185,1,199.499994672775,8|0,3:0|0:0,0:0:0:0:
416,158,134528,6,0,B|406:188|406:188|418:219,1,62.9999980773926,0|0,1:2|0:0,0:0:0:0:
512,190,135004,2,0,L|501:190,1,10.4999996795654,2|0,0:0|0:0,0:0:0:0:
376,190,135480,6,0,L|323:190,6,52.5000020027161,10|2|2|2|2|2|2,0:0|0:0|0:0|0:0|0:0|0:0|0:0,0:0:0:0:
218,211,135956,2,0,L|215:157,6,43.75,2|2|2|2|2|2|2,0:0|0:0|0:0|0:0|0:0|0:0|0:0,0:0:0:0:
107,190,136433,2,0,L|61:190,6,35,2|2|2|2|2|2|2,0:0|0:0|0:0|0:0|0:0|0:0|0:0,0:0:0:0:
14,289,136909,6,0,P|43:329|93:327,1,97.9999970092774,2|2,0:0|0:0,0:0:0:0:
103,354,137266,1,2,0:0:0:0:
119,377,137385,6,0,L|130:324,1,52.5000020027161,8|0,0:0|0:0,0:0:0:0:
281,353,137623,2,0,L|232:319,1,52.5000020027161,2|0,0:0|0:0,0:0:0:0:
390,258,137861,2,0,L|334:265,1,52.5000020027161,8|0,3:0|0:0,0:0:0:0:
506,313,138099,6,0,P|538:254|501:188,1,146.999995513916,2|0,0:0|0:0,0:0:0:0:
453,97,138575,6,0,L|466:68,2,28,0|2|2,1:2|3:0|0:0,0:0:0:0:
366,72,139290,6,0,L|390:18,6,52.5000020027161,10|2|2|2|2|2|2,0:0|0:0|0:0|0:0|0:0|0:0|0:0,0:0:0:0:
464,71,139766,5,0,0:0:0:0:
412,212,140004,2,0,L|401:243,1,24.4999992523194,2|0,0:0|0:0,0:0:0:0:
499,160,140242,5,0,0:0:0:0:
335,156,140480,2,0,L|305:155,1,24.4999992523194,2|0,0:0|0:0,0:0:0:0:
468,281,140718,6,0,P|421:277|377:306,1,97.9999970092774,0|2,1:2|0:0,0:0:0:0:
350,310,141075,1,2,0:0:0:0:
321,316,141194,6,0,L|363:276,1,52.5000020027161,8|0,0:0|0:0,0:0:0:0:
174,339,141433,2,0,L|113:320,1,52.5000020027161,2|0,0:0|0:0,0:0:0:0:
257,382,141671,6,0,L|244:306,1,66.4999982242585,0|0,1:2|0:0,0:0:0:0:
229,214,141909,2,0,L|216:138,1,66.4999982242585,2|0,0:0|0:0,0:0:0:0:
200,47,142147,5,0,1:2:0:0:
200,47,143099,6,0,L|190:-11,2,56,2|0|0,0:0|0:0|0:0,0:0:0:0:
293,50,143814,2,0,L|321:0,1,56,2|0,0:0|0:0,0:0:0:0:
360,113,144290,1,2,0:0:0:0:
360,113,144528,2,0,L|413:85,2,56,2|0|0,0:0|0:0|0:0,0:0:0:0:
375,205,145242,1,2,0:0:0:0:
375,205,145480,2,0,L|433:208,1,56,2|2,0:0|0:0,0:0:0:0:
260,197,145956,6,0,B|222:204|197:184|197:184|172:166|141:175,1,125.999996154785,8|0,0:3|0:0,0:0:0:0:
39,199,146909,6,0,L|-21:199,2,56,2|0|0,0:0|0:0|0:0,0:0:0:0:
66,304,147623,2,0,L|74:371,1,56,2|0,0:0|0:0,0:0:0:0:
171,283,148099,1,2,0:0:0:0:
171,283,148337,2,0,L|233:283,2,56,2|0|0,0:0|0:0|0:0,0:0:0:0:
140,175,149052,5,2,0:0:0:0:
77,245,149290,1,2,0:0:0:0:
14,313,149528,1,2,0:0:0:0:
1,327,150004,6,0,P|-18:291|-2:252,1,83.9999974365235,2|0,0:0|0:0,0:0:0:0:
75,185,150718,6,0,L|66:122,2,56,2|0|0,0:0|0:0|0:0,0:0:0:0:
187,254,151433,2,0,L|178:194,1,56,2|0,0:0|0:0,0:0:0:0:
285,185,151909,1,2,0:0:0:0:
285,185,152147,2,0,L|275:123,2,56,2|0|0,0:0|0:0|0:0,0:0:0:0:
396,251,152861,1,2,0:0:0:0:
396,251,153099,2,0,L|386:189,1,56,2|2,0:0|0:0,0:0:0:0:
330,375,153575,6,0,P|380:342|446:350,1,125.999996154785,8|0,0:3|0:0,0:0:0:0:
502,252,154528,6,0,L|444:235,2,56,2|0|0,0:0|0:0|0:0,0:0:0:0:
309,308,155242,2,0,L|379:294,1,56,2|0,0:0|0:0,0:0:0:0:
207,252,155718,1,2,0:0:0:0:
207,252,155956,2,0,L|149:235,2,56,2|0|0,0:0|0:0|0:0,0:0:0:0:
7,308,156671,5,2,0:0:0:0:
103,384,156909,1,0,0:0:0:0:
123,258,157147,1,2,0:0:0:0:
81,316,157385,6,0,B|148:312|148:312|176:326|176:326|245:322,1,167.999994873047,4|8,1:2|0:0,0:0:0:0:
365,355,158099,1,0,0:0:0:0:
365,355,158218,1,0,0:0:0:0:
365,355,158337,2,0,B|392:317|362:276,1,83.9999974365235,10|0,0:0|0:0,0:0:0:0:
500,326,158814,1,8,0:0:0:0:
500,326,159052,6,0,B|522:317|540:313|540:313|522:309|500:299,1,83.9999974365235,2|8,0:0|0:0,0:0:0:0:
367,230,159528,1,2,0:0:0:0:
367,231,159766,2,0,B|364:208|358:190|358:190|371:204|389:218,1,83.9999974365235,10|0,0:0|0:0,0:0:0:0:
383,363,160242,2,0,B|364:377|351:390|351:390|357:373|360:349,1,83.9999974365235,8|2,0:0|0:0,0:0:0:0:
500,299,160718,1,10,0:0:0:0:
367,231,160956,1,2,0:0:0:0:
477,109,161194,6,0,P|401:117|348:48,1,167.999994873047,8|8,0:0|0:0,0:0:0:0:
205,159,161909,1,2,0:0:0:0:
205,159,162028,1,0,0:0:0:0:
205,159,162147,2,0,L|298:154,1,83.9999974365235,10|0,0:0|0:0,0:0:0:0:
150,74,162623,1,8,0:0:0:0:
150,74,162861,6,0,P|115:96|68:92,1,83.9999974365235,2|8,0:0|0:0,0:0:0:0:
0,205,163337,1,2,0:0:0:0:
0,205,163575,2,0,P|38:189|87:192,1,83.9999974365235,10|0,0:0|0:0,0:0:0:0:
170,304,164052,2,0,P|134:284|89:283,1,83.9999974365235,8|2,0:0|0:0,0:0:0:0:
17,363,164528,1,10,0:0:0:0:
17,363,164766,1,2,0:0:0:0:
0,205,165004,5,8,0:0:0:0:
21,217,165123,1,0,0:0:0:0:
46,219,165242,1,2,0:0:0:0:
69,210,165361,1,0,0:0:0:0:
83,189,165480,1,8,0:0:0:0:
88,164,165599,1,0,0:0:0:0:
81,139,165718,1,2,0:0:0:0:
62,121,165837,1,0,0:0:0:0:
38,113,165956,6,0,L|41:80,5,27.9999991455078,10|0|0|0|0|0,0:0|0:0|0:0|0:0|0:0|0:0,0:0:0:0:
115,120,166433,2,0,L|117:83,5,27.9999991455078,8|0|0|2|0|0,0:0|0:0|0:0|0:0|0:0|0:0,0:0:0:0:
137,221,166909,6,0,L|141:268,5,35.0000013351441,8|0|0|2|0|0,0:0|0:0|0:0|0:0|0:0|0:0,0:0:0:0:
219,218,167385,2,0,L|223:265,5,35.0000013351441,10|0|0|0|0|0,0:0|0:0|0:0|0:0|0:0|0:0,0:0:0:0:
260,131,167861,6,0,L|262:87,5,41.9999987182618,8|0|0|2|0|0,0:0|0:0|0:0|0:0|0:0|0:0,0:0:0:0:
347,136,168337,2,0,L|349:92,5,41.9999987182618,10|0|0|2|0|0,0:0|0:0|0:0|0:0|0:0|0:0,0:0:0:0:
408,206,168814,6,0,L|412:255,5,48.9999985046387,8|0|0|2|0|0,0:0|0:0|0:0|0:0|0:0|0:0,0:0:0:0:
499,200,169290,2,0,L|503:249,5,48.9999985046387,8|0|0|2|0|0,0:0|0:0|0:0|0:0|0:0|0:0,0:0:0:0:
477,104,169766,6,0,L|519:95,6,41.9999987182618,10|0|0|0|0|0|0,0:0|0:0|0:0|0:0|0:0|0:0|0:0,0:0:0:0:
378,76,170242,2,0,L|349:44,6,41.9999987182618,8|0|0|0|2|0|0,0:0|0:0|0:0|0:0|0:0|0:0|0:0,0:0:0:0:
398,172,170718,2,0,L|384:212,6,41.9999987182618,8|0|0|0|2|0|0,0:0|0:0|0:0|0:0|0:0|0:0|0:0,0:0:0:0:
399,320,171194,6,0,P|360:294|309:295,1,97.9999970092774,10|2,0:0|0:0,0:0:0:0:
285,281,171552,1,2,0:0:0:0:
260,268,171671,6,0,L|208:271,1,52.5000020027161,8|0,0:0|0:0,0:0:0:0:
97,268,171909,2,0,L|45:271,1,52.5000020027161,2|0,0:0|0:0,0:0:0:0:
28,254,172147,6,0,L|59:252,1,26.2500010013581,2|0,3:0|0:0,0:0:0:0:
34,352,172385,2,0,L|66:350,1,26.2500010013581,2|0,3:0|0:0,0:0:0:0:
171,297,172623,5,0,1:2:0:0:
171,297,173337,1,2,0:0:0:0:
158,294,173417,1,0,0:0:0:0:
145,291,173496,1,0,0:0:0:0:
132,288,173575,2,0,P|105:324|55:324,1,97.9999970092774,10|0,0:0|0:0,0:0:0:0:
41,212,174052,1,2,0:0:0:0:
27,99,174290,1,2,0:0:0:0:
5,221,174528,5,0,1:2:0:0:
155,166,174766,2,0,B|203:151|244:189|244:189|283:225|337:205,1,195.999994018555,2|2,0:0|0:0,0:0:0:0:
345,219,175321,1,2,0:0:0:0:
360,231,175401,1,0,0:0:0:0:
375,245,175480,6,0,L|380:191,1,52.5000020027161,10|0,0:0|0:0,0:0:0:0:
271,89,175718,2,0,L|275:36,1,52.5000020027161,2|0,0:0|0:0,0:0:0:0:
409,94,175956,2,0,L|359:108,1,52.5000020027161,2|0,3:0|0:0,0:0:0:0:
206,152,176194,2,0,L|156:165,1,52.5000020027161,2|0,0:0|0:0,0:0:0:0:
42,277,176433,6,0,P|79:344|165:348,1,168,0|2,1:2|0:0,0:0:0:0:
171,358,177226,1,0,0:0:0:0:
180,366,177306,1,0,0:0:0:0:
189,375,177385,6,0,B|226:357|226:357|285:357,1,97.9999970092774,10|0,0:0|0:0,0:0:0:0:
417,300,177861,1,2,0:0:0:0:
281,246,178099,1,2,0:0:0:0:
368,370,178337,5,0,1:2:0:0:
511,310,178575,2,0,B|552:262|535:197|472:173|435:214,1,195.999994018555,2|2,0:0|0:0,0:0:0:0:
412,232,179171,1,2,0:0:0:0:
387,247,179290,6,0,L|394:174,1,52.5000020027161,8|0,0:0|0:0,0:0:0:0:
215,227,179528,2,0,L|222:154,1,52.5000020027161,2|0,0:0|0:0,0:0:0:0:
299,268,179766,2,0,L|306:195,1,52.5000020027161,8|0,3:0|0:0,0:0:0:0:
125,256,180004,2,0,L|132:183,1,52.5000020027161,2|0,0:0|0:0,0:0:0:0:
155,61,180242,6,0,L|106:61,1,42,0|0,1:2|0:0,0:0:0:0:
251,74,180718,2,0,L|251:85,1,7,2|0,0:0|0:0,0:0:0:0:
370,83,180956,5,2,0:0:0:0:
362,86,181036,1,0,0:0:0:0:
354,88,181115,1,0,0:0:0:0:
346,91,181194,2,0,P|399:91|447:91,1,97.9999970092774,10|0,0:0|0:0,0:0:0:0:
241,48,181671,1,2,0:0:0:0:
141,130,181909,1,2,0:0:0:0:
68,64,182147,5,0,3:2:0:0:
207,78,182385,1,2,0:0:0:0:
346,91,182623,2,0,P|329:137|283:140,1,97.9999970092774,0|2,1:2|0:0,0:0:0:0:
279,152,182941,1,2,0:0:0:0:
273,164,183020,1,0,0:0:0:0:
267,176,183099,6,0,L|273:232,1,52.5000020027161,10|0,0:0|0:0,0:0:0:0:
333,352,183337,2,0,L|392:363,1,52.5000020027161,2|0,0:0|0:0,0:0:0:0:
214,302,183575,2,0,L|151:316,1,52.5000020027161,2|0,3:0|0:0,0:0:0:0:
380,266,183814,2,0,L|431:254,1,52.5000020027161,2|0,0:0|0:0,0:0:0:0:
498,129,184052,6,0,B|454:146|421:112|421:112|385:76|345:90,1,168,0|2,1:2|0:0,0:0:0:0:
337,80,184845,1,0,0:0:0:0:
329,69,184925,1,0,0:0:0:0:
322,57,185004,6,0,P|317:108|312:164,1,97.9999970092774,10|0,0:0|0:0,0:0:0:0:
237,263,185480,1,2,0:0:0:0:
333,354,185718,1,2,0:0:0:0:
209,340,185956,5,0,1:2:0:0:
353,268,186194,1,2,0:0:0:0:
191,188,186433,2,0,P|194:137|197:86,1,97.9999970092774,0|2,1:2|0:0,0:0:0:0:
168,99,186790,1,2,0:0:0:0:
138,106,186909,6,0,L|142:52,1,52.5000020027161,8|0,0:0|0:0,0:0:0:0:
26,165,187147,2,0,L|74:204,1,52.5000020027161,2|0,0:0|0:0,0:0:0:0:
104,301,187385,2,0,L|50:321,1,52.5000020027161,8|0,3:0|0:0,0:0:0:0:
239,358,187623,6,0,L|220:340,1,24.4999992523194,2|2,3:0|3:0,0:0:0:0:
239,343,188099,6,0,L|222:360,1,24.4999992523194,2|0,3:0|0:0,0:0:0:0:
208,224,188575,5,2,0:0:0:0:
211,231,188655,1,0,0:0:0:0:
214,238,188734,1,0,0:0:0:0:
218,245,188814,2,0,P|214:198|210:148,1,97.9999970092775,10|0,0:0|0:0,0:0:0:0:
90,219,189290,1,2,0:0:0:0:
160,337,189528,2,0,P|210:293|290:291,1,146.999995513916,2|0,0:0|0:0,0:0:0:0:
356,237,190004,5,2,0:0:0:0:
424,337,190242,2,0,P|472:341|508:319,1,90.9999958343508,2|0,1:2|0:0,0:0:0:0:
501,308,190560,1,0,0:0:0:0:
495,297,190639,1,0,0:0:0:0:
488,286,190718,6,0,L|548:286,1,52.5000020027161,8|0,0:0|0:0,0:0:0:0:
393,210,190956,2,0,L|443:178,1,52.5000020027161,2|0,0:0|0:0,0:0:0:0:
275,187,191194,2,0,L|303:133,1,52.5000020027161,2|0,3:0|0:0,0:0:0:0:
155,195,191433,2,0,L|162:143,1,52.5000020027161,2|0,0:0|0:0,0:0:0:0:
109,319,191671,5,0,1:2:0:0:
109,319,191909,2,0,P|148:295|202:299,1,97.9999970092774,2|0,0:0|0:0,0:0:0:0:
341,195,192385,1,2,0:0:0:0:
346,201,192464,1,0,0:0:0:0:
351,207,192544,1,0,0:0:0:0:
357,213,192623,2,0,P|312:223|262:186,1,97.9999970092774,10|0,0:0|0:0,0:0:0:0:
147,268,193099,1,0,0:0:0:0:
79,136,193337,2,0,P|152:142|206:85,1,146.999995513916,2|0,0:0|0:0,0:0:0:0:
224,20,193814,5,2,0:0:0:0:
341,131,194052,1,2,0:0:0:0:
226,255,194290,1,2,0:0:0:0:
206,233,194409,1,2,0:0:0:0:
187,210,194528,6,0,L|257:203,1,52.5000020027161,8|0,0:0|0:0,0:0:0:0:
386,177,194766,2,0,L|357:241,1,52.5000020027161,2|0,0:0|0:0,0:0:0:0:
316,360,195004,2,0,L|274:302,1,52.5000020027161,8|0,3:0|0:0,0:0:0:0:
402,332,195242,1,2,0:0:0:0:
512,349,195480,6,0,L|476:386,1,42,0|0,1:2|0:0,0:0:0:0:
402,332,195956,2,0,L|410:324,1,7,2|0,0:0|0:0,0:0:0:0:
319,285,196194,5,2,0:0:0:0:
309,278,196274,1,0,0:0:0:0:
300,273,196353,1,0,0:0:0:0:
292,267,196433,2,0,P|248:285|204:266,1,97.9999970092775,10|0,0:2|0:0,0:0:0:0:
82,319,196909,1,0,0:0:0:0:
45,191,197147,2,0,B|83:163|83:163|138:163|138:163|176:136,1,146.999995513916,2|0,0:0|0:0,0:0:0:0:
110,85,197623,5,2,0:0:0:0:
164,238,197861,2,0,P|179:280|195:326,1,90.9999958343508,2|0,1:2|0:0,0:0:0:0:
190,335,198179,1,0,0:0:0:0:
185,346,198258,1,0,0:0:0:0:
180,359,198337,6,0,L|235:359,1,52.5000020027161,10|0,0:0|0:0,0:0:0:0:
349,377,198575,2,0,L|329:329,1,52.5000020027161,2|0,0:0|0:0,0:0:0:0:
447,359,198814,2,0,L|502:359,1,52.5000020027161,2|0,0:3|0:0,0:0:0:0:
350,330,199052,2,0,L|330:378,1,52.5000020027161,2|0,0:0|0:0,0:0:0:0:
430,233,199290,5,0,1:2:0:0:
430,233,199528,2,0,P|379:235|345:200,1,97.9999970092774,2|0,0:0|0:0,0:0:0:0:
204,315,200004,1,2,0:0:0:0:
197,309,200083,1,0,0:0:0:0:
191,302,200163,1,0,0:0:0:0:
184,296,200242,2,0,P|235:294|292:292,1,97.9999970092774,10|0,0:0|0:0,0:0:0:0:
102,355,200718,1,0,0:0:0:0:
44,208,200956,1,2,0:0:0:0:
139,210,201194,5,0,1:2:0:0:
19,301,201433,1,2,0:0:0:0:
140,384,201671,2,0,P|177:355|232:355,1,97.9999970092774,2|2,1:2|0:0,0:0:0:0:
251,341,202028,1,2,0:0:0:0:
277,332,202147,6,0,L|215:306,1,52.5000020027161,8|0,0:0|0:0,0:0:0:0:
411,286,202385,2,0,L|474:279,1,52.5000020027161,2|0,0:0|0:0,0:0:0:0:
290,206,202623,6,0,P|272:177|275:143,1,66.4999982242585,8|0,3:0|0:0,0:0:0:0:
371,188,202861,2,0,P|373:155|356:127,1,66.4999982242585,2|0,0:0|0:0,0:0:0:0:
364,364,203099,5,0,1:2:0:0:
