osu file format v14

[General]
AudioFilename: audio.mp3
AudioLeadIn: 0
PreviewTime: 31778
Countdown: 0
SampleSet: None
StackLeniency: 0.7
Mode: 0
LetterboxInBreaks: 0
WidescreenStoryboard: 1

[Editor]
Bookmarks: 76800,89600,102400,103200,108800,115200,128000,139600,140400,140800
DistanceSpacing: 1.9
BeatDivisor: 4
GridSize: 8
TimelineZoom: 1.8

[Metadata]
Title:FOLKLORE
TitleUnicode:FOLKLORE
Artist:sakuraburst
ArtistUnicode:【sakuraburst】
Creator:Shiirn
Version:plaudible's advanced
Source:
Tags:mir mun plaudible anxient electronic mechanical ambient sakuraburst sample pack 5
BeatmapID:1364440
BeatmapSetID:617687

[Difficulty]
HPDrainRate:4
CircleSize:3.5
OverallDifficulty:5
ApproachRate:6
SliderMultiplier:1.7
SliderTickRate:1

[Events]
//Background and Video events
0,0,"ffffffffffff.jpg",0,0
//Break Periods
//Storyboard Layer 0 (Background)
//Storyboard Layer 1 (Fail)
//Storyboard Layer 2 (Pass)
//Storyboard Layer 3 (Foreground)
//Storyboard Sound Samples

[TimingPoints]
0,400,4,3,1,100,1,0
76800,-90.9090909090909,4,3,1,55,0,0
77100,-90.9090909090909,4,3,1,12,0,0
77200,-125,4,3,1,55,0,0
77400,-125,4,3,1,12,0,0
77600,-125,4,3,1,55,0,0
77800,-125,4,3,1,12,0,0
78000,-125,4,3,1,55,0,0
78200,-125,4,3,1,12,0,0
78400,-125,4,3,1,55,0,0
78600,-125,4,3,1,12,0,0
78800,-125,4,3,1,55,0,0
79000,-125,4,3,1,12,0,0
79200,-125,4,3,1,55,0,0
79400,-125,4,3,1,12,0,0
79600,-90.9090909090909,4,3,1,55,0,0
80000,-100,4,3,1,55,0,0
80400,-125,4,3,1,55,0,0
80600,-125,4,3,1,12,0,0
80800,-125,4,3,1,55,0,0
81000,-125,4,3,1,12,0,0
81200,-125,4,3,1,55,0,0
81400,-125,4,3,1,12,0,0
81600,-125,4,3,1,55,0,0
81800,-125,4,3,1,12,0,0
82000,-125,4,3,1,55,0,0
82200,-125,4,3,1,12,0,0
82400,-125,4,3,1,55,0,0
82600,-125,4,3,1,12,0,0
82800,-90.9090909090909,4,3,1,55,0,0
83200,-100,4,3,1,55,0,0
83600,-125,4,3,1,55,0,0
83800,-125,4,3,1,12,0,0
84000,-125,4,3,1,55,0,0
84200,-125,4,3,1,12,0,0
84400,-125,4,3,1,55,0,0
84600,-125,4,3,1,12,0,0
84800,-125,4,3,1,55,0,0
85000,-125,4,3,1,12,0,0
85200,-125,4,3,1,55,0,0
85400,-125,4,3,1,12,0,0
85600,-125,4,3,1,55,0,0
85800,-125,4,3,1,12,0,0
86000,-90.9090909090909,4,3,1,55,0,0
86400,-100,4,3,1,55,0,0
86800,-125,4,3,1,55,0,0
87000,-125,4,3,1,12,0,0
87200,-125,4,3,1,55,0,0
87400,-125,4,3,1,12,0,0
87600,-90.9090909090909,4,3,1,55,0,0
88000,-90.9090909090909,4,3,1,55,0,0
89400,-100,4,3,1,55,0,0
89600,-166.666666666667,4,3,1,55,0,0
90400,-166.666666666667,4,3,1,55,0,0
90600,-125,4,3,1,12,0,0
91200,-166.666666666667,4,3,1,55,0,0
91400,-166.666666666667,4,3,1,12,0,0
92000,-166.666666666667,4,3,1,55,0,0
92200,-125,4,3,1,12,0,0
92400,-100,4,3,1,55,0,0
92800,-166.666666666667,4,3,1,55,0,0
93600,-166.666666666667,4,3,1,55,0,0
93800,-166.666666666667,4,3,1,12,0,0
94400,-166.666666666667,4,3,1,55,0,0
94600,-166.666666666667,4,3,1,12,0,0
95200,-166.666666666667,4,3,1,55,0,0
95400,-166.666666666667,4,3,1,12,0,0
95600,-100,4,3,1,55,0,0
96000,-166.666666666667,4,3,1,55,0,0
96800,-166.666666666667,4,3,1,55,0,0
97000,-166.666666666667,4,3,1,12,0,0
97600,-166.666666666667,4,3,1,55,0,0
97800,-166.666666666667,4,3,1,12,0,0
98400,-166.666666666667,4,3,1,55,0,0
98600,-166.666666666667,4,3,1,12,0,0
98800,-100,4,3,1,55,0,0
99200,-166.666666666667,4,3,1,55,0,0
100000,-166.666666666667,4,3,1,55,0,0
100200,-166.666666666667,4,3,1,12,0,0
100800,-166.666666666667,4,3,1,55,0,0
101000,-166.666666666667,4,3,1,12,0,0
101600,-166.666666666667,4,3,1,55,0,0
101800,-166.666666666667,4,3,1,12,0,0
102000,-125,4,3,1,12,0,0
102400,-111.111111111111,4,3,1,55,0,0
102600,-125,4,3,1,12,0,0
102700,-125,4,3,1,55,0,0
102900,-125,4,3,1,12,0,0
103000,-125,4,3,1,12,0,0
103200,-111.111111111111,4,3,1,55,0,0
105200,-90.9090909090909,4,3,1,55,0,0
105600,-111.111111111111,4,3,1,55,0,0
108400,-90.9090909090909,4,3,1,55,0,0
108800,-90.9090909090909,4,3,1,55,0,0
109200,-90.9090909090909,4,3,1,55,0,0
111600,-76.9230769230769,4,3,1,55,0,0
112000,-76.9230769230769,4,3,1,55,0,0
112400,-90.9090909090909,4,3,1,55,0,0
114000,-111.111111111111,4,3,1,55,0,0
114400,-66.6666666666667,4,3,1,55,0,0
114800,-125,4,3,1,55,0,0
115100,-125,4,3,1,12,0,0
115200,-166.666666666667,4,3,1,55,0,0
116000,-200,4,3,1,55,0,0
117200,-125,4,3,1,55,0,0
117600,-125,4,3,1,55,0,0
117900,-200,4,3,1,12,0,0
118000,-200,4,3,1,55,0,0
118300,-200,4,3,1,12,0,0
118400,-200,4,3,1,55,0,0
118800,-125,4,3,1,55,0,0
119600,-200,4,3,1,55,0,0
120800,-125,4,3,1,55,0,0
122000,-100,4,3,1,55,0,0
122400,-200,4,3,1,55,0,0
123500,-200,4,3,1,12,0,0
123600,-200,4,3,1,55,0,0
124000,-125,4,3,1,55,0,0
124700,-200,4,3,1,12,0,0
124800,-200,4,3,1,55,0,0
125500,-200,4,3,1,12,0,0
125600,-125,4,3,1,55,0,0
125900,-200,4,3,1,12,0,0
126000,-200,4,3,1,55,0,0
130000,-125,4,3,1,55,0,0
130400,-125,4,3,1,55,0,0
130700,-200,4,3,1,12,0,0
131100,-200,4,3,1,12,0,0
131200,-200,4,3,1,55,0,0
131600,-125,4,3,1,55,0,0
131900,-200,4,3,1,12,0,0
132000,-125,4,3,1,55,0,0
132300,-200,4,3,1,12,0,0
132400,-200,4,3,1,55,0,0
133600,-125,4,3,1,55,0,0
134800,-100,4,3,1,55,0,0
135200,-200,4,3,1,55,0,0
135800,-200,4,3,1,55,0,0
136800,-125,4,3,1,55,0,0
137100,-200,4,3,1,12,0,0
137200,-200,4,3,1,55,0,0
137500,-200,4,3,1,12,0,0
137600,-200,4,3,1,55,0,0
138300,-200,4,3,1,12,0,0
138400,-200,4,3,1,55,0,0
138700,-200,4,3,1,12,0,0
138800,-200,4,3,1,55,0,0
139300,-200,4,3,1,12,0,0
139400,-200,4,3,1,55,0,0
140200,-125,4,3,1,55,0,0
140400,-200,4,3,1,5,0,0

[Colours]
Combo1 : 149,111,164
Combo2 : 244,172,221
Combo3 : 174,66,206
Combo4 : 210,132,185

[HitObjects]
60,140,76800,6,0,B|96:137|96:137|111:132|111:132|127:134|127:134|159:131,1,93.5000028533936,4|0,0:1|0:0,0:0:0:0:
220,87,77200,1,0,0:0:0:0:
316,219,77600,1,0,0:0:0:0:
152,235,78000,1,0,0:0:0:0:
280,335,78400,6,0,P|318:342|359:331,2,68,0|0|0,0:0|0:0|0:0,0:0:0:0:
152,235,79200,1,0,0:0:0:0:
0,307,79600,2,0,B|3:264|3:264|-2:257|-2:257|6:163,1,140.25000428009,0|0,0:0|0:0,0:0:0:0:
17,123,80000,6,0,P|65:113|109:134,1,85,4|0,0:1|0:0,0:0:0:0:
156,183,80400,1,0,0:0:0:0:
318,170,80800,1,0,0:0:0:0:
226,34,81200,1,0,0:0:0:0:
62,45,81600,5,0,0:0:0:0:
156,183,82000,1,0,0:0:0:0:
318,170,82400,2,0,L|391:176,1,68,0|0,0:0|0:0,0:0:0:0:
461,218,82800,2,0,B|463:193|463:193|469:165|469:165|460:146|460:146|470:120|470:120|474:73,1,140.25000428009,0|0,0:0|0:0,0:0:0:0:
443,43,83200,6,0,B|405:24|405:24|343:39,1,85,4|0,0:1|0:0,0:0:0:0:
278,56,83600,1,0,0:0:0:0:
211,204,84000,1,0,0:0:0:0:
373,190,84400,1,0,0:0:0:0:
243,289,84800,6,0,P|205:296|164:285,2,68,0|0|0,0:0|0:0|0:0,0:0:0:0:
373,190,85600,1,0,0:0:0:0:
278,56,86000,2,0,B|241:65|241:65|208:51|208:51|177:61|177:61|133:44,1,140.25000428009,0|0,0:0|0:0,0:0:0:0:
97,33,86400,6,0,L|104:118,1,85,4|0,0:1|0:0,0:0:0:0:
110,199,86800,1,0,0:0:0:0:
249,283,87200,1,0,0:0:0:0:
391,209,87600,2,0,B|394:166|394:166|389:159|389:159|393:111,1,93.5000028533936,0|0,0:0|0:0,0:0:0:0:
327,60,88000,6,0,B|393:95|393:95|459:66,2,140.25000428009,8|8|8,0:0|0:0|0:0,0:0:0:0:
250,24,88800,2,0,L|245:70,3,46.7500014266968,0|0|0|0,0:0|0:0|0:0|0:0,0:0:0:0:
241,112,89200,1,8,0:0:0:0:
172,166,89400,1,2,0:2:0:0:
95,131,89600,6,0,P|86:179|125:240,1,101.999996887207,4|0,0:1|0:0,0:0:0:0:
289,261,90400,2,0,L|186:251,1,101.999996887207,0|0,0:0|0:0,0:0:0:0:
159,71,91200,6,0,P|180:116|171:165,1,101.999996887207
98,327,92000,1,0,0:0:0:0:
287,261,92400,6,0,B|331:257|331:257|340:250|340:250|428:242,1,127.5,0|0,0:0|0:0,0:0:0:0:
439,202,92800,6,0,B|444:130|444:130|417:91,1,101.999996887207,4|0,0:1|0:0,0:0:0:0:
249,50,93600,2,0,B|222:96|222:96|255:146,1,101.999996887207,0|0,0:0|0:0,0:0:0:0:
363,289,94400,6,0,B|291:294|291:294|250:276,1,101.999996887207
106,194,95200,1,0,0:0:0:0:
71,339,95600,6,0,B|109:335|109:335|140:325|140:325|168:331|168:331|212:327,1,127.5,0|0,0:0|0:0,0:0:0:0:
241,325,96000,6,0,B|265:346|265:346|309:350|309:350|345:332,1,101.999996887207,4|0,0:1|0:0,0:0:0:0:
481,237,96800,2,0,B|445:233|445:233|417:208|417:208|369:204,1,102
235,96,97600,6,0,B|259:74|259:74|303:70|303:70|339:88,1,101.999996887207
301,246,98400,1,0,0:0:0:0:
128,338,98800,6,0,B|125:313|125:313|119:285|119:285|128:266|128:266|118:240|118:240|114:193,1,127.5
91,162,99200,6,0,B|76:138|76:138|88:117|88:117|88:84|88:84|114:70,1,101.999996887207,4|0,0:1|0:0,0:0:0:0:
282,190,100000,2,0,B|268:214|268:214|229:211|229:211|222:215|222:215|216:210|216:210|181:207,1,101.999996887207
29,314,100800,6,0,B|42:335|42:335|71:333|71:333|92:340|92:340|114:324,1,101.999996887207
85,111,101600,2,0,B|65:126|65:126|68:165|68:165|64:172|64:172|69:178|69:178|72:213,1,101.999996887207
207,311,102400,6,0,B|250:299|283:317|283:317|306:314|306:314|338:321|338:321,2,114.749996498108
136,266,103200,6,0,P|120:229|150:168,1,76.4999976654053,4|0,0:0|0:0,0:0:0:0:
123,116,103600,2,0,P|163:120|200:177,1,76.4999976654053,4|0,0:0|0:0,0:0:0:0:
258,181,104000,6,0,P|233:213|166:217,1,76.4999976654053,4|0,0:0|0:0,0:0:0:0:
126,194,104400,2,0,L|41:186,1,76.4999976654053,4|0,0:0|0:0,0:0:0:0:
0,263,104800,2,0,L|84:270,1,76.4999976654053,4|0,0:0|0:0,0:0:0:0:
126,337,105200,6,0,B|195:330|195:330|204:324|204:324|265:318,1,140.25000428009
301,315,105600,6,0,B|345:311|345:311|390:281,1,76.4999976654053,4|0,0:1|0:0,0:0:0:0:
456,264,106000,2,0,B|430:227|430:227|381:203,1,76.4999976654053,4|0,0:0|0:0,0:0:0:0:
333,157,106400,2,0,B|313:197|313:197|317:251,1,76.4999976654053,4|0,0:0|0:0,0:0:0:0:
301,315,106800,2,0,L|296:362,2,38.2499988327027,4|0|0,0:0|0:0|0:0,0:0:0:0:
237,262,107200,6,0,B|174:256|174:256|133:234,1,76.4999976654053,4|0,0:0|0:0,0:0:0:0:
80,287,107600,2,0,B|85:224|85:224|107:183,1,76.4999976654053,4|0,0:0|0:0,0:0:0:0:
160,167,108000,2,0,L|157:125,2,38.2499988327027,4|0|0,0:0|0:0|0:0,0:0:0:0:
224,222,108400,6,0,B|255:224|255:224|259:229|259:229|263:225|263:225|291:235|291:235|319:230|319:230|323:234|323:234|327:231|327:231|363:234,1,140.25000428009,0|0,0:0|0:0,0:0:0:0:
396,239,108800,6,0,L|388:333,1,93.5000028533936,4|0,0:1|0:0,0:0:0:0:
308,327,109200,2,0,B|273:363|273:363|213:363,1,93.5000028533936,4|0,0:0|0:0,0:0:0:0:
181,297,109600,2,0,B|151:297|151:297|114:275|114:275|102:243,1,93.5000028533936,4|0,0:0|0:0,0:0:0:0:
127,177,110000,2,0,L|134:106,2,46.7500014266968,4|0|0,0:0|0:0|0:0,0:0:0:0:
54,104,110400,6,0,L|45:197,1,93.5000028533936,4|0,0:0|0:0,0:0:0:0:
0,277,110800,2,0,B|37:318|37:318|89:323,1,93.5000028533936,4|0,0:0|0:0,0:0:0:0:
156,289,111200,2,0,L|212:284,2,46.7500014266968,4|0|0,0:0|0:0|0:0,0:0:0:0:
131,209,111600,6,0,B|133:183|133:183|132:177|132:177|134:172|134:172|136:143|136:143|161:123|161:123|163:92|163:92|166:87|166:87|164:82|164:82|167:44,1,165.749992412568
166,20,112000,5,4,0:1:0:0:
254,25,112200,1,0,0:0:0:0:
293,104,112400,2,0,L|244:109,2,46.7500014266968
330,184,112800,2,0,L|377:187,2,46.7500014266968
303,268,113200,2,0,L|254:271,2,46.7500014266968
268,350,113600,6,0,B|241:356|241:356|189:338,3,46.7500014266968
181,310,114000,6,0,L|55:319,1,114.749996498108
21,322,114400,5,2,0:2:0:0:
26,222,114600,1,0,0:0:0:0:
106,165,114800,2,0,P|128:103|109:63,1,102,8|0,0:0|0:0,0:0:0:0:
83,39,115200,6,0,P|148:40|198:36,1,101.999996887207,0|0,0:0|0:0,0:0:0:0:
349,100,116000,1,8,0:0:0:0:
423,62,116200,1,4,0:0:0:0:
417,144,116400,2,0,P|352:181|280:140,1,148.75,4|0,0:1|0:0,0:0:0:0:
269,117,117200,6,0,P|259:149|262:193,1,68,4|4,0:0|0:0,0:0:0:0:
244,268,117600,2,0,B|299:267|299:267|326:272|326:272|354:259|354:259|383:267|383:267|445:267,1,204,8|0,0:0|0:0,0:0:0:0:
502,209,118400,6,0,P|514:164|508:137,1,63.75,0|0,0:0|0:0,0:0:0:0:
491,109,118800,6,0,B|404:100,1,68,4|0,0:0|0:0,0:0:0:0:
357,58,119200,2,0,B|270:66,1,68,8|0,0:0|0:0,0:0:0:0:
234,124,119600,6,0,P|168:138|128:116,1,106.25,4|0,0:1|0:0,0:0:0:0:
113,87,120200,5,0,0:0:0:0:
43,127,120400,2,0,P|39:162|43:181,1,42.5,0|0,0:0|0:0,0:0:0:0:
62,247,120800,6,0,B|96:229|96:229|147:231,1,68,2|0,0:0|0:0,0:0:0:0:
205,245,121200,2,0,L|239:241,3,34,0|0|0|0,0:0|0:0|0:0|0:0,0:0:0:0:
278,256,121600,6,0,B|303:225|303:225|305:175,1,68,0|0,0:0|0:0,0:0:0:0:
391,180,122000,6,0,B|375:136|375:136|327:110,1,85,0|0,0:0|0:0,0:0:0:0:
356,34,122400,6,0,P|329:34|298:43,1,42.5,10|0,0:0|0:0,0:0:0:0:
260,106,122800,1,0,0:0:0:0:
184,68,123000,2,0,P|173:117|199:168,1,106.25,4|0,0:0|0:0,0:0:0:0:
234,190,123600,6,0,P|239:219|232:246,1,42.5
173,283,124000,6,0,B|240:277|240:277|244:279|244:279|248:276|248:276|308:271|308:271|315:228|342:201|388:197,1,238,8|0,0:0|0:0,0:0:0:0:
414,201,124800,6,0,P|421:164|411:137,1,63.75
387,106,125200,1,4,0:0:0:0:
248,18,125600,6,0,L|255:92,1,68,8|0,0:0|0:0,0:0:0:0:
216,156,126000,2,0,P|161:176|110:160,1,106.25,0|0,0:0|0:0,0:0:0:0:
90,136,126600,5,0,0:0:0:0:
72,59,126800,2,0,L|76:8,2,42.5,0|0|0,0:0|0:0|0:0,0:0:0:0:
8,117,127400,1,4,0:0:0:0:
29,197,127600,2,0,L|31:230,3,21.25,2|2|2|2,0:0|0:0|0:0|0:0,0:0:0:0:
59,255,128000,6,0,B|99:278|135:260|135:260|139:256|139:256|147:256|147:256|151:253|151:253|188:231|236:263,1,170,0|8,0:0|0:2,0:0:0:0:
329,344,129200,2,0,B|353:337|386:345|386:345|408:329|408:329|442:342|480:328,1,148.75,0|0,0:0|0:0,0:0:0:0:
503,303,130000,6,0,L|506:231,1,68,4|0,0:0|0:0,0:0:0:0:
508,149,130400,2,0,B|452:144|452:144|425:136|425:136|396:147|396:147|368:136|368:136|306:131,1,204,8|0,0:0|0:0,0:0:0:0:
242,175,131200,6,0,L|213:171,3,21.25,0|0|0|0,0:0|0:0|0:0|0:0,0:0:0:0:
276,204,131600,2,0,P|280:252|275:269,1,68,4|0,0:0|0:0,0:0:0:0:
219,339,132000,2,0,P|186:346|153:341,1,68,8|0,0:0|0:0,0:0:0:0:
67,344,132400,2,0,P|82:297|54:241,1,106.25,4|0,0:1|0:0,0:0:0:0:
20,224,133000,5,0,0:0:0:0:
0,141,133200,2,0,P|-2:117|0:93,1,42.5,0|0,0:0|0:0,0:0:0:0:
50,35,133600,6,0,B|79:56|79:56|121:51,1,68,2|0,0:0|0:0,0:0:0:0:
191,39,134000,2,0,L|225:43,3,34,0|0|0|0,0:0|0:0|0:0|0:0,0:0:0:0:
264,28,134400,6,0,B|289:59|289:59|291:109,1,68,0|0,0:0|0:0,0:0:0:0:
377,104,134800,6,0,B|361:148|361:148|313:174,1,85,0|0,0:0|0:0,0:0:0:0:
342,250,135200,6,0,P|315:250|284:241,1,42.5,8|0,0:2|0:0,0:0:0:0:
246,178,135600,1,0,0:0:0:0:
172,221,135800,2,0,P|161:172|186:117,1,106.25
227,95,136400,6,0,P|263:94|283:103,1,42.5
328,155,136800,6,0,B|391:160|391:160|401:158|401:158|412:162|412:162|447:163|447:163|481:204|447:262,1,204,8|0,0:0|0:0,0:0:0:0:
429,323,137600,6,0,L|394:326,3,21.25
361,312,138000,2,0,P|332:316|309:309,1,42.5,4|0,0:0|0:0,0:0:0:0:
249,277,138400,1,8,0:0:0:0:
156,349,138800,2,0,B|160:301|160:301|167:292|167:292|173:231,1,106.25,0|0,0:0|0:0,0:0:0:0:
176,205,139400,5,0,0:0:0:0:
237,153,139600,2,0,P|270:152|291:160,1,42.5,0|0,0:0|0:0,0:0:0:0:
330,216,140000,1,8,0:0:0:0:
406,187,140200,6,0,B|409:150|409:150|398:129|401:104,1,68
398,114,140800,1,0,2:0:0:0:
