osu file format v14

[General]
AudioFilename: audio.mp3
AudioLeadIn: 0
PreviewTime: 31778
Countdown: 0
SampleSet: None
StackLeniency: 0.5
Mode: 0
LetterboxInBreaks: 0
WidescreenStoryboard: 1

[Editor]
Bookmarks: 76800,89600,102400,103200,108800,115200,128000,139600,140400,140800
DistanceSpacing: 1.5
BeatDivisor: 6
GridSize: 8
TimelineZoom: 1.8

[Metadata]
Title:FOLKLORE
TitleUnicode:FOLKLORE
Artist:sakuraburst
ArtistUnicode:【sakuraburst】
Creator:Shiirn
Version:mun's hard
Source:
Tags:mir mun plaudible anxient electronic mechanical ambient sakuraburst sample pack 5
BeatmapID:1302713
BeatmapSetID:617687

[Difficulty]
HPDrainRate:5
CircleSize:4
OverallDifficulty:6
ApproachRate:8
SliderMultiplier:1.8
SliderTickRate:1

[Events]
//Background and Video events
0,0,"ffffffffffff.jpg",0,0
//Break Periods
//Storyboard Layer 0 (Background)
//Storyboard Layer 1 (Fail)
//Storyboard Layer 2 (Pass)
//Storyboard Layer 3 (Foreground)
//Storyboard Sound Samples

[TimingPoints]
0,400,4,3,1,100,1,0
76800,-76.9230769230769,4,3,1,55,0,0
77100,-76.9230769230769,4,3,1,12,0,0
77200,-125,4,3,1,55,0,0
77400,-125,4,3,1,12,0,0
77600,-125,4,3,1,55,0,0
77800,-125,4,3,1,12,0,0
78000,-125,4,3,1,55,0,0
78200,-125,4,3,1,12,0,0
78400,-125,4,3,1,55,0,0
78600,-125,4,3,1,12,0,0
78800,-125,4,3,1,55,0,0
79000,-125,4,3,1,12,0,0
79200,-125,4,3,1,55,0,0
79400,-125,4,3,1,12,0,0
79600,-76.9230769230769,4,3,1,55,0,0
80000,-100,4,3,1,55,0,0
80400,-125,4,3,1,55,0,0
80600,-125,4,3,1,12,0,0
80800,-125,4,3,1,55,0,0
81000,-125,4,3,1,12,0,0
81200,-125,4,3,1,55,0,0
81400,-125,4,3,1,12,0,0
81600,-125,4,3,1,55,0,0
81800,-125,4,3,1,12,0,0
82000,-125,4,3,1,55,0,0
82200,-125,4,3,1,12,0,0
82400,-125,4,3,1,55,0,0
82600,-125,4,3,1,12,0,0
82800,-76.9230769230769,4,3,1,55,0,0
83200,-100,4,3,1,55,0,0
83600,-125,4,3,1,55,0,0
83800,-125,4,3,1,12,0,0
84000,-125,4,3,1,55,0,0
84200,-125,4,3,1,12,0,0
84400,-125,4,3,1,55,0,0
84600,-125,4,3,1,12,0,0
84800,-125,4,3,1,55,0,0
85000,-125,4,3,1,12,0,0
85200,-125,4,3,1,55,0,0
85400,-125,4,3,1,12,0,0
85600,-125,4,3,1,55,0,0
85800,-125,4,3,1,12,0,0
86000,-76.9230769230769,4,3,1,55,0,0
86400,-100,4,3,1,55,0,0
86800,-125,4,3,1,55,0,0
87000,-125,4,3,1,12,0,0
87200,-125,4,3,1,55,0,0
87400,-125,4,3,1,12,0,0
87600,-76.9230769230769,4,3,1,55,0,0
88000,-90.9090909090909,4,3,1,55,0,0
89400,-100,4,3,1,55,0,0
89600,-66.6666666666667,4,3,1,55,0,0
90400,-166.666666666667,4,3,1,55,0,0
90600,-166.666666666667,4,3,1,12,0,0
91200,-166.666666666667,4,3,1,55,0,0
91400,-166.666666666667,4,3,1,12,0,0
92000,-166.666666666667,4,3,1,55,0,0
92200,-166.666666666667,4,3,1,12,0,0
92400,-100,4,3,1,55,0,0
92800,-76.9230769230769,4,3,1,55,0,0
93600,-166.666666666667,4,3,1,55,0,0
93800,-166.666666666667,4,3,1,12,0,0
94400,-166.666666666667,4,3,1,55,0,0
94600,-166.666666666667,4,3,1,12,0,0
95200,-166.666666666667,4,3,1,55,0,0
95400,-166.666666666667,4,3,1,12,0,0
95600,-100,4,3,1,55,0,0
96000,-76.9230769230769,4,3,1,55,0,0
96800,-166.666666666667,4,3,1,55,0,0
97000,-166.666666666667,4,3,1,12,0,0
97600,-166.666666666667,4,3,1,55,0,0
97800,-166.666666666667,4,3,1,12,0,0
98400,-166.666666666667,4,3,1,55,0,0
98600,-166.666666666667,4,3,1,12,0,0
98800,-100,4,3,1,55,0,0
99200,-76.9230769230769,4,3,1,55,0,0
100000,-166.666666666667,4,3,1,55,0,0
100200,-166.666666666667,4,3,1,12,0,0
100800,-166.666666666667,4,3,1,55,0,0
101000,-166.666666666667,4,3,1,12,0,0
101600,-166.666666666667,4,3,1,55,0,0
101800,-166.666666666667,4,3,1,12,0,0
102000,-125,4,3,1,12,0,0
102400,-166.666666666667,4,3,1,55,0,0
102600,-166.666666666667,4,3,1,12,0,0
102700,-100,4,3,1,55,0,0
102900,-100,4,3,1,12,0,0
103000,-142.857142857143,4,3,1,12,0,0
103200,-76.9230769230769,4,3,1,55,0,0
103600,-100,4,3,1,55,0,0
105200,-71.4285714285714,4,3,1,55,0,0
105600,-83.3333333333333,4,3,1,55,0,0
108400,-71.4285714285714,4,3,1,55,0,0
108800,-76.9230769230769,4,3,1,55,0,0
109200,-90.9090909090909,4,3,1,55,0,0
111600,-66.6666666666667,4,3,1,55,0,0
112000,-76.9230769230769,4,3,1,55,0,0
114400,-66.6666666666667,4,3,1,55,0,0
114800,-125,4,3,1,55,0,0
115100,-125,4,3,1,12,0,0
115200,-125,4,3,1,55,0,0
116000,-200,4,3,1,55,0,0
117900,-200,4,3,1,12,0,0
118000,-125,4,3,1,55,0,0
118300,-125,4,3,1,12,0,0
118400,-125,4,3,1,55,0,0
118800,-142.857142857143,4,3,1,55,0,0
119100,-142.857142857143,4,3,1,12,0,0
119200,-142.857142857143,4,3,1,55,0,0
119500,-142.857142857143,4,3,1,12,0,0
119600,-200,4,3,1,55,0,0
120800,-125,4,3,1,55,0,0
123000,-200,4,3,1,55,0,0
123500,-200,4,3,1,12,0,0
123600,-200,4,3,1,55,0,0
124300,-200,4,3,1,12,0,0
124400,-200,4,3,1,55,0,0
124700,-200,4,3,1,12,0,0
124800,-200,4,3,1,55,0,0
125200,-166.666666666667,4,3,1,55,0,0
125500,-166.666666666667,4,3,1,12,0,0
125600,-125,4,3,1,55,0,0
125900,-125,4,3,1,12,0,0
126000,-200,4,3,1,55,0,0
129000,-200,4,3,1,55,0,0
130400,-142.857142857143,4,3,1,55,0,0
130700,-142.857142857143,4,3,1,12,0,0
130800,-142.857142857143,4,3,1,55,0,0
131100,-142.857142857143,4,3,1,12,0,0
131200,-142.857142857143,4,3,1,55,0,0
131900,-142.857142857143,4,3,1,12,0,0
132000,-142.857142857143,4,3,1,55,0,0
132300,-142.857142857143,4,3,1,12,0,0
132400,-200,4,3,1,55,0,0
133200,-125,4,3,1,55,0,0
135200,-100,4,3,1,55,0,0
135800,-200,4,3,1,55,0,0
136800,-166.666666666667,4,3,1,55,0,0
137100,-166.666666666667,4,3,1,12,0,0
137200,-166.666666666667,4,3,1,55,0,0
137500,-166.666666666667,4,3,1,12,0,0
137600,-166.666666666667,4,3,1,55,0,0
138000,-125,4,3,1,55,0,0
138300,-125,4,3,1,12,0,0
138400,-125,4,3,1,55,0,0
138700,-125,4,3,1,12,0,0
138800,-200,4,3,1,55,0,0
140300,-200,4,3,1,5,0,0

[Colours]
Combo1 : 149,111,164
Combo2 : 244,172,221
Combo3 : 174,66,206
Combo4 : 210,132,185

[HitObjects]
134,134,76800,6,0,B|158:174|134:222|134:222|110:270|142:334,1,175.499991966248,4|0,0:1|0:0,0:0:0:0:
142,318,77200,6,0,L|231:309,1,71.9999999999999,0|0,0:0|0:0,0:0:0:0:
72,178,77600,2,0,L|0:170,1,71.9999999999999,0|0,0:0|0:0,0:0:0:0:
156,331,78000,2,0,L|245:322,1,71.9999999999999,0|0,0:0|0:0,0:0:0:0:
343,247,78400,6,0,B|418:256|418:256|493:234,1,144,0|0,0:0|0:0,0:0:0:0:
483,236,79200,2,0,L|484:145,1,71.9999999999999,0|0,0:0|0:0,0:0:0:0:
369,101,79600,6,0,P|430:131|518:57,1,175.499991966248,0|0,0:0|0:0,0:0:0:0:
494,65,80000,6,0,P|490:96|506:158,1,90,4|0,0:1|0:0,0:0:0:0:
367,171,80400,2,0,B|372:137|372:137|367:96,1,72,0|0,0:0|0:0,0:0:0:0:
298,230,80800,2,0,B|293:264|293:264|298:305,1,72,0|0,0:0|0:0,0:0:0:0:
356,162,81200,2,0,B|361:128|361:128|356:87,1,72
283,234,81600,6,0,B|277:270|277:270|284:314|284:314|266:310|244:307|215:322,1,144
222,318,82400,2,0,P|196:329|186:338,1,36,0|0,0:0|0:0,0:0:0:0:
174,360,82600,2,0,P|159:349|142:343,1,36,0|0,0:0|0:0,0:0:0:0:
74,360,82800,6,0,B|123:308|121:258|121:258|84:225|78:163,1,175.499991966248,0|0,0:0|0:0,0:0:0:0:
171,187,83200,6,0,B|181:142|181:142|168:70,1,90,4|0,0:1|0:0,0:0:0:0:
282,26,83600,2,0,L|262:108,1,72,0|0,0:0|0:0,0:0:0:0:
322,173,84000,2,0,L|331:255,1,72,0|0,0:0|0:0,0:0:0:0:
296,35,84400,2,0,L|276:117,1,72,0|0,0:0|0:0,0:0:0:0:
338,185,84800,6,0,L|347:267,1,72,0|0,0:0|0:0,0:0:0:0:
309,43,85200,2,0,B|292:121|292:121|315:105|344:103|377:113,1,144,0|0,0:0|0:0,0:0:0:0:
247,165,86000,6,0,P|300:126|435:145,1,175.499991966248,0|0,0:0|0:0,0:0:0:0:
469,172,86400,6,0,B|479:128|479:128|471:83,1,90,4|0,0:1|0:0,0:0:0:0:
393,214,86800,2,0,P|359:205|324:212,1,72,0|0,0:0|0:0,0:0:0:0:
242,255,87200,2,0,P|208:264|173:257,1,72,0|0,0:0|0:0,0:0:0:0:
119,210,87600,6,0,B|134:251|129:295|129:295|100:310|73:309|73:309|61:285|66:262,1,175.499991966248,0|0,0:0|0:0,0:0:0:0:
118,192,88000,6,0,P|169:182|226:199,1,99.0000030212403,8|0,0:0|0:0,0:0:0:0:
233,202,88300,2,0,L|232:103,1,99.0000030212403,8|0,0:0|0:0,0:0:0:0:
246,88,88600,1,8,0:0:0:0:
339,128,88800,1,0,0:0:0:0:
333,147,88900,1,0,0:0:0:0:
331,166,89000,1,8,0:0:0:0:
333,185,89100,1,0,0:0:0:0:
339,203,89200,1,8,0:0:0:0:
411,131,89400,2,0,B|406:99|406:99|385:61,1,45,2|0,0:2|0:0,0:0:0:0:
370,80,89600,6,0,B|327:65|275:65|275:65|313:54|350:61,1,135.000005149842,4|0,0:1|0:0,0:0:0:0:
275,64,90400,6,0,P|241:69|211:90,1,53.9999983520508,0|0,0:0|0:0,0:0:0:0:
224,78,91200,2,0,P|199:101|186:136,1,53.9999983520508,0|0,0:0|0:0,0:0:0:0:
190,118,92000,2,0,P|183:151|192:187,1,53.9999983520508,0|0,0:0|0:0,0:0:0:0:
185,170,92400,6,0,B|184:230|184:230|112:284,1,135,0|0,0:0|0:0,0:0:0:0:
124,274,92800,6,0,P|189:298|221:354,1,116.999994644165,4|0,0:1|0:0,0:0:0:0:
255,300,93600,6,0,P|224:321|212:340,1,53.9999983520508,0|0,0:0|0:0,0:0:0:0:
306,289,94400,2,0,P|268:292|249:302,1,53.9999983520508,0|0,0:0|0:0,0:0:0:0:
356,306,95200,2,0,P|321:290|299:289,1,53.9999983520508,0|0,0:0|0:0,0:0:0:0:
305,288,95600,6,0,B|303:233|303:233|291:213|291:213|288:153,1,135,0|0,0:0|0:0,0:0:0:0:
289,157,96000,6,0,L|411:153,1,116.999994644165,4|0,0:1|0:0,0:0:0:0:
405,153,96800,6,0,L|418:206,1,53.9999983520508,0|0,0:0|0:0,0:0:0:0:
417,205,97600,2,0,L|404:258,1,53.9999983520508,0|0,0:0|0:0,0:0:0:0:
404,257,98400,2,0,L|417:310,1,53.9999983520508,0|0,0:0|0:0,0:0:0:0:
416,309,98800,6,0,B|352:324|352:324|271:309,1,135,0|0,0:0|0:0,0:0:0:0:
284,311,99200,6,0,P|301:249|267:193,1,116.999994644165,4|0,0:1|0:0,0:0:0:0:
229,222,100000,6,0,P|261:214|288:195,1,53.9999983520508,0|0,0:0|0:0,0:0:0:0:
175,218,100800,2,0,P|207:224|239:218,1,53.9999983520508,0|0,0:0|0:0,0:0:0:0:
128,192,101600,2,0,P|154:211|186:219,1,53.9999983520508,0|0,0:0|0:0,0:0:0:0:
174,217,102000,2,0,P|175:272|157:339,1,108,0|0,0:0|0:0,0:0:0:0:
150,330,102400,6,0,P|185:331|221:341,1,53.9999983520508,0|0,0:0|0:0,0:0:0:0:
222,326,102700,2,0,B|263:300|263:300|316:303,1,90,0|0,0:0|0:0,0:0:0:0:
327,306,103000,2,0,P|345:314|361:334,1,31.4999990386963,0|0,0:0|0:0,0:0:0:0:
367,337,103200,6,0,B|401:293|402:251|393:211|393:211|367:240|393:279,1,175.499991966248,4|0,0:0|0:0,0:0:0:0:
363,246,103600,6,0,P|376:202|413:155,1,90,4|0,0:0|0:0,0:0:0:0:
512,122,104000,2,0,P|499:78|462:31,1,90,4|0,0:0|0:0,0:0:0:0:
343,248,104400,2,0,P|356:204|393:157,1,90,4|0,0:0|0:0,0:0:0:0:
494,128,104800,2,0,P|481:84|444:37,1,90,4|0,0:0|0:0,0:0:0:0:
327,251,105200,6,0,B|330:208|351:171|375:150|375:150|325:159|278:140,1,188.999994232178,0|0,0:0|0:0,0:0:0:0:
225,126,105600,6,0,B|213:72|213:72|225:15,1,107.999996704102,4|0,0:1|0:0,0:0:0:0:
374,45,106000,2,0,B|386:99|386:99|374:156,1,107.999996704102,4|0,0:0|0:0,0:0:0:0:
204,114,106400,2,0,B|192:60|192:60|204:3,1,107.999996704102,4|0,0:0|0:0,0:0:0:0:
301,147,106800,1,4,0:0:0:0:
299,168,106900,1,0,0:0:0:0:
295,189,107000,1,0,0:0:0:0:
194,278,107200,6,0,P|263:267|318:286,1,107.999996704102,4|0,0:0|0:0,0:0:0:0:
408,347,107600,2,0,P|477:358|532:339,1,107.999996704102,4|0,0:0|0:0,0:0:0:0:
418,220,108000,1,4,0:0:0:0:
418,220,108100,1,0,0:0:0:0:
418,220,108200,1,0,0:0:0:0:
298,276,108400,6,0,B|279:299|273:324|273:348|273:348|236:306|165:319,1,188.999994232178,0|0,0:0|0:0,0:0:0:0:
157,323,108800,6,0,B|171:261|171:261|160:191,1,116.999994644165,4|0,0:1|0:0,0:0:0:0:
110,88,109200,2,0,P|186:118|222:104,1,99.0000030212403,4|0,0:0|0:0,0:0:0:0:
251,235,109600,2,0,P|175:205|139:219,1,99.0000030212403,4|0,0:0|0:0,0:0:0:0:
315,274,110000,1,4,0:0:0:0:
334,271,110100,1,0,0:0:0:0:
353,265,110200,1,0,0:0:0:0:
441,177,110400,6,0,B|451:124|451:124|440:71,1,99.0000030212403,4|0,0:0|0:0,0:0:0:0:
366,261,110800,2,0,B|356:314|356:314|365:358,1,99.0000030212403,4|0,0:0|0:0,0:0:0:0:
261,324,111200,1,4,0:0:0:0:
241,319,111300,1,0,0:0:0:0:
221,318,111400,1,0,0:0:0:0:
113,324,111600,6,0,B|73:310|59:267|80:217|80:217|73:254|24:273,1,202.500007724762,0|0,0:0|0:0,0:0:0:0:
11,202,112000,6,0,P|37:162|124:162,1,116.999994644165,4|0,0:1|0:0,0:0:0:0:
214,198,112400,6,0,L|288:208,3,58.4999973220826,0|0|0|0,0:0|0:0|0:0|0:0,0:0:0:0:
300,247,112800,2,0,L|369:218,3,58.4999973220826,0|0|0|0,0:0|0:0|0:0|0:0,0:0:0:0:
402,250,113200,6,0,L|447:190,3,58.4999973220826,0|0|0|0,0:0|0:0|0:0|0:0,0:0:0:0:
496,208,113600,2,0,L|506:134,3,58.4999973220826,0|0|0|0,0:0|0:0|0:0|0:0,0:0:0:0:
469,113,114000,5,0,0:0:0:0:
446,107,114100,1,0,0:0:0:0:
422,104,114200,2,0,B|391:110|391:110|346:104,1,58.4999973220826,0|0,0:0|0:0,0:0:0:0:
342,122,114400,2,0,P|271:98|198:169,1,135.000005149842,2|0,0:2|0:0,0:0:0:0:
161,207,114800,6,0,B|159:247|159:247|171:268|171:268|170:324,1,108,8|0,0:0|0:0,0:0:0:0:
164,338,115200,2,0,P|219:333|336:352,1,144,0|0,0:0|0:0,0:0:0:0:
306,343,116000,5,8,0:0:0:0:
257,251,116200,1,4,0:0:0:0:
332,180,116400,2,0,B|372:179|372:179|343:104|343:104|294:105,1,157.5,4|0,0:1|0:0,0:0:0:0:
296,111,117200,2,0,L|233:113,1,45,4|4,0:0|0:0,0:0:0:0:
149,94,117600,2,0,P|154:149|169:173,1,67.5,8|0,0:0|0:0,0:0:0:0:
153,185,118000,6,0,P|128:137|127:83,1,108,0|0,0:0|0:0,0:0:0:0:
130,64,118400,2,0,L|100:62,4,18,0|0|0|0|0,0:0|0:0|0:0|0:0|0:0,0:0:0:0:
230,24,118800,6,0,P|270:43|325:42,1,94.499997116089,4|0,0:0|0:0,0:0:0:0:
332,32,119200,2,0,P|300:49|279:81,1,62.9999980773926,8|0,0:0|0:0,0:0:0:0:
297,172,119600,6,0,P|311:226|297:269,1,90,4|0,0:1|0:0,0:0:0:0:
228,330,120200,1,0,0:0:0:0:
150,260,120400,2,0,L|149:207,2,30,0|0|0,0:0|0:0|0:0,0:0:0:0:
219,346,120800,6,0,P|287:338|336:349,1,108,2|0,0:0|0:0,0:0:0:0:
341,355,121200,2,0,L|366:336,4,24
356,312,121600,2,0,P|351:272|333:241,1,72,0|0,0:0|0:0,0:0:0:0:
416,205,122000,2,0,P|392:172|360:155,1,72,0|0,0:0|0:0,0:0:0:0:
274,175,122400,1,10,0:0:0:0:
274,175,122800,2,0,L|226:182,1,36,0|0,0:0|0:0,0:0:0:0:
219,190,123000,6,0,P|225:119|216:44,1,135,4|0,0:0|0:0,0:0:0:0:
203,49,124000,2,0,B|195:76|202:113|202:113|233:133|282:131,1,135,8|0,0:0|0:0,0:0:0:0:
363,88,124800,2,0,L|380:75,4,15,0|0|0|0|0,0:0|0:0|0:0|0:0|0:0,0:0:0:0:
384,71,125200,6,0,P|379:126|385:159,1,80.9999975280763,4|0,0:0|0:0,0:0:0:0:
397,162,125600,2,0,P|402:206|396:277,1,108,8|0,0:0|0:0,0:0:0:0:
387,283,126000,6,0,P|424:277|436:363,1,135,0|0,0:0|0:0,0:0:0:0:
360,296,126800,2,0,L|304:299,2,30,0|0|0,0:0|0:0|0:0,0:0:0:0:
315,287,127200,1,0,0:0:0:0:
241,359,127400,1,4,0:0:0:0:
156,299,127600,1,2,0:0:0:0:
156,299,127700,1,2,0:0:0:0:
156,299,127800,1,2,0:0:0:0:
156,299,127900,1,2,0:0:0:0:
156,299,128000,6,0,B|141:267|153:234|153:234|168:200|156:165,1,135,0|0,0:0|0:0,0:0:0:0:
221,261,128800,1,8,0:2:0:0:
152,152,129000,2,0,L|115:154,1,22.5,0|0,0:0|0:0,0:0:0:0:
101,138,129200,6,0,B|163:138|163:138|201:153|201:153|263:153,1,157.5,0|0,0:0|0:0,0:0:0:0:
297,143,130000,2,0,P|272:176|273:214,1,67.5,4|0,0:0|0:0,0:0:0:0:
281,228,130400,6,0,B|296:260|327:283|327:283|294:309|301:353|330:370|354:373|377:359|384:348,1,220.499993270874,8|0,0:0|0:0,0:0:0:0:
396,339,131200,6,0,B|411:337|411:337|428:339,3,31.4999990386963,0|0|0|0,0:0|0:0|0:0|0:0,0:0:0:0:
458,338,131600,2,0,P|465:292|448:236,1,94.499997116089,4|0,0:0|0:0,0:0:0:0:
430,239,132000,2,0,P|474:225|499:201,1,62.9999980773926,8|0,0:0|0:0,0:0:0:0:
384,167,132400,6,0,P|358:192|345:254,1,90,4|0,0:1|0:0,0:0:0:0:
272,188,133000,1,0,0:0:0:0:
226,265,133200,6,0,L|224:316,2,48,0|0|0,0:0|0:0|0:0,0:0:0:0:
167,188,133600,1,2,0:0:0:0:
119,268,133800,1,0,0:0:0:0:
31,233,134000,2,0,L|29:207,4,24,0|0|0|0|0,0:0|0:0|0:0|0:0|0:0,0:0:0:0:
37,253,134400,6,0,B|43:288|43:288|36:335,1,72,0|0,0:0|0:0,0:0:0:0:
92,176,134800,2,0,B|86:141|86:141|93:94,1,72,0|0,0:0|0:0,0:0:0:0:
189,39,135200,6,0,P|252:53|324:34,1,135,8|0,0:2|0:0,0:0:0:0:
318,61,135600,1,0,0:0:0:0:
390,114,135800,6,0,B|403:156|403:156|393:209,1,90,0|0,0:0|0:0,0:0:0:0:
475,240,136400,2,0,L|473:195,1,45,0|0,0:0|0:0,0:0:0:0:
441,321,136800,6,0,P|373:277|278:304,1,161.999995056153,8|0,0:0|0:0,0:0:0:0:
223,325,137600,6,0,L|226:358,3,26.9999991760254,0|0|0|0,0:0|0:0|0:0|0:0,0:0:0:0:
216,369,138000,2,0,B|167:344|167:344|107:339,1,108,4|0,0:0|0:0,0:0:0:0:
110,354,138400,2,0,P|154:338|193:302,1,72,8|0,0:0|0:0,0:0:0:0:
118,187,138800,6,0,P|100:244|117:289,1,90,0|0,0:0|0:0,0:0:0:0:
133,178,139400,1,0,0:0:0:0:
190,237,139600,2,0,P|236:228|285:233,1,90,0|8,0:0|0:0,0:0:0:0:
389,298,140200,2,0,L|389:323,1,22.5,0|0,0:0|0:0,0:0:0:0:
389,298,140800,5,0,2:0:0:0:
