osu file format v14

[General]
AudioFilename: audio.mp3
AudioLeadIn: 0
PreviewTime: 31778
Countdown: 0
SampleSet: None
StackLeniency: 0.7
Mode: 0
LetterboxInBreaks: 0
WidescreenStoryboard: 1

[Editor]
Bookmarks: 76800,89600,102400,103200,108800,115200,128000,139600,140400,140800
DistanceSpacing: 1
BeatDivisor: 4
GridSize: 8
TimelineZoom: 2.999999

[Metadata]
Title:FOLKLORE
TitleUnicode:FOLKLORE
Artist:sakuraburst
ArtistUnicode:【sakuraburst】
Creator:Shiirn
Version:mir's insane
Source:
Tags:mir mun plaudible anxient electronic mechanical ambient sakuraburst sample pack 5
BeatmapID:1303762
BeatmapSetID:617687

[Difficulty]
HPDrainRate:6
CircleSize:4
OverallDifficulty:8
ApproachRate:9
SliderMultiplier:2.54
SliderTickRate:1

[Events]
//Background and Video events
0,0,"ffffffffffff.jpg",0,0
//Break Periods
//Storyboard Layer 0 (Background)
//Storyboard Layer 1 (Fail)
//Storyboard Layer 2 (Pass)
//Storyboard Layer 3 (Foreground)
//Storyboard Sound Samples

[TimingPoints]
0,400,4,3,1,100,1,0
76800,-200,4,3,1,55,0,0
77100,-200,4,3,1,12,0,0
77200,-200,4,3,1,55,0,0
77400,-200,4,3,1,12,0,0
77600,-200,4,3,1,55,0,0
77800,-200,4,3,1,12,0,0
78000,-200,4,3,1,55,0,0
78200,-200,4,3,1,12,0,0
78400,-200,4,3,1,55,0,0
78600,-200,4,3,1,12,0,0
78800,-200,4,3,1,55,0,0
79000,-200,4,3,1,12,0,0
79200,-200,4,3,1,55,0,0
79400,-200,4,3,1,12,0,0
79600,-66.6666666666667,4,3,1,55,0,0
80000,-200,4,3,1,55,0,0
80600,-200,4,3,1,12,0,0
80800,-200,4,3,1,55,0,0
81000,-200,4,3,1,12,0,0
81200,-200,4,3,1,55,0,0
81400,-200,4,3,1,12,0,0
81600,-200,4,3,1,55,0,0
81800,-200,4,3,1,12,0,0
82000,-200,4,3,1,55,0,0
82200,-200,4,3,1,12,0,0
82400,-200,4,3,1,55,0,0
82600,-200,4,3,1,12,0,0
82800,-66.6666666666667,4,3,1,55,0,0
83200,-200,4,3,1,55,0,0
83800,-200,4,3,1,12,0,0
84000,-200,4,3,1,55,0,0
84200,-200,4,3,1,12,0,0
84400,-200,4,3,1,55,0,0
84600,-200,4,3,1,12,0,0
84800,-200,4,3,1,55,0,0
85000,-200,4,3,1,12,0,0
85200,-200,4,3,1,55,0,0
85400,-200,4,3,1,12,0,0
85600,-200,4,3,1,55,0,0
85800,-200,4,3,1,12,0,0
86000,-66.6666666666667,4,3,1,55,0,0
86400,-200,4,3,1,55,0,0
87000,-200,4,3,1,12,0,0
87200,-200,4,3,1,55,0,0
87400,-200,4,3,1,12,0,0
87600,-66.6666666666667,4,3,1,55,0,0
88000,-200,4,3,1,55,0,0
89400,-66.6666666666667,4,3,1,55,0,0
89600,-200,4,3,1,55,0,0
90600,-200,4,3,1,12,0,0
91200,-200,4,3,1,55,0,0
91400,-200,4,3,1,12,0,0
92000,-200,4,3,1,55,0,0
92200,-200,4,3,1,12,0,0
92400,-66.6666666666667,4,3,1,55,0,0
92800,-200,4,3,1,55,0,0
93800,-200,4,3,1,12,0,0
94400,-200,4,3,1,55,0,0
94600,-200,4,3,1,12,0,0
95200,-200,4,3,1,55,0,0
95400,-200,4,3,1,12,0,0
95600,-66.6666666666667,4,3,1,55,0,0
96000,-200,4,3,1,55,0,0
97000,-200,4,3,1,12,0,0
97600,-200,4,3,1,55,0,0
97800,-200,4,3,1,12,0,0
98400,-200,4,3,1,55,0,0
98600,-200,4,3,1,12,0,0
98800,-66.6666666666667,4,3,1,55,0,0
99200,-200,4,3,1,55,0,0
100200,-200,4,3,1,12,0,0
100800,-200,4,3,1,55,0,0
101000,-200,4,3,1,12,0,0
101600,-200,4,3,1,55,0,0
101800,-200,4,3,1,12,0,0
102400,-133.333333333333,4,3,1,55,0,0
102600,-133.333333333333,4,3,1,12,0,0
102700,-133.333333333333,4,3,1,55,0,0
102900,-133.333333333333,4,3,1,12,0,0
103200,-66.6666666666667,4,3,1,55,0,0
103600,-100,4,3,1,55,0,0
105200,-66.6666666666667,4,3,1,55,0,0
105600,-100,4,3,1,55,0,0
108400,-66.6666666666667,4,3,1,55,0,0
108800,-100,4,3,1,55,0,0
111600,-66.6666666666667,4,3,1,55,0,0
112000,-100,4,3,1,55,0,0
114800,-333.333333333333,4,3,1,55,0,0
115100,-333.333333333333,4,3,1,12,0,0
115200,-333.333333333333,4,3,1,55,0,0
116000,-500,4,3,1,55,0,0
116400,-333.333333333333,4,3,1,55,0,0
117600,-100,4,3,1,55,0,0
117900,-100,4,3,1,12,0,0
118000,-100,4,3,1,55,0,0
118300,-100,4,3,1,12,0,0
118400,-500,4,3,1,55,0,0
118800,-333.333333333333,4,3,1,55,0,0
119100,-333.333333333333,4,3,1,12,0,0
119200,-200,4,3,1,55,0,0
119500,-200,4,3,1,12,0,0
119600,-333.333333333333,4,3,1,55,0,0
120800,-66.6666666666667,4,3,1,55,0,0
121600,-500,4,3,1,55,0,0
122350,-500,4,3,1,55,0,0
122400,-500,4,3,1,55,0,0
123000,-333.333333333333,4,3,1,55,0,0
123500,-333.333333333333,4,3,1,12,0,0
123600,-333.333333333333,4,3,1,55,0,0
124000,-100,4,3,1,55,0,0
124300,-100,4,3,1,12,0,0
124400,-100,4,3,1,55,0,0
124700,-100,4,3,1,12,0,0
124800,-500,4,3,1,55,0,0
125200,-333.333333333333,4,3,1,55,0,0
125500,-333.333333333333,4,3,1,12,0,0
125600,-333.333333333333,4,3,1,55,0,0
125900,-333.333333333333,4,3,1,12,0,0
126000,-333.333333333333,4,3,1,55,0,0
127200,-100,4,3,1,55,0,0
128000,-500,4,3,1,55,0,0
128800,-333.333333333333,4,3,1,55,0,0
129000,-100,4,3,1,55,0,0
129200,-333.333333333333,4,3,1,55,0,0
130400,-100,4,3,1,55,0,0
130700,-100,4,3,1,12,0,0
130800,-100,4,3,1,55,0,0
131100,-100,4,3,1,12,0,0
131200,-100,4,3,1,55,0,0
131600,-333.333333333333,4,3,1,55,0,0
131900,-333.333333333333,4,3,1,12,0,0
132000,-333.333333333333,4,3,1,55,0,0
132300,-333.333333333333,4,3,1,12,0,0
132400,-333.333333333333,4,3,1,55,0,0
133600,-66.6666666666667,4,3,1,55,0,0
134400,-500,4,3,1,55,0,0
135150,-500,4,3,1,55,0,0
135200,-500,4,3,1,55,0,0
135800,-333.333333333333,4,3,1,55,0,0
136800,-100,4,3,1,55,0,0
137100,-100,4,3,1,12,0,0
137200,-100,4,3,1,55,0,0
137500,-100,4,3,1,12,0,0
137600,-100,4,3,1,55,0,0
138000,-333.333333333333,4,3,1,55,0,0
138300,-333.333333333333,4,3,1,12,0,0
138400,-333.333333333333,4,3,1,55,0,0
138700,-333.333333333333,4,3,1,12,0,0
138800,-400,4,3,1,55,0,0
139600,-500,4,3,1,55,0,0
139950,-500,4,3,1,55,0,0
140000,-500,4,3,1,55,0,0
140200,-50,4,3,1,55,0,0
140300,-50,4,3,1,5,0,0
140400,-500,4,3,1,5,0,0
140800,-500,4,3,1,5,0,0

[Colours]
Combo1 : 149,111,164
Combo2 : 244,172,221
Combo3 : 174,66,206
Combo4 : 210,132,185

[HitObjects]
137,64,76800,6,0,B|123:94|123:94|127:152,1,63.5,4|0,0:1|0:0,0:0:0:0:
245,125,77200,6,0,L|326:127,1,63.5,0|0,0:0|0:0,0:0:0:0:
434,193,77600,2,0,L|353:195,1,63.5,0|0,0:0|0:0,0:0:0:0:
248,140,78000,2,0,L|329:142,1,63.5,0|0,0:0|0:0,0:0:0:0:
437,208,78400,6,0,L|356:210,1,63.5,0|0,0:0|0:0,0:0:0:0:
254,154,78800,2,0,L|335:156,1,63.5,0|0,0:0|0:0,0:0:0:0:
443,222,79200,2,0,L|362:224,1,63.5,0|0,0:0|0:0,0:0:0:0:
279,68,79600,6,0,B|227:33|114:34|79:123|79:123|109:90|208:87,1,285.750010900498,0|0,0:0|0:0,0:0:0:0:
122,98,80000,5,4,0:1:0:0:
63,250,80200,1,0,0:0:0:0:
261,234,80400,6,0,L|197:235,1,63.5
60,266,80800,2,0,L|123:267,1,63.5,0|0,0:0|0:0,0:0:0:0:
259,249,81200,2,0,L|195:250,1,63.5,0|0,0:0|0:0,0:0:0:0:
58,281,81600,6,0,L|121:282,1,63.5,0|0,0:0|0:0,0:0:0:0:
259,265,82000,2,0,L|195:266,1,63.5,0|0,0:0|0:0,0:0:0:0:
58,297,82400,2,0,L|121:298,1,63.5,0|0,0:0|0:0,0:0:0:0:
328,298,82800,6,0,B|348:266|330:192|286:188|244:185|244:185|294:149|294:149|384:168,1,285.750010900498,0|0,0:0|0:0,0:0:0:0:
382,169,83200,6,0,B|337:149|337:149|361:176,1,63.5,4|0,0:1|0:0,0:0:0:0:
118,157,83600,6,0,L|208:138,1,63.5
285,83,84000,2,0,L|194:64,1,63.5,0|0,0:0|0:0,0:0:0:0:
114,171,84400,2,0,L|204:152,1,63.5,0|0,0:0|0:0,0:0:0:0:
281,97,84800,6,0,L|190:78,1,63.5,0|0,0:0|0:0,0:0:0:0:
108,188,85200,2,0,L|198:169,1,63.5,0|0,0:0|0:0,0:0:0:0:
275,114,85600,2,0,L|184:95,1,63.5,0|0,0:0|0:0,0:0:0:0:
65,190,86000,6,0,B|50:201|84:225|84:225|31:229|10:185|4:114|57:89|117:92|139:154,1,285.750010900498,0|0,0:0|0:0,0:0:0:0:
129,134,86400,5,4,0:1:0:0:
20,8,86600,1,0,0:0:0:0:
231,40,86800,2,0,L|149:43,1,63.5,0|0,0:0|0:0,0:0:0:0:
23,23,87200,2,0,L|105:26,1,63.5,0|0,0:0|0:0,0:0:0:0:
238,56,87600,6,0,B|257:108|257:108|230:173|230:173|290:240|225:303|225:303|215:284,1,285.750010900498
219,292,88000,6,0,P|256:282|301:292,1,63.5,8|0,0:0|0:0,0:0:0:0:
354,315,88300,1,8,0:0:0:0:
400,129,88500,1,0,0:0:0:0:
455,191,88600,2,0,P|457:248|446:271,1,63.5,8|0,0:0|0:0,0:0:0:0:
435,336,88900,1,0,0:0:0:0:
417,344,89000,1,8,0:0:0:0:
398,341,89100,1,0,0:0:0:0:
379,335,89200,2,0,L|344:307,1,31.75,8|0,0:0|0:0,0:0:0:0:
339,94,89400,6,0,P|300:82|219:146,1,95.2500036334992,2|0,0:2|0:0,0:0:0:0:
199,158,89600,6,0,B|191:183|201:195|201:195|218:183|220:159,1,63.5,4|0,0:1|0:0,0:0:0:0:
216,175,90400,1,0,0:0:0:0:
233,192,91200,1,0,0:0:0:0:
256,215,92000,1,0,0:0:0:0:
256,215,92400,6,0,B|331:193|394:249|484:209|484:209|478:253|400:270,1,285.750010900498,0|0,0:0|0:0,0:0:0:0:
452,250,92800,6,0,B|433:262|430:288|430:288|460:296|473:281,1,63.5,4|0,0:1|0:0,0:0:0:0:
447,290,93600,1,0,0:0:0:0:
427,310,94400,1,0,0:0:0:0:
407,330,95200,1,0,0:0:0:0:
407,330,95600,6,0,B|324:301|256:307|261:367|188:367|79:315,1,285.750010900498,0|0,0:0|0:0,0:0:0:0:
129,335,96000,6,0,B|140:318|140:318|121:304|121:304|131:274,1,63.5,4|0,0:1|0:0,0:0:0:0:
127,285,96800,1,0,0:0:0:0:
147,265,97600,1,0,0:0:0:0:
167,245,98400,1,0,0:0:0:0:
167,245,98800,6,0,B|164:82|164:82|166:19|119:-15|32:24,1,285.750010900498,0|0,0:0|0:0,0:0:0:0:
88,7,99200,6,0,B|59:24|59:24|105:33,1,63.5,4|0,0:1|0:0,0:0:0:0:
87,29,100000,1,0,0:0:0:0:
107,49,100800,1,0,0:0:0:0:
127,69,101600,1,0,0:0:0:0:
180,75,102400,6,0,B|158:115|158:115|168:180,1,95.2500036334992,0|0,0:0|0:0,0:0:0:0:
210,241,102700,2,0,P|278:232|317:246,1,95.2500036334992,0|0,0:0|0:0,0:0:0:0:
391,272,103000,2,0,B|404:256|404:256|392:209,1,47.6250018167496,0|0,0:0|0:0,0:0:0:0:
165,164,103200,6,0,P|98:231|244:330,1,285.750010900498,4|0,0:0|0:0,0:0:0:0:
315,241,103600,6,0,B|268:239|268:239|236:253|236:253|164:251,1,127,4|0,0:0|0:0,0:0:0:0:
334,154,104000,2,0,P|404:205|406:269,1,127,4|0,0:0|0:0,0:0:0:0:
227,131,104400,1,4,0:0:0:0:
360,309,104600,1,0,0:0:0:0:
315,54,104800,1,4,0:0:0:0:
315,241,105000,1,0,0:0:0:0:
171,39,105200,6,0,B|118:22|118:22|169:132|169:132|161:275,1,285.750010900498,0|0,0:0|0:0,0:0:0:0:
162,240,105600,6,0,P|113:200|114:175,1,63.5,4|0,0:1|0:0,0:0:0:0:
53,147,105800,2,0,B|66:117|66:117|80:152,1,63.5,0|0,0:0|0:0,0:0:0:0:
69,224,106000,1,4,0:0:0:0:
55,125,106200,2,0,B|68:95|68:95|82:130,1,63.5,0|0,0:0|0:0,0:0:0:0:
71,202,106400,1,4,0:0:0:0:
68,95,106600,1,0,0:0:0:0:
233,136,106800,5,4,0:0:0:0:
256,126,106900,1,0,0:0:0:0:
307,92,107000,5,0,0:0:0:0:
331,98,107100,1,0,0:0:0:0:
410,130,107200,6,0,P|430:209|386:264,1,127,4|0,0:0|0:0,0:0:0:0:
332,301,107600,2,0,P|309:243|332:185,1,127,4|0,0:0|0:0,0:0:0:0:
481,293,108000,1,4,0:0:0:0:
452,318,108100,1,0,0:0:0:0:
415,329,108200,1,0,0:0:0:0:
332,185,108400,6,0,B|250:159|191:189|159:249|175:296|279:311|252:226,1,285.750010900498,0|0,0:0|0:0,0:0:0:0:
254,234,108800,5,4,0:1:0:0:
119,249,109000,2,0,P|100:253|125:262,1,63.5,0|0,0:0|0:0,0:0:0:0:
133,154,109200,1,4,0:0:0:0:
199,297,109400,2,0,P|218:301|193:310,1,63.5,0|0,0:0|0:0,0:0:0:0:
119,249,109600,1,4,0:0:0:0:
314,316,109800,1,0,0:0:0:0:
244,151,110000,5,4,0:0:0:0:
227,116,110100,1,0,0:0:0:0:
209,81,110200,1,0,0:0:0:0:
294,12,110400,6,0,L|447:16,1,127,4|0,0:0|0:0,0:0:0:0:
512,118,110800,2,0,L|359:122,1,127,4|0,0:0|0:0,0:0:0:0:
321,225,111200,5,0,0:0:0:0:
328,249,111300,1,0,0:0:0:0:
297,286,111400,5,0,0:0:0:0:
290,310,111500,1,0,0:0:0:0:
223,356,111600,6,0,B|177:335|135:256|205:202|245:197|245:197|198:188|170:123,1,285.750010900498
178,134,112000,5,4,0:1:0:0:
257,280,112200,2,0,B|285:276|285:276|296:283|296:283|341:278,1,63.5
435,182,112400,5,0,0:0:0:0:
438,200,112500,1,0,0:0:0:0:
438,219,112600,1,0,0:0:0:0:
433,237,112700,1,0,0:0:0:0:
405,268,112800,5,0,0:0:0:0:
402,286,112900,1,0,0:0:0:0:
402,305,113000,1,0,0:0:0:0:
407,323,113100,1,0,0:0:0:0:
378,354,113200,5,0,0:0:0:0:
358,352,113300,1,0,0:0:0:0:
339,351,113400,1,0,0:0:0:0:
320,350,113500,1,0,0:0:0:0:
300,325,113600,5,0,0:0:0:0:
281,326,113700,1,0,0:0:0:0:
262,328,113800,1,0,0:0:0:0:
243,329,113900,1,0,0:0:0:0:
202,337,114000,5,0,0:0:0:0:
197,318,114100,1,0,0:0:0:0:
197,299,114200,1,0,0:0:0:0:
202,281,114300,1,0,0:0:0:0:
266,229,114400,5,2,0:2:0:0:
91,29,114600,2,0,L|91:113,1,63.5,0|0,0:0|0:0,0:0:0:0:
238,144,114800,6,0,B|268:139|268:139|309:146,1,57.1499982559205,8|0,0:0|0:0,0:0:0:0:
375,199,115200,6,0,P|393:140|361:71,1,133.349995930481,0|0,0:0|0:0,0:0:0:0:
285,20,116000,5,8,0:0:0:0:
278,42,116200,1,4,0:0:0:0:
127,332,116400,6,0,P|104:266|146:203,1,133.349995930481,4|0,0:1|0:0,0:0:0:0:
188,273,117200,1,4,0:0:0:0:
91,78,117400,2,0,L|95:110,1,19.0499994186402,4|0,0:0|0:0,0:0:0:0:
188,287,117600,6,0,B|253:259|339:266|330:324|422:337|496:330|561:210|411:95|352:218,1,444.5,8|0,0:0|0:0,0:0:0:0:
388,179,118400,6,0,L|340:174,1,38.1,0|0,0:0|0:0,0:0:0:0:
163,23,118800,6,0,L|165:96,1,57.1499982559205,4|0,0:0|0:0,0:0:0:0:
350,175,119200,2,0,P|275:178|242:155,1,95.25,8|0,0:0|0:0,0:0:0:0:
15,36,119600,6,0,B|-5:19|-5:19|9:121,1,114.299996511841,4|0,0:1|0:0,0:0:0:0:
9,137,120400,2,0,L|3:166,1,19.0499994186402
98,192,120600,2,0,L|104:221,1,19.0499994186402
302,33,120800,6,0,B|352:26|379:68|379:68|430:10|522:59|477:121|446:128|414:107|432:83,1,285.750010900498,2|0,0:0|0:0,0:0:0:0:
214,30,121200,6,0,B|205:60|205:60|265:110,5,63.5000024223328
307,129,121600,6,0,P|256:168|223:167,1,95.25,0|0,0:0|0:0,0:0:0:0:
221,166,122400,1,10,0:0:0:0:
215,162,122800,2,0,L|205:152,1,12.7,0|0,0:0|0:0,0:0:0:0:
42,288,123000,6,0,L|145:288,1,95.2499970932008,4|0,0:0|0:0,0:0:0:0:
196,343,123600,1,0,0:0:0:0:
367,251,123800,2,0,L|366:242,2,9.52499970932008,0|0|0,0:0|0:0|0:0,0:0:0:0:
439,188,124000,6,0,P|393:159|440:308,1,444.5,8|0,0:0|0:0,0:0:0:0:
434,314,124800,6,0,P|407:292|395:288,1,38.1,0|0,0:0|0:0,0:0:0:0:
328,28,125200,6,0,L|333:102,1,57.1499982559205,4|0,0:0|0:0,0:0:0:0:
113,143,125600,2,0,P|144:127|178:125,1,57.1499982559205,8|0,0:0|0:0,0:0:0:0:
434,314,126000,6,0,B|444:339|444:339|444:251,1,114.299996511841
213,332,126800,2,0,L|241:325,1,19.0499994186402,0|0,0:0|0:0,0:0:0:0:
113,222,127000,2,0,L|131:226,1,19.0499994186402,0|0,0:0|0:0,0:0:0:0:
191,66,127200,6,0,P|255:45|293:55,1,63.5,0|0,0:0|0:0,0:0:0:0:
337,185,127400,2,0,P|273:164|235:174,1,63.5,4|0,0:0|0:0,0:0:0:0:
113,222,127600,5,2,0:0:0:0:
99,247,127700,1,2,0:0:0:0:
118,323,127800,5,2,0:0:0:0:
131,348,127900,1,2,0:0:0:0:
204,370,128000,6,0,P|249:343|293:346,1,88.9
328,130,128800,6,0,L|330:164,1,19.0499994186402,8|0,0:2|0:0,0:0:0:0:
136,161,129000,6,0,P|229:136|237:137,1,63.5,0|0,0:0|0:0,0:0:0:0:
486,140,129200,6,0,B|504:122|504:122|490:237,1,133.349995930481
483,316,130000,1,4,0:0:0:0:
192,290,130200,2,0,L|191:280,2,9.52499970932008,0|0|0,0:0|0:0|0:0,0:0:0:0:
110,334,130400,6,0,B|81:242|160:196|160:196|143:133|57:137|57:137|21:133|8:58|62:46|126:82|63:128,1,444.5,8|0,0:0|0:0,0:0:0:0:
34,214,131200,6,0,P|20:247|19:287,1,63.5,0|0,0:0|0:0,0:0:0:0:
233,152,131400,2,0,P|247:185|248:225,1,63.5,0|0,0:0|0:0,0:0:0:0:
486,369,131600,6,0,P|485:325|475:301,1,57.1499982559205,4|0,0:0|0:0,0:0:0:0:
365,75,132000,2,0,L|366:144,1,57.1499982559205,8|0,0:0|0:0,0:0:0:0:
312,324,132400,6,0,B|314:347|314:347|270:319|211:333,1,114.299996511841
41,360,133200,2,0,L|71:356,1,19.0499994186402,0|0,0:0|0:0,0:0:0:0:
44,238,133400,2,0,L|62:240,1,19.0499994186402
310,143,133600,6,0,P|336:237|312:263,1,95.2500036334993,2|0,0:0|0:0,0:0:0:0:
226,330,133800,1,0,0:0:0:0:
269,62,134000,6,0,B|293:40|293:40|350:68,5,63.5000024223328,0|0|0|0|0|0,0:0|0:0|0:0|0:0|0:0|0:0,0:0:0:0:
222,137,134400,6,0,P|187:88|186:51,1,95.25,0|0,0:0|0:0,0:0:0:0:
186,48,135200,2,0,L|147:47,1,38.1,8|0,0:2|0:0,0:0:0:0:
37,97,135600,2,0,L|31:93,2,6.35,0|0|0,0:0|0:0|0:0,0:0:0:0:
191,214,135800,6,0,P|215:250|218:304,1,95.2499970932008,0|0,0:0|0:0,0:0:0:0:
2,290,136400,2,0,L|31:290,1,19.0499994186402,0|0,0:0|0:0,0:0:0:0:
219,328,136600,2,0,L|190:328,1,19.0499994186402,0|0,0:0|0:0,0:0:0:0:
136,98,136800,6,0,B|211:33|286:25|410:94|410:94|364:94|313:141|326:185|348:222,1,444.5,8|0,0:0|0:0,0:0:0:0:
414,176,137600,5,0,0:0:0:0:
429,186,137700,1,0,0:0:0:0:
444,196,137800,1,0,0:0:0:0:
458,207,137900,1,0,0:0:0:0:
506,279,138000,6,0,P|455:290|441:290,1,57.1499982559205,4|0,0:0|0:0,0:0:0:0:
195,243,138400,2,0,P|246:248|264:246,1,57.1499982559205,8|0,0:0|0:0,0:0:0:0:
364,39,138800,6,0,P|334:61|324:124,1,95.25,0|0,0:0|0:0,0:0:0:0:
102,87,139600,6,0,L|148:86,1,44.45,0|0,0:0|0:0,0:0:0:0:
152,87,140000,1,8,0:0:0:0:
405,107,140200,6,0,B|485:145|482:222|444:275|444:275|400:258|372:193,1,254,0|0,0:0|0:0,0:0:0:0:
401,243,140800,5,0,2:0:0:0:
