osu file format v14

[General]
AudioFilename: audio.mp3
AudioLeadIn: 0
PreviewTime: 31778
Countdown: 0
SampleSet: None
StackLeniency: 0.5
Mode: 0
LetterboxInBreaks: 0
WidescreenStoryboard: 1

[Editor]
Bookmarks: 76800,89600,102400,103200,108800,115200,128000,139600,140400,140800
DistanceSpacing: 1.5
BeatDivisor: 4
GridSize: 8
TimelineZoom: 1.8

[Metadata]
Title:FOLKLORE
TitleUnicode:FOLKLORE
Artist:sakuraburst
ArtistUnicode:【sakuraburst】
Creator:Shiirn
Version:anxient's normal
Source:
Tags:mir mun plaudible anxient electronic mechanical ambient sakuraburst sample pack 5
BeatmapID:1310058
BeatmapSetID:617687

[Difficulty]
HPDrainRate:2.5
CircleSize:3
OverallDifficulty:3
ApproachRate:4
SliderMultiplier:1.1
SliderTickRate:1

[Events]
//Background and Video events
0,0,"ffffffffffff.jpg",0,0
//Break Periods
//Storyboard Layer 0 (Background)
//Storyboard Layer 1 (Fail)
//Storyboard Layer 2 (Pass)
//Storyboard Layer 3 (Foreground)
//Storyboard Sound Samples

[TimingPoints]
0,400,4,3,1,100,1,0
76800,-100,4,3,1,55,0,0
77100,-100,4,3,1,12,0,0
77200,-100,4,3,1,55,0,0
77400,-100,4,3,1,12,0,0
77600,-100,4,3,1,55,0,0
77800,-100,4,3,1,12,0,0
78000,-100,4,3,1,55,0,0
78200,-100,4,3,1,12,0,0
78400,-100,4,3,1,55,0,0
78600,-100,4,3,1,12,0,0
78800,-100,4,3,1,55,0,0
79000,-100,4,3,1,12,0,0
79200,-100,4,3,1,55,0,0
79400,-100,4,3,1,12,0,0
79600,-100,4,3,1,55,0,0
80600,-100,4,3,1,12,0,0
80800,-100,4,3,1,55,0,0
81000,-100,4,3,1,12,0,0
81200,-100,4,3,1,55,0,0
81400,-100,4,3,1,12,0,0
81600,-100,4,3,1,55,0,0
81800,-100,4,3,1,12,0,0
82000,-100,4,3,1,55,0,0
82200,-100,4,3,1,12,0,0
82400,-100,4,3,1,55,0,0
82600,-100,4,3,1,12,0,0
82800,-100,4,3,1,55,0,0
83800,-100,4,3,1,12,0,0
84000,-100,4,3,1,55,0,0
84200,-100,4,3,1,12,0,0
84400,-100,4,3,1,55,0,0
84600,-100,4,3,1,12,0,0
84800,-100,4,3,1,55,0,0
85000,-100,4,3,1,12,0,0
85200,-100,4,3,1,55,0,0
85400,-100,4,3,1,12,0,0
85600,-100,4,3,1,55,0,0
85800,-100,4,3,1,12,0,0
86000,-100,4,3,1,55,0,0
87000,-100,4,3,1,12,0,0
87200,-100,4,3,1,55,0,0
87400,-100,4,3,1,12,0,0
87600,-100,4,3,1,55,0,0
90600,-100,4,3,1,12,0,0
91200,-100,4,3,1,55,0,0
91400,-100,4,3,1,12,0,0
92000,-100,4,3,1,55,0,0
92200,-100,4,3,1,12,0,0
92400,-100,4,3,1,55,0,0
93800,-100,4,3,1,12,0,0
94400,-100,4,3,1,55,0,0
94600,-100,4,3,1,12,0,0
95200,-100,4,3,1,55,0,0
95400,-100,4,3,1,12,0,0
95600,-100,4,3,1,55,0,0
97000,-100,4,3,1,12,0,0
97600,-100,4,3,1,55,0,0
97800,-100,4,3,1,12,0,0
98400,-100,4,3,1,55,0,0
98600,-100,4,3,1,12,0,0
98800,-100,4,3,1,55,0,0
100200,-100,4,3,1,12,0,0
100800,-100,4,3,1,55,0,0
101000,-100,4,3,1,12,0,0
101600,-100,4,3,1,55,0,0
101800,-100,4,3,1,12,0,0
102400,-100,4,3,1,55,0,0
102600,-100,4,3,1,12,0,0
102700,-100,4,3,1,55,0,0
102900,-100,4,3,1,12,0,0
103200,-100,4,3,1,55,0,0
115100,-100,4,3,1,12,0,0
115200,-100,4,3,1,55,0,0
117900,-100,4,3,1,12,0,0
118000,-100,4,3,1,55,0,0
118300,-100,4,3,1,12,0,0
118400,-100,4,3,1,55,0,0
119100,-100,4,3,1,12,0,0
119200,-100,4,3,1,55,0,0
119500,-100,4,3,1,12,0,0
119600,-100,4,3,1,55,0,0
123500,-100,4,3,1,12,0,0
123600,-100,4,3,1,55,0,0
124300,-100,4,3,1,12,0,0
124400,-100,4,3,1,55,0,0
124700,-100,4,3,1,12,0,0
124800,-100,4,3,1,55,0,0
125500,-100,4,3,1,12,0,0
125600,-100,4,3,1,55,0,0
125900,-100,4,3,1,12,0,0
126000,-100,4,3,1,55,0,0
130700,-100,4,3,1,12,0,0
130800,-100,4,3,1,55,0,0
131100,-100,4,3,1,12,0,0
131200,-100,4,3,1,55,0,0
131900,-100,4,3,1,12,0,0
132000,-100,4,3,1,55,0,0
132300,-100,4,3,1,12,0,0
132400,-100,4,3,1,55,0,0
137100,-100,4,3,1,12,0,0
137200,-100,4,3,1,55,0,0
137500,-100,4,3,1,12,0,0
137600,-100,4,3,1,55,0,0
138300,-100,4,3,1,12,0,0
138400,-100,4,3,1,55,0,0
138700,-100,4,3,1,12,0,0
138800,-100,4,3,1,55,0,0
140300,-100,4,3,1,5,0,0
140400,-100,4,3,1,5,0,0

[Colours]
Combo1 : 149,111,164
Combo2 : 244,172,221
Combo3 : 174,66,206
Combo4 : 210,132,185

[HitObjects]
81,160,76800,5,4,0:1:0:0:
119,297,77200,2,0,L|254:292,1,110,0|0,0:0|0:0,0:0:0:0:
248,150,78000,2,0,L|357:154,1,110,0|0,0:0|0:0,0:0:0:0:
497,186,78800,2,0,P|503:132|480:82,1,110,0|0,0:0|0:0,0:0:0:0:
350,22,79600,1,0,0:0:0:0:
335,164,80000,6,0,L|225:159,1,110,4|0,0:1|0:0,0:0:0:0:
206,302,80800,2,0,L|96:306,1,110,0|0,0:0|0:0,0:0:0:0:
8,193,81600,2,0,P|1:139|24:89,1,110,0|0,0:0|0:0,0:0:0:0:
166,97,82400,2,0,P|166:69|159:43,2,55,0|0|0,0:0|0:0|0:0,0:0:0:0:
268,198,83200,5,4,0:1:0:0:
353,84,83600,2,0,P|406:77|456:100,1,110,0|0,0:0|0:0,0:0:0:0:
512,231,84400,2,0,P|490:280|445:312,1,110,0|0,0:0|0:0,0:0:0:0:
305,295,85200,2,0,P|272:251|267:196,1,110,0|0,0:0|0:0,0:0:0:0:
353,84,86000,1,0,0:0:0:0:
212,66,86400,6,0,L|102:70,1,110,4|0,0:1|0:0,0:0:0:0:
26,191,87200,2,0,L|30:300,1,110,0|0,0:0|0:0,0:0:0:0:
159,363,88000,6,0,L|154:253,1,110,8|0,0:0|0:0,0:0:0:0:
156,203,88600,2,0,P|199:170|254:165,1,110,8|8,0:0|0:0,0:0:0:0:
288,200,89200,2,0,P|331:232|386:237,1,110,8|4,0:0|0:1,0:0:0:0:
394,39,90400,6,0,B|273:53|311:147|124:142|101:58|101:58|148:23|203:68,1,440
329,156,92400,2,0,L|325:265,1,110,0|4,0:0|0:1,0:0:0:0:
105,318,93600,6,0,B|82:353|49:336|31:323|18:290|24:253|49:228|85:217|156:204|175:213|163:379|329:346,1,440
432,247,95600,2,0,L|427:137,1,110,0|4,0:0|0:1,0:0:0:0:
260,31,96800,6,0,B|213:138|251:194|335:208|339:292|280:328|280:328|242:336|203:296|202:258,1,440,0|0,0:0|0:0,0:0:0:0:
100,152,98800,2,0,P|45:157|2:189,1,110,0|4,0:0|0:1,0:0:0:0:
119,348,100000,6,0,B|226:382|340:340|340:340|389:301|385:217|385:217|340:222|314:274,1,440,0|0,0:0|0:0,0:0:0:0:
209,171,102000,1,0,0:0:0:0:
208,28,102400,2,0,P|262:33|305:65,1,110,0|0,0:0|0:0,0:0:0:0:
209,171,103200,6,0,P|154:176|111:208,1,110,4|4,0:0|0:0,0:0:0:0:
171,338,104000,2,0,P|225:332|268:300,1,110,4|4,0:0|0:0,0:0:0:0:
358,188,104800,1,4,0:0:0:0:
501,188,105200,2,0,P|495:242|463:285,1,110,0|4,0:0|0:1,0:0:0:0:
358,188,106000,6,0,P|363:133|395:90,1,110,4|4,0:0|0:0,0:0:0:0:
252,87,106800,2,0,P|202:109|148:103,1,110,4|4,0:0|0:0,0:0:0:0:
218,230,107600,2,0,P|262:261|283:311,1,110,4|4,0:0|0:0,0:0:0:0:
146,352,108400,1,0,0:0:0:0:
24,275,108800,6,0,L|19:165,1,110,4|4,0:1|0:0,0:0:0:0:
148,103,109600,2,0,L|153:213,1,110,4|4,0:0|0:0,0:0:0:0:
272,291,110400,2,0,P|316:260|337:210,1,110,4|4,0:0|0:0,0:0:0:0:
409,85,111200,2,0,P|453:116|474:166,1,110,4|0,0:0|0:0,0:0:0:0:
493,308,112000,1,4,0:1:0:0:
256,192,112400,12,8,114800,0:0:0:0:
493,308,116400,6,0,B|435:258|387:304|353:344|276:299,1,220,4|4,0:1|0:0,0:0:0:0:
187,200,117600,2,0,P|170:170|301:133,1,220,8|0,0:0|0:0,0:0:0:0:
417,46,118800,6,0,L|422:156,1,110,4|8,0:0|0:0,0:0:0:0:
372,289,119600,2,0,B|293:318|208:294|208:294|224:321|221:357,1,220,4|0,0:1|0:0,0:0:0:0:
78,351,120800,6,0,L|73:241,1,110,2|0,0:0|0:0,0:0:0:0:
169,135,121600,2,0,B|156:95|130:64|130:64|60:53|4:117,1,220,0|10,0:0|0:0,0:0:0:0:
178,244,123000,6,0,B|188:275|208:299|208:299|263:308|308:257,1,165,4|0,0:0|0:0,0:0:0:0:
407,172,124000,2,0,P|429:134|323:137,1,220,8|0,0:0|0:0,0:0:0:0:
168,188,125200,6,0,P|174:130|163:78,1,110,4|8,0:0|0:0,0:0:0:0:
39,188,126000,2,0,B|14:266|33:353|33:353|69:355|98:335,1,220,0|0,0:0|0:0,0:0:0:0:
209,274,127200,2,0,P|266:267|319:279,1,110,0|2,0:0|0:0,0:0:0:0:
485,328,128000,6,0,B|509:269|480:223|480:223|488:195|488:195|480:168|480:168|489:143|489:143|480:116,1,220,0|8,0:0|0:2,0:0:0:0:
397,49,129200,2,0,B|293:37|242:127|242:127|271:138|296:144,1,220,0|4,0:0|0:0,0:0:0:0:
316,278,130400,2,0,B|289:294|289:294|237:283|201:245|201:245|145:251|104:284,1,220,8|0,0:0|0:0,0:0:0:0:
25,165,131600,6,0,P|10:109|16:52,1,110,4|8,0:0|0:0,0:0:0:0:
152,98,132400,2,0,L|162:325,1,220,4|0,0:1|0:0,0:0:0:0:
289,382,133600,2,0,P|304:326|298:269,1,110,2|0,0:0|0:0,0:0:0:0:
361,146,134400,6,0,B|388:122|429:115|429:115|444:128|447:173|419:201|419:201|409:226|420:266,1,220,0|8,0:0|0:2,0:0:0:0:
161,317,135800,2,0,L|153:141,1,165,0|0,0:0|0:0,0:0:0:0:
26,89,136800,2,0,P|11:145|17:202,1,110,8|0,0:0|0:0,0:0:0:0:
137,270,137600,6,0,P|122:326|128:383,1,110,0|4,0:0|0:0,0:0:0:0:
263,336,138400,2,0,L|257:212,1,110,8|0,0:0|0:0,0:0:0:0:
186,102,139200,1,0,0:0:0:0:
301,17,139600,6,0,P|355:12|408:27,1,110,0|8,0:0|0:0,0:0:0:0:
440,58,140200,2,0,P|449:83|454:110,1,55,0|0,0:0|0:0,0:0:0:0:
455,113,140800,5,0,2:0:0:0:
