osu file format v14

[General]
AudioFilename: audio.mp3
AudioLeadIn: 0
PreviewTime: 37476
Countdown: 0
SampleSet: Normal
StackLeniency: 0.7
Mode: 1
LetterboxInBreaks: 0
WidescreenStoryboard: 0

[Editor]
Bookmarks: 37574,94463,109574,123796,137129
DistanceSpacing: 1.3
BeatDivisor: 4
GridSize: 8
TimelineZoom: 0.6999993

[Metadata]
Title:AETHERSONG
TitleUnicode:AETHERSONG
Artist:sakuraburst
ArtistUnicode:sakuraburst
Creator:Faputa
Version:KANTAN
Source:osu!
Tags:mappers guild mg featured artist fa electronic glitch English experimental
BeatmapID:2199576
BeatmapSetID:1052481

[Difficulty]
HPDrainRate:9
CircleSize:2
OverallDifficulty:3
ApproachRate:10
SliderMultiplier:1.4
SliderTickRate:1

[Events]
//Background and Video events
0,0,"Bubble_captioned.jpg",0,0
//Break Periods
2,64018,65581
//Storyboard Layer 0 (Background)
//Storyboard Layer 1 (Fail)
//Storyboard Layer 2 (Pass)
//Storyboard Layer 3 (Foreground)
//Storyboard Layer 4 (Overlay)
//Storyboard Sound Samples

[TimingPoints]
255,444.444444444444,4,2,0,5,1,0
8699,-100,4,2,0,30,0,0
9143,444.444444444444,4,2,0,30,1,0
12698,-100,4,2,0,20,0,0
16254,-100,4,2,0,30,0,0
18920,-100,4,2,0,40,0,0
19809,-100,4,2,0,35,0,0
20698,-100,4,2,0,30,0,0
21476,-100,4,2,0,10,0,0
23254,-100,4,1,0,50,0,0
66031,-100,4,1,0,100,0,1
80254,-100,4,1,0,100,0,0
81142,-100,4,1,0,100,0,1
83809,-100,4,1,0,100,0,0
84698,-100,4,1,0,100,0,1
87365,-100,4,1,0,100,0,0
88254,-100,4,1,0,100,0,1
90920,-100,4,1,0,100,0,0
91809,-100,4,1,0,100,0,1
94476,-100,4,1,0,100,0,0
95365,-100,4,1,0,100,0,1
98031,-100,4,1,0,100,0,0
98920,-100,4,1,0,100,0,1
101587,-100,4,1,0,100,0,0
102476,-100,4,1,0,100,0,1
105142,-100,4,1,0,100,0,0
106031,-100,4,1,0,100,0,1
108698,-100,4,1,0,100,0,0
109142,-100,4,2,0,60,0,0
112254,-100,4,2,0,50,0,0
115809,-100,4,2,0,40,0,0
119365,-100,4,2,0,30,0,0
123365,-100,4,1,0,70,0,0
126031,-100,4,1,0,60,0,0
129587,-100,4,1,0,50,0,0
133142,-100,4,1,0,40,0,0
134920,-100,4,1,0,35,0,0
135476,-100,4,1,0,15,0,0

[HitObjects]
256,192,9143,5,8,0:0:0:0:
256,192,12698,1,0,0:0:0:0:
256,192,16254,1,8,0:0:0:0:
256,192,19809,1,8,0:0:0:0:
256,192,23365,5,0,0:0:0:0:
256,192,24254,1,0,0:0:0:0:
256,192,24698,1,0,0:0:0:0:
256,192,25142,1,0,0:0:0:0:
256,192,26920,1,0,0:0:0:0:
256,192,27809,1,0,0:0:0:0:
256,192,28254,1,0,0:0:0:0:
256,192,28698,1,0,0:0:0:0:
256,192,30476,1,0,0:0:0:0:
256,192,31365,1,0,0:0:0:0:
256,192,31809,1,0,0:0:0:0:
256,192,32254,1,0,0:0:0:0:
256,192,34031,1,0,0:0:0:0:
256,192,34920,1,0,0:0:0:0:
256,192,35365,1,0,0:0:0:0:
256,192,35809,1,0,0:0:0:0:
256,192,37587,5,4,0:0:0:0:
256,192,38476,1,8,0:0:0:0:
256,192,39365,1,0,0:0:0:0:
256,192,39809,1,8,0:0:0:0:
256,192,40698,1,8,0:0:0:0:
256,192,41142,1,0,0:0:0:0:
256,192,42031,1,8,0:0:0:0:
256,192,42920,1,0,0:0:0:0:
256,192,43365,1,8,0:0:0:0:
256,192,43809,1,8,0:0:0:0:
256,192,44254,1,0,0:0:0:0:
256,192,44698,1,0,0:0:0:0:
256,192,45587,1,8,0:0:0:0:
256,192,46476,1,0,0:0:0:0:
256,192,47365,1,8,0:0:0:0:
256,192,48254,1,0,0:0:0:0:
256,192,49142,1,8,0:0:0:0:
256,192,49587,1,0,0:0:0:0:
256,192,50031,1,0,0:0:0:0:
256,192,50920,1,8,0:0:0:0:
256,192,51809,1,4,0:0:0:0:
256,192,52698,1,8,0:0:0:0:
256,192,53587,1,0,0:0:0:0:
256,192,54031,1,8,0:0:0:0:
256,192,54920,1,8,0:0:0:0:
256,192,55365,1,0,0:0:0:0:
256,192,56254,1,8,0:0:0:0:
256,192,57142,1,0,0:0:0:0:
256,192,57587,1,8,0:0:0:0:
256,192,58031,1,8,0:0:0:0:
256,192,58476,1,0,0:0:0:0:
256,192,58920,1,8,0:0:0:0:
256,192,59809,1,8,0:0:0:0:
256,192,60698,1,0,0:0:0:0:
256,192,61587,1,8,0:0:0:0:
256,192,62476,1,0,0:0:0:0:
256,192,63365,1,8,0:0:0:0:
256,192,63809,1,0,0:0:0:0:
264,192,66031,5,4,0:0:0:0:
264,192,66920,1,8,0:0:0:0:
264,192,67365,1,0,0:0:0:0:
264,192,67809,1,0,0:0:0:0:
264,192,68698,1,8,0:0:0:0:
264,192,69587,1,4,0:0:0:0:
264,192,70476,1,8,0:0:0:0:
264,192,70920,1,0,0:0:0:0:
264,192,71365,1,0,0:0:0:0:
264,192,72254,1,8,0:0:0:0:
264,192,72698,1,8,0:0:0:0:
264,192,73142,1,4,0:0:0:0:
264,192,74031,1,8,0:0:0:0:
264,192,74920,1,8,0:0:0:0:
264,192,75365,1,0,0:0:0:0:
264,192,75809,1,8,0:0:0:0:
264,192,76254,1,8,0:0:0:0:
264,192,76698,1,4,0:0:0:0:
264,192,77587,1,8,0:0:0:0:
264,192,78476,1,0,0:0:0:0:
264,192,79365,1,8,0:0:0:0:
264,192,79809,1,8,0:0:0:0:
264,192,80254,1,8,0:0:0:0:
256,192,81142,1,8,0:0:0:0:
256,192,82476,1,0,0:0:0:0:
256,192,82920,1,0,0:0:0:0:
256,192,83365,1,8,0:0:0:0:
256,192,83809,1,8,0:0:0:0:
256,192,84698,1,8,0:0:0:0:
256,192,85587,1,8,0:0:0:0:
256,192,86031,1,8,0:0:0:0:
256,192,86476,1,8,0:0:0:0:
256,192,86920,1,0,0:0:0:0:
256,192,87365,1,8,0:0:0:0:
256,192,88254,1,8,0:0:0:0:
256,192,89142,1,0,0:0:0:0:
256,192,90031,1,8,0:0:0:0:
256,192,90476,1,0,0:0:0:0:
256,192,90920,1,8,0:0:0:0:
256,192,91365,1,8,0:0:0:0:
256,192,91809,1,8,0:0:0:0:
256,192,92254,1,0,0:0:0:0:
256,192,93587,1,8,0:0:0:0:
256,192,94031,1,8,0:0:0:0:
256,192,94476,1,8,0:0:0:0:
256,192,95365,1,8,0:0:0:0:
256,192,96698,1,0,0:0:0:0:
256,192,97142,1,8,0:0:0:0:
256,192,97587,1,8,0:0:0:0:
256,192,98031,1,8,0:0:0:0:
256,192,98920,1,8,0:0:0:0:
256,192,99809,1,0,0:0:0:0:
256,192,100254,1,8,0:0:0:0:
256,192,100698,1,8,0:0:0:0:
256,192,101142,1,0,0:0:0:0:
256,192,101587,1,8,0:0:0:0:
256,192,102476,1,8,0:0:0:0:
256,192,103365,1,0,0:0:0:0:
256,192,104254,1,8,0:0:0:0:
256,192,105142,1,8,0:0:0:0:
256,192,105587,1,8,0:0:0:0:
256,192,106031,1,8,0:0:0:0:
256,192,106476,1,0,0:0:0:0:
256,192,106920,1,8,0:0:0:0:
256,192,107809,1,8,0:0:0:0:
256,192,108254,1,0,0:0:0:0:
256,192,109587,1,8,0:0:0:0:
256,192,112254,1,0,0:0:0:0:
256,192,115809,1,8,0:0:0:0:
256,192,119365,1,8,0:0:0:0:
256,192,123809,5,8,0:0:0:0:
256,192,126476,1,0,0:0:0:0:
256,192,130031,1,8,0:0:0:0:
256,192,133587,1,0,0:0:0:0:
256,192,135365,1,0,0:0:0:0:
256,192,135809,12,0,137142,0:0:0:0:
