osu file format v14

[General]
AudioFilename: audio.mp3
AudioLeadIn: 0
PreviewTime: -1
Countdown: 0
SampleSet: Normal
StackLeniency: 0.7
Mode: 0
LetterboxInBreaks: 0
WidescreenStoryboard: 1

[Editor]
DistanceSpacing: 0.5
BeatDivisor: 4
GridSize: 8
TimelineZoom: 1

[Metadata]
Title:Shin Takara Jima
TitleUnicode:新宝島
Artist:sakanaction
ArtistUnicode:カナクション
Creator:Emilia
Version:pp jump
Source:
Tags:NFRecords 11th single
BeatmapID:1347123
BeatmapSetID:634959

[Difficulty]
HPDrainRate:7
CircleSize:4
OverallDifficulty:7.8
ApproachRate:8.7
SliderMultiplier:1.7
SliderTickRate:1

[Events]
//Background and Video events
0,0,"sintakarajima.png",0,0
//Break Periods
//Storyboard Layer 0 (Background)
//Storyboard Layer 1 (Fail)
//Storyboard Layer 2 (Pass)
//Storyboard Layer 3 (Foreground)
//Storyboard Sound Samples

[TimingPoints]
9412,800,4,1,0,30,1,0
10976,800,4,1,0,30,1,0
12212,800,4,1,0,30,1,0
12612,800,4,1,0,30,1,0
18612,885,4,1,0,30,1,0
19499,800,4,1,0,30,1,0
20612,866,4,1,0,30,1,0
21478,889,4,1,0,30,1,0
22311,379.746835443038,4,1,0,30,1,0
22311,-125,4,1,0,30,0,0
28386,-111.111111111111,4,1,0,30,0,0
64842,379.386658235852,4,1,0,30,1,0
64842,-100,4,1,0,30,0,0
89146,379.746835443038,4,1,0,30,1,0
89146,-111.111111111111,4,1,0,30,0,0
101297,-125,4,1,0,30,0,0
113449,-111.111111111111,4,1,0,30,0,0
125601,379.386658235852,4,1,0,30,1,0
125602,-100,4,1,0,30,0,0
149905,379.746835443038,4,1,0,30,1,0
149905,-125,4,1,0,30,0,0
162057,-111.111111111111,4,1,0,30,0,0
171171,-100,4,1,0,30,0,0
198513,379.386658235852,4,1,0,30,1,0
222811,379.746835443038,4,1,0,30,1,0
222811,-90.9090909090909,4,1,0,30,0,0
271424,759.493670886076,4,1,0,30,1,0
294264,964.565217391304,4,1,0,30,1,0
295180,1090.90909090909,4,1,0,30,1,0
296169,960,4,1,0,30,1,0
309609,-100,4,1,0,5,0,0

[Colours]
Combo1 : 255,89,89
Combo2 : 104,234,179
Combo3 : 102,203,208
Combo4 : 226,158,179

[HitObjects]
240,143,9412,6,0,L|450:153,1,170
480,232,10976,2,0,P|385:246|342:172,1,170
334,118,12212,6,0,L|319:319,1,170
257,345,13412,2,0,P|198:351|128:256,1,170
88,83,15012,2,0,P|138:87|178:67,1,85
245,19,15812,6,0,L|254:203,1,170
440,132,17412,2,0,P|376:155|299:75,1,170
265,4,18612,6,0,L|255:176,1,170
214,111,20612,2,0,L|218:195,1,85
310,272,21478,2,0,L|305:356,1,85
389,276,22311,6,0,P|437:258|452:229,1,68
452,230,22595,1,0,0:0:0:0:
448,213,22690,2,0,L|441:132,1,68
440,128,22975,1,0,0:0:0:0:
438,111,23070,1,0,0:0:0:0:
475,33,23260,2,0,P|502:46|514:56,1,34
361,111,23450,2,0,L|367:32,1,68
355,29,23735,1,0,0:0:0:0:
344,15,23829,6,0,P|285:27|266:47,1,68
214,77,24114,1,0,0:0:0:0:
201,88,24209,2,0,P|156:83|116:47,1,68
67,49,24494,2,0,L|120:45,1,34
0,131,24779,2,0,L|53:135,1,34
155,159,24969,2,0,P|172:211|168:237,1,68
166,239,25254,1,0,0:0:0:0:
156,253,25348,6,0,L|73:246,1,68
47,345,25633,1,0,0:0:0:0:
39,360,25728,2,0,P|90:350|118:326,1,68
119,336,26013,1,0,0:0:0:0:
135,337,26108,1,0,0:0:0:0:
231,359,26298,2,0,P|256:365|276:365,1,34
333,283,26488,2,0,L|247:289,1,68
248,281,26773,1,0,0:0:0:0:
232,275,26867,6,0,P|221:230|226:197,1,68
235,146,27152,2,0,L|243:190,1,34
173,336,27437,1,0,0:0:0:0:
136,189,27627,1,0,0:0:0:0:
84,280,27817,1,0,0:0:0:0:
141,176,28007,1,0,0:0:0:0:
204,250,28197,1,0,0:0:0:0:
80,115,28386,6,0,L|215:120,1,114.749996498108
219,44,28766,2,0,P|156:57|135:80,1,76.4999976654053
173,191,29146,1,0,0:0:0:0:
286,142,29336,1,0,0:0:0:0:
152,185,29526,1,0,0:0:0:0:
284,235,29716,1,0,0:0:0:0:
234,61,29905,5,0,0:0:0:0:
357,108,30095,2,0,P|364:154|349:193,1,76.4999976654053
222,46,30475,2,0,L|309:56,1,76.4999976654053
410,34,30855,1,0,0:0:0:0:
274,141,31045,1,0,0:0:0:0:
418,15,31235,1,0,0:0:0:0:
404,206,31424,6,0,P|454:212|503:167,1,114.749996498108
438,120,31804,2,0,P|425:152|431:211,1,76.4999976654053
468,284,32184,1,0,0:0:0:0:
335,242,32374,1,0,0:0:0:0:
479,301,32564,1,0,0:0:0:0:
352,151,32754,1,0,0:0:0:0:
256,258,32943,5,0,0:0:0:0:
388,300,33133,2,0,P|411:256|407:215,1,76.4999976654053
260,142,33513,2,0,L|359:153,1,76.4999976654053
446,111,33893,1,0,0:0:0:0:
344,32,34083,1,0,0:0:0:0:
460,122,34273,1,0,0:0:0:0:
322,158,34462,6,0,L|203:163,1,114.749996498108
202,247,34842,2,0,P|253:231|276:184,1,76.4999976654053
118,106,35222,2,0,L|126:191,1,76.4999976654053
108,288,35602,1,0,0:0:0:0:
108,89,35792,6,0,P|162:100|190:133,1,76.4999976654053
22,241,36171,2,0,L|30:158,1,76.4999976654053
182,51,36551,2,0,L|189:127,1,76.4999976654053
115,210,36931,1,0,0:0:0:0:
261,172,37121,1,0,0:0:0:0:
130,207,37311,1,0,0:0:0:0:
244,260,37500,6,0,P|259:308|223:363,1,114.749996498108
159,329,37880,2,0,P|195:331|243:362,1,76.4999976654053
87,377,38260,1,0,0:0:0:0:
163,248,38450,1,0,0:0:0:0:
71,206,38640,1,0,0:0:0:0:
209,92,38829,6,0,P|224:162|216:181,1,76.4999976654053
59,217,39209,2,0,L|63:124,1,76.4999976654053
35,45,39589,1,0,0:0:0:0:
144,144,39779,1,0,0:0:0:0:
22,34,39969,1,0,0:0:0:0:
195,55,40159,1,0,0:0:0:0:
52,167,40348,1,0,0:0:0:0:
179,255,40538,6,0,P|194:187|126:128,1,152.999995330811
105,303,41108,1,0,0:0:0:0:
195,269,41298,2,0,L|33:260,1,152.999995330811
85,381,41867,6,0,P|143:373|173:336,1,76.4999976654053
252,212,42247,2,0,P|272:244|275:282,1,76.4999976654053
240,365,42627,1,0,0:0:0:0:
239,198,42817,2,0,P|317:195|351:146,1,114.749996498108
358,152,43197,2,0,P|343:214|351:252,1,76.4999976654053
436,110,43576,6,0,L|443:274,1,152.999995330811
381,321,44146,1,0,0:0:0:0:
264,234,44336,2,0,P|194:229|143:308,1,152.999995330811
226,377,44905,6,0,P|231:319|217:286,1,76.4999976654053
312,167,45285,2,0,P|338:195|351:231,1,76.4999976654053
310,302,45665,1,0,0:0:0:0:
291,164,45855,2,0,L|298:32,1,114.749996498108
293,24,46235,2,0,P|353:37|386:68,1,76.4999976654053
364,132,46614,5,0,0:0:0:0:
211,87,46804,2,0,P|192:32|198:-9,1,76.4999976654053
373,141,47184,1,0,0:0:0:0:
282,254,47374,2,0,L|290:174,1,76.4999976654053
419,77,47754,2,0,P|448:117|449:172,1,76.4999976654053
282,165,48133,6,0,L|278:43,1,114.749996498108
272,27,48513,2,0,P|314:48|365:51,1,76.4999976654053
456,2,48893,1,0,0:0:0:0:
361,133,49083,1,0,0:0:0:0:
470,202,49273,2,0,P|500:148|499:114,1,76.4999976654053
394,248,49652,6,0,P|452:236|513:306,1,152.999995330811
360,363,50222,1,0,0:0:0:0:
379,260,50412,2,0,L|394:101,1,152.999995330811
304,0,50981,6,0,P|252:14|224:44,1,76.4999976654053
462,71,51361,2,0,P|419:37|378:33,1,76.4999976654053
307,121,51741,1,0,0:0:0:0:
433,223,51931,2,0,L|426:124,1,76.4999976654053
253,59,52311,2,0,P|230:95|230:143,1,76.4999976654053
322,32,52690,6,0,L|142:39,1,152.999995330811
91,101,53260,1,0,0:0:0:0:
199,192,53450,2,0,P|247:164|242:57,1,152.999995330811
78,92,54019,1,0,0:0:0:0:
36,225,54209,6,0,P|95:216|124:190,1,76.4999976654053
279,193,54589,2,0,P|270:229|246:259,1,76.4999976654053
154,384,54969,2,0,P|133:304|162:254,1,114.749996498108
163,260,55348,1,0,0:0:0:0:
40,321,55538,1,0,0:0:0:0:
0,174,55728,6,0,L|162:182,1,152.999995330811
256,206,56298,1,0,0:0:0:0:
350,62,56488,2,0,P|264:58|218:125,1,152.999995330811
265,218,57057,1,0,0:0:0:0:
383,142,57247,6,0,P|373:80|349:55,1,76.4999976654053
256,206,57627,2,0,P|318:215|349:200,1,76.4999976654053
465,125,58007,2,0,P|427:170|437:232,1,114.749996498108
445,235,58386,1,0,0:0:0:0:
334,202,58576,1,0,0:0:0:0:
412,310,58766,5,0,0:0:0:0:
491,122,58956,2,0,L|413:129,1,76.4999976654053
257,239,59336,2,0,P|305:230|340:191,1,76.4999976654053
324,53,59716,1,0,0:0:0:0:
264,162,59905,1,0,0:0:0:0:
175,17,60095,6,0,L|262:22,1,76.4999976654053
338,63,60475,1,0,0:0:0:0:
455,5,60665,1,0,0:0:0:0:
287,127,60855,1,0,0:0:0:0:
403,160,61045,1,0,0:0:0:0:
263,120,61235,1,0,0:0:0:0:
460,100,61424,2,0,P|483:144|458:222,1,114.749996498108
455,226,61804,5,0,0:0:0:0:
88,134,62184,1,0,0:0:0:0:
450,214,62754,5,0,0:0:0:0:
112,169,62943,1,0,0:0:0:0:
445,202,63323,5,0,0:0:0:0:
379,321,63513,1,0,0:0:0:0:
321,241,63703,1,0,0:0:0:0:
384,338,63893,1,0,0:0:0:0:
250,380,64083,6,0,P|257:348|265:330,1,38.2499988327027
197,285,64273,2,0,P|224:266|242:259,1,38.2499988327027
224,179,64462,2,0,P|256:184|274:192,1,38.2499988327027
317,121,64652,2,0,P|336:147|344:165,1,38.2499988327027
462,232,64842,6,0,L|311:227,1,127.5
307,310,65221,2,0,P|371:298|398:248,1,85
269,97,65600,2,0,P|247:158|277:206,1,85
428,209,65980,2,0,L|331:217,1,85
104,265,66359,6,0,L|201:273,1,85
453,193,66738,2,0,P|421:132|380:122,1,85
200,9,67118,2,0,L|189:111,1,85
292,347,67497,2,0,P|363:350|417:287,1,127.5
418,286,67877,6,0,P|426:349|445:381,1,85
479,76,68256,2,0,L|366:81,1,85
148,251,68635,2,0,L|275:256,1,127.5
310,259,69015,1,0,0:0:0:0:
295,111,69204,6,0,P|243:123|215:158,1,85
205,284,69584,1,0,0:0:0:0:
371,306,69774,2,0,P|386:254|370:213,1,85
194,292,70153,1,0,0:0:0:0:
286,357,70343,1,0,0:0:0:0:
104,383,70532,2,0,L|117:232,1,127.5
99,236,70912,6,0,P|155:222|179:190,1,85
244,87,71291,2,0,P|267:121|268:163,1,85
123,133,71670,2,0,P|112:94|151:129,1,127.5
141,138,72050,1,0,0:0:0:0:
96,0,72240,6,0,L|192:8,1,85
249,59,72619,1,0,0:0:0:0:
348,2,72809,2,0,P|404:0|459:64,1,127.5
482,47,73188,2,0,P|468:96|472:137,1,85
510,227,73567,1,0,0:0:0:0:
383,175,73757,1,0,0:0:0:0:
292,308,73947,6,0,P|345:320|407:271,1,127.5
412,253,74326,1,0,0:0:0:0:
480,357,74516,1,0,0:0:0:0:
420,175,74706,2,0,P|363:192|340:225,1,85
494,243,75085,1,0,0:0:0:0:
479,42,75275,6,0,L|485:140,1,85
335,225,75654,2,0,L|340:140,1,85
350,2,76033,1,0,0:0:0:0:
212,90,76223,2,0,P|261:89|297:57,1,85
430,1,76602,2,0,P|421:41|390:70,1,85
193,97,76982,6,0,L|341:102,1,127.5
347,178,77361,2,0,P|287:170|258:126,1,85
396,1,77741,2,0,L|405:111,1,85
252,227,78120,2,0,L|258:142,1,85
480,163,78499,6,0,P|499:214|479:265,1,85
197,92,78879,2,0,P|231:49|286:41,1,85
276,373,79258,2,0,P|221:363|187:320,1,85
392,7,79638,2,0,L|380:161,1,127.5
366,148,80017,6,0,P|322:129|300:90,1,85
489,0,80396,2,0,L|499:91,1,85
315,226,80776,2,0,L|166:230,1,127.5
156,231,81155,1,0,0:0:0:0:
246,360,81345,6,0,P|260:305|250:269,1,85
82,211,81724,1,0,0:0:0:0:
50,369,81914,2,0,L|155:354,1,85
13,266,82293,1,0,0:0:0:0:
158,365,82483,1,0,0:0:0:0:
208,187,82673,2,0,P|154:176|91:232,1,127.5
91,233,83052,6,0,P|83:174|61:143,1,85
290,176,83431,2,0,P|285:217|263:254,1,85
232,117,83811,2,0,L|362:125,1,127.5
394,129,84190,1,0,0:0:0:0:
492,32,84380,6,0,P|419:-1|387:9,1,85
300,69,84759,1,0,0:0:0:0:
453,181,84949,2,0,P|467:102|449:73,1,85
369,207,85328,1,0,0:0:0:0:
493,296,85518,1,0,0:0:0:0:
290,373,85708,2,0,L|297:270,1,85
359,132,86087,6,0,P|413:145|444:218,1,127.5
440,238,86467,1,0,0:0:0:0:
289,180,86656,1,0,0:0:0:0:
210,320,86846,2,0,P|259:317|297:281,1,85
152,128,87225,2,0,L|143:280,1,127.5
142,285,87605,5,0,0:0:0:0:
58,172,87794,1,0,0:0:0:0:
224,222,87984,1,0,0:0:0:0:
118,364,88174,1,0,0:0:0:0:
242,216,88363,1,0,0:0:0:0:
53,267,88553,1,0,0:0:0:0:
260,307,88743,1,0,0:0:0:0:
197,113,88933,1,0,0:0:0:0:
350,179,89146,6,0,L|344:304,1,114.749996498108
357,312,89525,2,0,P|401:304|440:253,1,76.4999976654053
261,288,89905,2,0,L|270:383,1,76.4999976654053
201,234,90285,1,0,0:0:0:0:
357,165,90475,1,0,0:0:0:0:
247,69,90664,5,0,0:0:0:0:
383,2,90854,2,0,L|377:95,1,76.4999976654053
298,228,91234,2,0,P|275:184|277:145,1,76.4999976654053
428,170,91614,1,0,0:0:0:0:
358,288,91804,1,0,0:0:0:0:
462,324,91994,1,0,0:0:0:0:
327,379,92183,6,0,P|270:380|231:324,1,114.749996498108
221,263,92563,2,0,P|250:314|244:357,1,76.4999976654053
125,384,92943,2,0,L|133:301,1,76.4999976654053
83,226,93323,1,0,0:0:0:0:
280,168,93513,1,0,0:0:0:0:
61,113,93702,5,0,0:0:0:0:
164,20,93892,2,0,P|175:77|159:114,1,76.4999976654053
45,180,94272,2,0,L|51:87,1,76.4999976654053
158,204,94652,1,0,0:0:0:0:
5,278,94842,1,0,0:0:0:0:
142,363,95032,1,0,0:0:0:0:
150,193,95221,6,0,L|295:184,1,114.749996498108
343,203,95601,2,0,P|392:195|418:165,1,76.4999976654053
298,98,95981,1,0,0:0:0:0:
331,14,96171,1,0,0:0:0:0:
265,182,96361,1,0,0:0:0:0:
223,52,96551,1,0,0:0:0:0:
350,202,96740,5,0,0:0:0:0:
200,232,96930,2,0,P|184:180|199:136,1,76.4999976654053
303,27,97310,2,0,P|305:64|290:99,1,76.4999976654053
153,88,97690,1,0,0:0:0:0:
283,177,97880,1,0,0:0:0:0:
381,98,98070,1,0,0:0:0:0:
318,257,98259,6,0,P|367:292|361:363,1,114.749996498108
293,368,98639,2,0,P|345:354|387:363,1,76.4999976654053
478,384,99019,2,0,L|465:288,1,76.4999976654053
388,208,99399,1,0,0:0:0:0:
466,7,99589,1,0,0:0:0:0:
312,164,99778,5,0,0:0:0:0:
495,158,99968,2,0,P|446:132|402:143,1,76.4999976654053
302,244,100348,2,0,P|339:241|370:219,1,76.4999976654053
328,85,100728,1,0,0:0:0:0:
223,186,100918,1,0,0:0:0:0:
359,67,101108,1,0,0:0:0:0:
229,34,101297,6,0,L|74:26,1,136
36,90,101867,1,0,0:0:0:0:
117,168,102057,2,0,P|159:174|227:87,1,136
207,23,102627,6,0,P|263:40|285:70,1,68
334,0,103006,2,0,P|347:56|332:91,1,68
302,136,103386,1,0,0:0:0:0:
389,220,103576,2,0,P|444:232|506:167,1,136
453,110,104146,1,0,0:0:0:0:
374,194,104335,6,0,L|383:356,1,136
314,382,104905,1,0,0:0:0:0:
211,296,105095,2,0,P|140:294|98:359,1,136
232,382,105664,6,0,P|229:323|210:290,1,68
281,242,106044,2,0,P|228:215|190:215,1,68
142,240,106424,1,0,0:0:0:0:
45,121,106614,2,0,P|93:136|160:57,1,136
213,25,107183,1,0,0:0:0:0:
297,93,107373,5,0,0:0:0:0:
389,6,107563,2,0,L|470:15,1,68
283,81,107943,2,0,L|202:90,1,68
378,168,108323,2,0,P|382:130|371:91,1,68
287,199,108702,1,0,0:0:0:0:
464,249,108892,6,0,L|342:240,1,102
345,255,109272,2,0,P|330:285|325:331,1,68
391,384,109652,2,0,P|424:381|466:363,1,68
331,258,110032,2,0,L|209:267,1,102
204,258,110411,6,0,P|165:306|77:296,1,136
128,234,110981,1,0,0:0:0:0:
11,136,111171,2,0,L|156:149,1,136
220,104,111740,6,0,P|205:68|179:47,1,68
278,165,112120,2,0,P|301:134|306:100,1,68
300,25,112500,1,0,0:0:0:0:
447,8,112690,2,0,P|501:36|513:59,1,68
393,181,113070,2,0,L|386:100,1,68
469,220,113449,6,0,P|407:264|350:249,1,114.749996498108
344,254,113829,2,0,P|398:284|422:316,1,76.4999976654053
302,354,114209,1,0,0:0:0:0:
478,339,114399,1,0,0:0:0:0:
291,340,114589,1,0,0:0:0:0:
258,164,114778,6,0,L|265:250,1,76.4999976654053
197,363,115158,2,0,P|147:351|124:323,1,76.4999976654053
261,255,115538,1,0,0:0:0:0:
47,237,115728,2,0,L|172:241,1,114.749996498108
189,234,116108,2,0,P|168:275|164:315,1,76.4999976654053
307,365,116487,6,0,P|331:331|310:248,1,114.749996498108
297,238,116867,2,0,P|346:269|389:277,1,76.4999976654053
228,272,117247,1,0,0:0:0:0:
286,135,117437,1,0,0:0:0:0:
222,285,117627,1,0,0:0:0:0:
149,201,117816,6,0,P|188:177|242:185,1,76.4999976654053
361,125,118196,2,0,P|324:122|293:101,1,76.4999976654053
263,10,118576,1,0,0:0:0:0:
421,63,118766,2,0,L|406:187,1,114.749996498108
436,194,119146,2,0,P|485:174|504:143,1,76.4999976654053
417,52,119525,5,0,0:0:0:0:
188,119,119715,2,0,L|274:116,1,76.4999976654053
429,61,120095,2,0,P|381:49|354:12,1,76.4999976654053
486,121,120475,2,0,L|477:212,1,76.4999976654053
402,257,120854,1,0,0:0:0:0:
415,368,121044,6,0,P|352:362|317:292,1,114.749996498108
306,315,121424,2,0,P|261:333|236:363,1,76.4999976654053
171,310,121804,2,0,P|164:357|177:394,1,76.4999976654053,0|0,0:3|0:3,0:3:0:0:
226,258,122183,2,0,L|82:265,1,114.749996498108
86,264,122563,5,0,0:0:0:0:
402,298,122943,1,0,0:0:0:0:
77,273,123513,5,0,0:0:0:0:
383,263,123702,1,0,0:0:0:0:
68,282,124082,5,0,0:0:0:0:
200,202,124272,1,0,0:0:0:0:
57,288,124462,1,0,0:0:0:0:
123,123,124652,1,0,0:0:0:0:
5,67,124842,6,0,P|1:49|1:30,1,38.2499988327027
118,11,125032,2,0,P|101:22|87:34,1,38.2499988327027
157,88,125221,2,0,P|175:95|192:104,1,38.2499988327027
148,214,125411,2,0,P|148:194|144:176,1,38.2499988327027
74,251,125601,6,0,L|231:244,1,127.5
233,324,125980,2,0,P|182:322|145:283,1,85
282,142,126359,2,0,L|290:233,1,85
245,384,126739,2,0,L|252:299,1,85
371,170,127118,6,0,P|426:200|445:254,1,85
161,147,127497,2,0,L|173:47,1,85
451,11,127877,2,0,L|461:95,1,85
109,297,128256,2,0,P|50:280|27:197,1,127.5
22,194,128636,6,0,P|3:269|-17:300,1,85
197,302,129015,2,0,P|182:252|149:220,1,85
151,361,129394,2,0,L|297:350,1,127.5
315,363,129774,1,0,0:0:0:0:
397,216,129963,6,0,P|335:227|301:268,1,85
421,379,130343,1,0,0:0:0:0:
510,255,130533,1,0,0:0:0:0:
388,130,130722,1,0,0:0:0:0:
512,42,130912,2,0,L|498:147,1,85
315,175,131291,2,0,P|304:110|346:53,1,127.5
369,40,131671,6,0,P|296:61|264:53,1,85
149,140,132050,2,0,P|203:192|212:224,1,85
185,56,132429,2,0,L|46:49,1,127.5
26,46,132809,1,0,0:0:0:0:
164,138,132999,6,0,L|253:130,1,85
349,87,133378,1,0,0:0:0:0:
473,156,133568,2,0,P|486:209|475:253,1,85
383,300,133947,1,0,0:0:0:0:
506,367,134137,1,0,0:0:0:0:
318,352,134326,2,0,L|337:216,1,127.5
319,207,134706,6,0,P|262:224|238:257,1,85
242,374,135085,1,0,0:0:0:0:
173,193,135275,2,0,P|159:250|175:288,1,85
250,382,135654,1,0,0:0:0:0:
349,337,135844,1,0,0:0:0:0:
507,380,136034,6,0,L|497:267,1,85
375,175,136413,2,0,P|323:205|312:247,1,85
495,284,136792,1,0,0:0:0:0:
447,121,136982,2,0,L|458:32,1,85
293,0,137361,2,0,L|303:84,1,85
416,193,137741,6,0,B|470:209|507:171|507:171|486:195|479:211,1,127.5
480,212,138120,2,0,P|472:249|490:303,1,85
337,383,138500,2,0,L|330:293,1,85
271,137,138879,2,0,P|332:140|364:166,1,85
185,307,139258,6,0,L|192:217,1,85
87,29,139638,2,0,P|31:49|8:90,1,85
285,260,140017,2,0,P|295:201|271:161,1,85
13,196,140397,2,0,L|28:341,1,127.5
17,340,140776,6,0,P|71:353|105:384,1,85
267,335,141155,2,0,P|322:329|355:286,1,85
128,247,141535,2,0,L|267:256,1,127.5
285,260,141914,1,0,0:0:0:0:
135,161,142104,6,0,P|83:171|49:207,1,85
94,323,142483,1,0,0:0:0:0:
213,202,142673,2,0,L|221:111,1,85
148,17,143052,1,0,0:0:0:0:
48,61,143242,1,0,0:0:0:0:
242,42,143432,2,0,P|300:59|361:12,1,127.5
372,0,143811,6,0,P|354:57|351:105,1,85
446,218,144190,2,0,P|491:199|511:162,1,85
334,166,144570,2,0,L|344:305,1,127.5
333,317,144949,1,0,0:0:0:0:
182,205,145139,6,0,P|238:211|275:241,1,85
242,378,145518,1,0,0:0:0:0:
136,286,145708,1,0,0:0:0:0:
329,327,145898,1,0,0:0:0:0:
346,158,146087,2,0,L|339:252,1,85
508,188,146467,2,0,P|481:111|423:94,1,127.5
415,88,146846,6,0,P|483:80|512:57,1,85
444,0,147226,1,0,0:0:0:0:
312,111,147415,2,0,P|352:165|387:179,1,85
436,3,147795,1,0,0:0:0:0:
201,9,147984,2,0,L|333:18,1,127.5
353,20,148364,6,0,L|264:33,1,85
110,89,148743,1,0,0:0:0:0:
248,122,148933,1,0,0:0:0:0:
94,80,149122,1,0,0:0:0:0:
165,221,149312,1,0,0:0:0:0:
262,114,149502,1,0,0:0:0:0:
155,300,149692,1,0,0:0:0:0:
280,378,149905,6,0,P|331:373|371:301,1,136
309,253,150474,1,0,0:0:0:0:
230,192,150664,2,0,L|376:204,1,136
451,234,151234,6,0,P|478:166|426:104,2,136
317,137,152183,1,0,0:0:0:0:
377,81,152373,2,0,L|512:69,1,136
367,0,152942,6,0,P|286:-7|246:54,1,136
273,105,153512,1,0,0:0:0:0:
170,0,153702,2,0,L|181:156,1,136
120,201,154272,6,0,P|66:206|11:144,2,136
172,130,155221,1,0,0:0:0:0:
196,257,155411,2,0,L|344:247,1,136
378,344,155980,6,0,P|304:348|266:282,1,136
261,217,156550,1,0,0:0:0:0:
411,218,156740,2,0,L|396:378,1,136
346,176,157310,6,0,P|404:188|467:127,2,136
390,111,158259,1,0,0:0:0:0:
500,60,158449,2,0,L|489:210,1,136
429,271,159018,6,0,P|482:302|487:384,1,136
415,348,159588,1,0,0:0:0:0:
277,355,159778,2,0,L|117:369,1,136
88,270,160348,6,0,L|248:284,2,136
16,308,161297,1,0,0:0:0:0:
13,175,161487,2,0,P|86:188|141:130,1,136
119,70,162056,6,0,L|205:78,1,76.4999976654053
293,200,162436,2,0,P|245:191|216:159,1,76.4999976654053
341,11,162816,2,0,L|345:102,1,76.4999976654053
445,34,163196,2,0,L|431:167,1,114.749996498108
443,165,163575,6,0,P|488:161|517:137,1,76.4999976654053
353,192,163955,2,0,P|385:236|373:304,1,114.749996498108
366,323,164335,2,0,P|408:280|447:267,1,76.4999976654053
251,370,164715,2,0,P|233:317|248:266,1,76.4999976654053
272,176,165094,6,0,L|138:168,1,114.749996498108
143,91,165474,2,0,P|207:107|227:132,1,76.4999976654053
51,246,165854,2,0,L|40:165,1,76.4999976654053
191,249,166234,2,0,P|221:291|216:369,1,114.749996498108
211,374,166613,6,0,P|258:338|292:325,1,76.4999976654053
452,275,166993,2,0,L|359:265,1,76.4999976654053
281,138,167373,2,0,P|276:191|296:235,1,76.4999976654053
503,172,167753,1,0,0:0:0:0:
483,174,167848,1,0,0:0:0:0:
464,176,167942,1,0,0:0:0:0:
445,178,168037,1,0,0:0:0:0:
426,180,168132,6,0,P|455:113|417:50,1,114.749996498108
424,54,168512,2,0,P|472:90|506:100,1,76.4999976654053
336,13,168892,2,0,L|254:20,1,76.4999976654053
153,93,169272,1,0,0:0:0:0:
324,119,169461,1,0,0:0:0:0:
136,80,169651,5,0,0:0:0:0:
199,211,169841,1,0,0:0:0:0:
264,42,170031,1,0,0:0:0:0:
106,161,170221,1,0,0:0:0:0:
294,198,170411,1,0,0:0:0:0:
261,30,170601,1,0,0:0:0:0:
225,265,170791,1,0,0:0:0:0:
322,115,170980,1,0,0:0:0:0:
349,301,171170,5,0,0:0:0:0:
138,344,171360,1,0,0:0:0:0:
406,238,171550,1,0,0:0:0:0:
157,195,171740,1,0,0:0:0:0:
347,80,171930,5,0,0:0:0:0:
200,276,172120,1,0,0:0:0:0:
276,13,172310,1,0,0:0:0:0:
416,245,172499,1,0,0:0:0:0:
217,67,172689,5,0,0:0:0:0:
483,29,172879,1,0,0:0:0:0:
149,14,173069,1,0,0:0:0:0:
396,160,173259,1,0,0:0:0:0:
61,78,173449,5,0,0:0:0:0:
376,4,173639,1,0,0:0:0:0:
107,154,173829,2,0,P|106:205|33:248,1,127.5
17,254,174208,6,0,P|67:261|105:291,1,85
231,352,174588,2,0,P|293:335|314:299,1,85
169,177,174968,2,0,L|322:187,1,127.5
338,190,175348,1,0,0:0:0:0:
242,83,175537,1,0,0:0:0:0:
158,258,175727,5,0,0:0:0:0:
165,40,175917,1,0,0:0:0:0:
296,185,176107,1,0,0:0:0:0:
238,1,176297,1,0,0:0:0:0:
94,157,176487,1,0,0:0:0:0:
308,84,176677,2,0,P|357:99|390:149,1,85
265,259,177056,1,0,0:0:0:0:
446,215,177246,5,0,0:0:0:0:
238,144,177436,2,0,L|247:198,1,42.5
276,332,177626,1,0,0:0:0:0:
376,173,177816,1,0,0:0:0:0:
178,96,178006,2,0,P|242:105|289:54,1,127.5
290,34,178386,1,0,0:0:0:0:
512,147,178575,6,0,L|321:162,1,170
473,274,179145,1,0,0:0:0:0:
384,77,179335,1,0,0:0:0:0:
306,245,179525,1,0,0:0:0:0:
457,43,179715,1,0,0:0:0:0:
318,4,179905,1,0,0:0:0:0:
418,150,180094,1,0,0:0:0:0:
290,255,180284,6,0,P|269:210|278:167,1,85
434,52,180664,2,0,L|426:149,1,85
193,127,181044,2,0,L|336:119,1,127.5
354,118,181423,1,0,0:0:0:0:
178,37,181613,1,0,0:0:0:0:
331,197,181803,5,0,0:0:0:0:
258,0,181993,1,0,0:0:0:0:
170,228,182183,1,0,0:0:0:0:
164,30,182373,2,0,L|357:39,1,170
405,113,182942,1,0,0:0:0:0:
512,14,183132,1,0,0:0:0:0:
486,152,183322,6,0,P|437:149|402:114,1,85
284,87,183702,2,0,P|318:142|273:222,1,127.5
230,222,184082,2,0,L|382:212,1,127.5
391,227,184461,1,0,0:0:0:0:
486,110,184651,1,0,0:0:0:0:
378,304,184841,5,0,0:0:0:0:
399,139,185031,1,0,0:0:0:0:
504,297,185221,2,0,P|438:310|415:379,1,127.5
411,382,185601,2,0,P|389:308|356:282,1,85
281,231,185980,1,0,0:0:0:0:
456,175,186170,1,0,0:0:0:0:
226,168,186360,6,0,P|199:217|207:269,1,85
360,157,186740,2,0,L|350:55,1,85
157,16,187120,2,0,L|146:179,1,127.5
134,162,187499,1,0,0:0:0:0:
264,47,187689,1,0,0:0:0:0:
61,118,187879,5,0,0:0:0:0:
250,196,188069,1,0,0:0:0:0:
43,114,188259,1,0,0:0:0:0:
301,128,188449,2,0,P|332:183|306:257,1,127.5
296,267,188829,1,0,0:0:0:0:
422,112,189018,1,0,0:0:0:0:
274,51,189208,6,0,L|112:44,1,127.5
121,60,189588,1,0,0:0:0:0:
242,157,189778,1,0,0:0:0:0:
47,27,189968,1,0,0:0:0:0:
21,248,190158,1,0,0:0:0:0:
132,168,190348,1,0,0:0:0:0:
253,302,190537,1,0,0:0:0:0:
122,156,190727,1,0,0:0:0:0:
94,344,190917,5,0,0:0:0:0:
213,158,191107,1,0,0:0:0:0:
48,80,191297,2,0,P|106:71|139:39,1,85
241,33,191677,2,0,P|291:46|313:131,1,127.5
243,137,192056,2,0,L|386:126,1,127.5
431,175,192436,6,0,P|477:190|521:181,1,85
464,3,192816,2,0,L|453:95,1,85
354,206,193196,2,0,P|278:205|237:267,1,127.5
238,269,193575,1,0,0:0:0:0:
269,116,193765,1,0,0:0:0:0:
371,285,193955,5,0,0:0:0:0:
261,98,194145,1,0,0:0:0:0:
418,156,194335,1,0,0:0:0:0:
203,175,194525,2,0,P|219:93|144:34,1,170
117,199,195094,1,0,0:0:0:0:
287,152,195284,1,0,0:0:0:0:
94,206,195474,6,0,L|5:198,1,85
192,297,195854,1,0,0:0:0:0:
123,115,196044,1,0,0:0:0:0:
105,354,196234,1,0,0:0:0:0:
218,157,196423,1,0,0:0:0:0:
228,181,196613,1,0,0:0:0:0:
74,47,196803,1,0,0:0:0:0:
304,109,196993,5,0,0:0:0:0:
113,212,197183,1,0,0:0:0:0:
310,22,197373,1,0,0:0:0:0:
228,297,197563,1,0,0:0:0:0:
393,125,197753,6,0,L|386:71,1,42.5
421,289,197942,2,0,L|415:331,1,42.5
207,76,198132,2,0,L|200:22,1,42.5
224,316,198322,2,0,L|218:358,1,42.5
9,159,198512,6,0,P|51:108|139:126,1,127.5
132,108,198892,2,0,P|170:162|169:207,1,85
45,362,199271,2,0,L|31:269,1,85
289,90,199651,2,0,L|276:174,1,85
0,170,200030,6,0,P|66:174|98:213,1,85
318,12,200409,2,0,P|252:16|220:55,1,85
393,314,200789,2,0,L|379:214,1,85
153,6,201168,2,0,L|140:166,1,127.5
158,149,201548,6,0,P|226:140|251:106,1,85
7,66,201927,2,0,L|22:183,1,85
17,347,202306,2,0,P|78:355|135:278,1,127.5
133,284,202686,1,0,0:0:0:0:
324,351,202875,1,0,0:0:0:0:
211,208,203065,5,0,0:0:0:0:
333,369,203255,1,0,0:0:0:0:
406,164,203445,1,0,0:0:0:0:
198,293,203634,1,0,0:0:0:0:
453,359,203824,2,0,P|465:304|451:256,1,85
316,75,204203,2,0,L|326:221,1,127.5
331,232,204583,6,0,P|286:203|236:205,1,85
89,284,204962,2,0,P|51:328|42:369,1,85
196,151,205341,2,0,L|58:156,1,127.5
40,168,205721,1,0,0:0:0:0:
273,77,205911,6,0,P|315:93|347:146,1,85
169,283,206290,1,0,0:0:0:0:
185,53,206480,2,0,L|336:36,1,127.5
387,50,206859,2,0,P|434:48|475:10,1,85
293,120,207238,1,0,0:0:0:0:
511,189,207428,1,0,0:0:0:0:
260,294,207618,6,0,L|267:202,1,85
199,60,207997,1,0,0:0:0:0:
70,193,208187,2,0,P|136:188|173:151,1,85
211,47,208566,1,0,0:0:0:0:
7,119,208756,1,0,0:0:0:0:
238,135,208946,1,0,0:0:0:0:
33,309,209135,5,0,0:0:0:0:
103,121,209325,1,0,0:0:0:0:
189,343,209515,1,0,0:0:0:0:
0,236,209704,1,0,0:0:0:0:
254,131,209894,2,0,L|243:241,1,85
155,40,210273,2,0,P|227:52|279:0,1,127.5
341,1,210653,6,0,P|396:19|418:60,1,85
290,263,211032,2,0,L|279:177,1,85
512,25,211412,2,0,L|501:109,1,85
211,145,211791,2,0,P|249:109|304:112,1,85
500,270,212170,6,0,L|400:261,1,85
175,32,212550,2,0,L|275:23,1,85
176,358,212929,2,0,P|120:379|87:367,1,85
349,9,213309,2,0,L|332:173,1,127.5
320,162,213688,6,0,P|365:173|400:218,1,85
177,73,214067,2,0,P|224:49|276:60,1,85
252,251,214447,2,0,P|181:253|141:197,1,127.5
139,186,214826,1,0,0:0:0:0:
226,343,215016,1,0,0:0:0:0:
201,135,215206,5,0,0:0:0:0:
49,279,215395,1,0,0:0:0:0:
276,174,215585,1,0,0:0:0:0:
101,66,215775,1,0,0:0:0:0:
285,0,215964,2,0,L|277:101,1,85
341,232,216344,2,0,P|403:235|457:167,1,127.5
461,166,216723,6,0,P|447:232|451:288,1,85
306,380,217102,2,0,P|280:325|281:279,1,85
353,161,217482,2,0,L|196:173,1,127.5
191,173,217861,1,0,0:0:0:0:
297,66,218051,1,0,0:0:0:0:
193,263,218241,5,0,0:0:0:0:
290,81,218430,1,0,0:0:0:0:
115,126,218620,2,0,P|104:193|124:237,1,85
249,326,218999,1,0,0:0:0:0:
68,292,219189,1,0,0:0:0:0:
323,366,219379,2,0,P|332:317|267:244,1,127.5
259,243,219758,6,0,L|363:265,1,85
463,228,220138,1,0,0:0:0:0:
325,78,220327,2,0,P|270:105|252:156,1,85
206,301,220707,1,0,0:0:0:0:
109,227,220896,1,0,0:0:0:0:
335,153,221086,1,0,0:0:0:0:
204,320,221276,5,0,0:0:0:0:
401,228,221465,1,0,0:0:0:0:
214,125,221655,1,0,0:0:0:0:
346,8,221845,1,0,0:0:0:0:
174,229,222034,1,0,0:0:0:0:
445,165,222224,1,0,0:0:0:0:
253,6,222414,1,0,0:0:0:0:
468,177,222604,1,0,0:0:0:0:
0,210,222793,6,0,L|107:218,1,93.5000028533936
512,62,223190,2,0,L|405:70,1,93.5000028533936
34,345,223570,2,0,P|94:333|121:280,1,93.5000028533936
380,0,223950,2,0,P|320:12|293:65,1,93.5000028533936
230,384,224329,6,0,L|243:283,1,93.5000028533936
0,76,224709,2,0,L|11:168,1,93.5000028533936
378,96,225089,2,0,L|391:-5,1,93.5000028533936
40,321,225469,2,0,P|96:330|145:247,1,140.25000428009
172,253,225848,6,0,P|230:267|256:305,1,93.5000028533936
511,76,226228,2,0,L|419:88,1,93.5000028533936
0,186,226608,2,0,L|92:197,1,93.5000028533936
457,383,226988,2,0,P|460:332|417:281,1,93.5000028533936
298,0,227367,6,0,L|292:93,1,93.5000028533936
68,384,227747,2,0,L|62:290,1,93.5000028533936
418,54,228127,2,0,L|412:147,1,93.5000028533936
5,231,228507,2,0,L|0:137,1,93.5000028533936
510,278,228886,6,0,P|486:349|403:348,1,140.25000428009
391,363,229266,2,0,P|400:312|386:267,1,93.5000028533936
137,3,229646,2,0,L|126:123,1,93.5000028533936
512,166,230026,2,0,P|459:134|420:137,1,93.5000028533936
1,364,230405,6,0,L|127:348,1,93.5000028533936
440,56,230785,2,0,L|314:40,1,93.5000028533936
0,173,231165,2,0,P|8:241|50:277,1,93.5000028533936
433,384,231545,2,0,L|443:275,1,93.5000028533936
93,1,231924,6,0,P|68:49|102:134,1,140.25000428009
86,153,232304,2,0,P|138:133|192:144,1,93.5000028533936
507,48,232684,2,0,P|430:35|407:1,1,93.5000028533936
131,250,233064,2,0,L|117:376,1,93.5000028533936
328,0,233443,6,0,L|339:93,1,93.5000028533936
37,377,233823,2,0,P|7:330|14:281,1,93.5000028533936
512,118,234203,2,0,P|511:164|483:201,1,93.5000028533936
16,24,234583,2,0,L|112:33,1,93.5000028533936
469,383,234962,6,0,P|387:376|362:305,1,140.25000428009
343,311,235342,2,0,L|455:299,1,93.5000028533936
0,352,235722,2,0,L|112:364,1,93.5000028533936
511,177,236102,2,0,P|461:186|433:223,1,93.5000028533936
35,239,236481,6,0,P|26:185|-17:151,1,93.5000028533936
416,3,236861,2,0,L|406:126,1,93.5000028533936
120,384,237241,2,0,L|112:290,1,93.5000028533936
512,230,237621,2,0,P|452:238|395:166,1,140.25000428009
384,161,238000,6,0,P|403:232|383:280,1,93.5000028533936
5,158,238380,2,0,L|121:133,1,93.5000028533936
512,381,238760,2,0,L|396:356,1,93.5000028533936
188,2,239140,2,0,P|249:34|262:84,1,93.5000028533936
0,380,239519,6,0,L|8:278,1,93.5000028533936
444,16,239899,2,0,P|456:69|421:124,1,93.5000028533936
1,106,240279,2,0,L|134:126,1,93.5000028533936
512,337,240659,2,0,L|379:357,1,93.5000028533936
123,45,241038,6,0,P|185:57|247:3,1,140.25000428009
263,0,241418,2,0,P|232:68|236:109,1,93.5000028533936
36,370,241798,2,0,P|21:312|-1:287,1,93.5000028533936
390,63,242178,2,0,L|501:72,1,93.5000028533936
0,193,242557,6,0,L|111:184,1,93.5000028533936
453,378,242937,2,0,P|371:353|359:313,1,93.5000028533936
505,3,243317,2,0,L|494:120,1,93.5000028533936
102,382,243697,2,0,L|94:289,1,93.5000028533936
511,180,244076,6,0,P|436:164|413:98,1,140.25000428009
401,91,244456,2,0,P|348:93|310:126,1,93.5000028533936
0,187,244836,2,0,L|124:198,1,93.5000028533936
446,378,245216,2,0,P|465:329|427:251,1,140.25000428009
404,239,245595,5,0,0:0:0:0:
281,311,245785,1,0,0:0:0:0:
470,182,245975,1,0,0:0:0:0:
313,150,246165,1,0,0:0:0:0:
428,93,246355,1,0,0:0:0:0:
227,190,246545,1,0,0:0:0:0:
364,25,246735,1,0,0:0:0:0:
448,263,246924,1,0,0:0:0:0:
169,256,247114,6,0,P|140:185|194:110,1,140.25000428009
196,109,247494,1,0,0:0:0:0:
50,189,247684,1,0,0:0:0:0:
285,36,247874,1,0,0:0:0:0:
105,0,248064,1,0,0:0:0:0:
415,105,248254,1,0,0:0:0:0:
227,190,248443,1,0,0:0:0:0:
485,172,248633,5,0,0:0:0:0:
505,347,248823,1,0,0:0:0:0:
395,83,249013,1,0,0:0:0:0:
343,314,249203,1,0,0:0:0:0:
206,138,249393,1,0,0:0:0:0:
244,374,249583,1,0,0:0:0:0:
147,28,249773,1,0,0:0:0:0:
50,308,249962,1,0,0:0:0:0:
56,57,250152,5,0,0:0:0:0:
224,0,250342,1,0,0:0:0:0:
132,173,250532,1,0,0:0:0:0:
291,54,250722,1,0,0:0:0:0:
234,288,250912,1,0,0:0:0:0:
371,84,251102,1,0,0:0:0:0:
452,360,251292,1,0,0:0:0:0:
449,78,251481,1,0,0:0:0:0:
321,377,251671,5,0,0:0:0:0:
185,352,251861,1,0,0:0:0:0:
473,249,252051,1,0,0:0:0:0:
257,274,252241,1,0,0:0:0:0:
118,88,252431,1,0,0:0:0:0:
373,188,252621,1,0,0:0:0:0:
475,5,252811,1,0,0:0:0:0:
215,118,253000,1,0,0:0:0:0:
450,314,253190,5,0,0:0:0:0:
477,164,253380,1,0,0:0:0:0:
299,14,253570,1,0,0:0:0:0:
334,236,253760,1,0,0:0:0:0:
141,362,253950,1,0,0:0:0:0:
205,131,254140,1,0,0:0:0:0:
3,14,254329,1,0,0:0:0:0:
37,299,254519,1,0,0:0:0:0:
276,58,254709,5,0,0:0:0:0:
0,204,254899,1,0,0:0:0:0:
357,124,255089,1,0,0:0:0:0:
33,131,255279,1,0,0:0:0:0:
408,250,255469,1,0,0:0:0:0:
96,77,255659,1,0,0:0:0:0:
414,384,255848,1,0,0:0:0:0:
173,43,256038,1,0,0:0:0:0:
46,288,256228,5,0,0:0:0:0:
302,136,256418,1,0,0:0:0:0:
92,84,256608,1,0,0:0:0:0:
244,340,256798,1,0,0:0:0:0:
18,304,256988,1,0,0:0:0:0:
330,119,257178,1,0,0:0:0:0:
74,55,257367,1,0,0:0:0:0:
259,368,257557,1,0,0:0:0:0:
370,11,257747,5,0,0:0:0:0:
146,43,257937,1,0,0:0:0:0:
441,86,258127,1,0,0:0:0:0:
122,47,258317,1,0,0:0:0:0:
451,3,258507,1,0,0:0:0:0:
98,51,258697,1,0,0:0:0:0:
500,139,258886,1,0,0:0:0:0:
74,55,259076,1,0,0:0:0:0:
155,327,259266,5,0,0:0:0:0:
389,212,259456,1,0,0:0:0:0:
74,279,259646,1,0,0:0:0:0:
399,217,259836,1,0,0:0:0:0:
16,187,260026,1,0,0:0:0:0:
408,226,260216,1,0,0:0:0:0:
26,80,260405,1,0,0:0:0:0:
415,237,260595,1,0,0:0:0:0:
121,0,260785,5,0,0:0:0:0:
255,342,260975,1,0,0:0:0:0:
389,0,261165,1,0,0:0:0:0:
255,351,261355,1,0,0:0:0:0:
121,0,261545,1,0,0:0:0:0:
255,360,261735,1,0,0:0:0:0:
389,0,261924,1,0,0:0:0:0:
255,369,262114,1,0,0:0:0:0:
72,89,262304,5,0,0:0:0:0:
311,17,262494,1,0,0:0:0:0:
49,100,262684,1,0,0:0:0:0:
419,124,262874,1,0,0:0:0:0:
30,113,263064,1,0,0:0:0:0:
405,288,263254,1,0,0:0:0:0:
12,125,263443,1,0,0:0:0:0:
278,381,263633,1,0,0:0:0:0:
116,17,263823,5,0,0:0:0:0:
39,268,264013,1,0,0:0:0:0:
204,0,264203,1,0,0:0:0:0:
231,281,264393,1,0,0:0:0:0:
346,73,264583,1,0,0:0:0:0:
305,362,264773,1,0,0:0:0:0:
422,16,264962,1,0,0:0:0:0:
510,306,265152,1,0,0:0:0:0:
286,144,265342,5,0,0:0:0:0:
510,50,265532,1,0,0:0:0:0:
162,51,265722,1,0,0:0:0:0:
444,99,265912,1,0,0:0:0:0:
92,185,266102,1,0,0:0:0:0:
370,52,266292,1,0,0:0:0:0:
1,39,266481,1,0,0:0:0:0:
325,119,266671,1,0,0:0:0:0:
56,328,266861,5,0,0:0:0:0:
210,51,267051,1,0,0:0:0:0:
318,376,267241,1,0,0:0:0:0:
137,110,267431,1,0,0:0:0:0:
512,200,267621,1,0,0:0:0:0:
108,197,267811,1,0,0:0:0:0:
377,0,268000,1,0,0:0:0:0:
149,279,268190,1,0,0:0:0:0:
64,22,268380,5,0,0:0:0:0:
441,69,268570,1,0,0:0:0:0:
7,138,268760,1,0,0:0:0:0:
405,147,268950,1,0,0:0:0:0:
72,242,269140,1,0,0:0:0:0:
461,284,269329,1,0,0:0:0:0:
6,380,269519,1,0,0:0:0:0:
402,340,269709,1,0,0:0:0:0:
215,66,269899,6,0,P|165:83|140:114,1,93.5000028533936
323,384,270279,1,0,0:0:0:0:
508,222,270469,2,0,P|463:179|401:185,1,93.5000028533936
116,322,270848,1,0,0:0:0:0:
350,12,271038,2,0,L|339:165,1,140.25000428009
343,189,271424,6,0,P|279:169|206:243,1,170
441,365,272942,2,0,L|425:168,1,170
392,117,274082,6,0,P|378:71|476:8,1,170
492,149,275221,2,0,L|308:138,1,170
143,193,276740,2,0,P|195:191|231:159,1,85
221,87,277499,6,0,L|27:102,1,170
16,285,279018,2,0,P|87:298|149:215,1,170
184,158,280158,6,0,P|172:207|257:283,1,170
463,300,282056,2,0,L|368:291,1,85
204,379,282816,2,0,P|269:367|295:332,1,85
121,241,283575,6,0,L|315:260,1,170
397,95,285094,2,0,P|337:84|262:164,1,170
241,227,286234,6,0,L|227:43,1,170
142,3,287373,2,0,L|129:172,1,170
233,343,288892,2,0,P|283:344|328:303,1,85
336,238,289651,6,0,P|394:254|467:163,1,170
334,42,291170,2,0,L|332:241,1,170
196,352,292310,6,0,P|248:281|117:331,1,382.5
121,346,294264,6,0,P|71:330|15:339,1,85
110,171,295180,2,0,P|160:155|216:164,1,85
256,192,296169,12,0,309609,0:0:0:0:
