osu file format v14

[General]
AudioFilename: Reason of being.mp3
AudioLeadIn: 0
PreviewTime: 75807
Countdown: 0
SampleSet: Soft
StackLeniency: 0.7
Mode: 3
LetterboxInBreaks: 0
SpecialStyle: 0
WidescreenStoryboard: 0
SamplesMatchPlaybackRate: 1

[Editor]
DistanceSpacing: 1.2
BeatDivisor: 4
GridSize: 4
TimelineZoom: 3.219999

[Metadata]
Title:Reason of being
TitleUnicode:Reason of being
Artist:sak respect for Arata Iiyoshi
ArtistUnicode:sak respect for Arata Iiyoshi
Creator:Kuo Kyoka
Version:Final Judgment / Extra
Source:BMS
Tags:Pokémon Nintendo NDS Mystery Dungeon Explorers of the Darkness Time Sky ポケモン不思議のダンジョン 空の探検隊 時の探検隊 闇の探検隊 とざくろ Tozakuro Portable Memories March BMS Edition Optie しろやぎとざくろ Pikachu Chimchar Primal Dialga Final Boss Battle Theme Fight to The Finish Remix Finale Critical_Star
BeatmapID:1171236
BeatmapSetID:553116

[Difficulty]
HPDrainRate:8.5
CircleSize:4
OverallDifficulty:8.5
ApproachRate:5
SliderMultiplier:1.4
SliderTickRate:1

[Events]
//Background and Video events
0,0,"BG.jpg",0,0
Video,-100,"BGA.flv"
//Break Periods
//Storyboard Layer 0 (Background)
//Storyboard Layer 1 (Fail)
//Storyboard Layer 2 (Pass)
//Storyboard Layer 3 (Foreground)
//Storyboard Sound Samples
Sample,17544,0,"hihat.wav",50
Sample,25123,0,"hihat.wav",50
Sample,39649,0,"hihat.wav",50
Sample,41228,0,"hihat.wav",50
Sample,43123,0,"hihat.wav",50
Sample,43439,0,"drum.wav",50
Sample,43834,0,"kick.wav",70
Sample,45018,0,"kick.wav",70
Sample,45649,0,"hihat.wav",50
Sample,48807,0,"snare.wav",70
Sample,49439,0,"hihat.wav",50
Sample,51386,0,"hihat.wav",50
Sample,51439,0,"hihat.wav",50
Sample,51544,0,"drum.wav",50
Sample,51597,0,"drum.wav",50
Sample,52597,0,"hihat.wav",50
Sample,53228,0,"hihat.wav",50
Sample,55755,0,"hihat.wav",50
Sample,56070,0,"hihat.wav",50
Sample,56070,0,"drum.wav",50
Sample,56386,0,"drum.wav",50
Sample,56386,0,"snare.wav",70
Sample,56386,0,"hihat.wav",50
Sample,56439,0,"snare.wav",70
Sample,56491,0,"snare.wav",70
Sample,57018,0,"hihat.wav",50
Sample,57491,0,"drum.wav",50
Sample,57649,0,"hihat.wav",50
Sample,57965,0,"hihat.wav",50
Sample,57965,0,"drum.wav",50
Sample,58281,0,"hihat.wav",50
Sample,58649,0,"drum.wav",50
Sample,58702,0,"drum.wav",50
Sample,58794,0,"drum.wav",50
Sample,58873,0,"drum.wav",50
Sample,58913,0,"kick.wav",70
Sample,58913,0,"drum.wav",50
Sample,58965,0,"drum.wav",50
Sample,59018,0,"drum.wav",50
Sample,67649,0,"hihat.wav",50
Sample,67702,0,"hihat.wav",50
Sample,67755,0,"hihat.wav",50
Sample,67807,0,"hihat.wav",50
Sample,67860,0,"hihat.wav",50
Sample,69544,0,"hihat.wav",50
Sample,69597,0,"hihat.wav",50
Sample,69649,0,"hihat.wav",50
Sample,69702,0,"hihat.wav",50
Sample,69755,0,"hihat.wav",50
Sample,70544,0,"drum.wav",50
Sample,70649,0,"drum.wav",50
Sample,71228,0,"drum.wav",50
Sample,71491,0,"hihat.wav",50
Sample,71597,0,"hihat.wav",50
Sample,77939,0,"hihat.wav",50
Sample,80149,0,"hihat.wav",50
Sample,81728,0,"hihat.wav",50
Sample,85518,0,"hihat.wav",50
Sample,85834,0,"hihat.wav",50
Sample,87728,0,"hihat.wav",50
Sample,90649,0,"drum.wav",50
Sample,91123,0,"cymbal.wav",70
Sample,102491,0,"drum.wav",50
Sample,102965,0,"cymbal.wav",70
Sample,103913,0,"kick.wav",70
Sample,103913,0,"cymbal.wav",70
Sample,104860,0,"drum.wav",50
Sample,104860,0,"kick.wav",70
Sample,105807,0,"cymbal.wav",70
Sample,105807,0,"kick.wav",70
Sample,106755,0,"boom.wav",70
Sample,109755,0,"drum.wav",50

[TimingPoints]
20,631.578947368421,3,2,1,50,1,0
20,-50,3,2,1,50,0,0
3809,631.578947368421,4,2,1,50,1,0
3809,-50,3,2,1,50,0,0
6335,631.578947368421,3,2,1,50,1,0
6335,-50,3,2,1,50,0,0
13598,315.789473684211,3,2,1,50,1,0
13913,315.789473684211,3,2,1,50,1,0
17386,-400,3,2,1,50,0,0
17544,-57.1428571428571,3,2,1,50,0,0
17702,-100,3,2,1,50,0,0
24965,-400,3,2,1,50,0,0
25123,-57.1428571428571,3,2,1,50,0,0
25281,-100,3,2,1,50,0,0
41070,-400,3,2,1,50,0,0
41228,-57.1428571428571,3,2,1,50,0,0
41386,-100,3,2,1,50,0,0
42965,-400,3,2,1,50,0,0
43123,-57.1428571428571,3,2,1,50,0,0
43281,-100,3,2,1,50,0,0
43913,-400,3,2,1,50,0,0
43952,-57.1428571428571,3,2,1,50,0,0
43991,-400,3,2,1,50,0,0
44030,-57.1428571428571,3,2,1,50,0,0
44070,-400,3,2,1,50,0,0
44109,-57.1428571428571,3,2,1,50,0,0
44149,-400,3,2,1,50,0,0
44188,-57.1428571428571,3,2,1,50,0,0
44228,-100,3,2,1,50,0,0
51807,-400,3,2,1,50,0,0
51965,-57.1428571428571,3,2,1,50,0,0
52123,-100,3,2,1,50,0,0
58439,-400,3,2,1,50,0,0
58478,-57.1428571428571,3,2,1,50,0,0
58517,-400,3,2,1,50,0,0
58556,-57.1428571428571,3,2,1,50,0,0
58596,-400,3,2,1,50,0,0
58635,-57.1428571428571,3,2,1,50,0,0
58675,-400,3,2,1,50,0,0
58714,-57.1428571428571,3,2,1,50,0,0
58755,-400,3,2,1,50,0,0
58794,-57.1428571428571,3,2,1,50,0,0
58833,-400,3,2,1,50,0,0
58872,-57.1428571428571,3,2,1,50,0,0
58912,-400,3,2,1,50,0,0
58951,-57.1428571428571,3,2,1,50,0,0
58991,-400,3,2,1,50,0,0
59030,-57.1428571428571,3,2,1,50,0,0
59070,-400,3,2,1,50,0,0
59109,-57.1428571428571,3,2,1,50,0,0
59148,-400,3,2,1,50,0,0
59187,-57.1428571428571,3,2,1,50,0,0
59227,-400,3,2,1,50,0,0
59266,-57.1428571428571,3,2,1,50,0,0
59306,-400,3,2,1,50,0,0
59345,-57.1428571428571,3,2,1,50,0,0
59386,-100,3,2,1,50,0,0
72334,-400,3,2,1,50,0,0
72373,-57.1428571428571,3,2,1,50,0,0
72412,-400,3,2,1,50,0,0
72451,-57.1428571428571,3,2,1,50,0,0
72491,-400,3,2,1,50,0,0
72530,-57.1428571428571,3,2,1,50,0,0
72570,-400,3,2,1,50,0,0
72609,-57.1428571428571,3,2,1,50,0,0
72649,-100,3,2,1,50,0,0
76439,-100,3,2,1,50,0,1
91597,-100,3,2,1,50,0,0
102965,-100,3,2,1,50,0,1
105807,-100,3,2,1,50,0,0
106755,-100,3,2,1,50,0,1
114334,-100,3,2,1,50,0,0
120334,363.636363636364,3,2,1,50,1,0
120334,-86.9565217391304,3,2,1,50,0,0
120697,387.096774193548,3,2,1,50,1,0
120697,-81.3008130081301,3,2,1,50,0,0
121084,413.793103448276,3,2,1,50,1,0
121084,-76.3358778625954,3,2,1,50,0,0
121497,500,3,2,1,50,1,0
121497,-63.2911392405063,3,2,1,50,0,0
121997,857.142857142857,3,2,1,50,1,0
121997,-36.90036900369,3,2,1,50,0,0
122854,1263.15789473684,3,2,1,50,1,0
122854,-25,3,2,1,50,0,0

[HitObjects]
64,192,20,128,0,6177:0:0:0:0:
192,192,967,128,0,6177:0:0:0:0:
320,192,1914,128,0,6177:0:0:0:0:
448,192,3809,128,0,6177:0:0:0:50:tambalin.wav
448,192,6335,128,0,13440:0:0:0:0:
320,192,7282,128,0,11861:0:0:0:0:
192,192,8229,128,0,11861:0:0:0:0:
64,192,10124,128,0,13440:0:0:0:50:tambalin.wav
192,192,12019,128,0,13440:0:0:0:0:
320,192,12019,128,0,13440:0:0:0:0:
448,192,13598,1,0,0:0:0:70:kick.wav
192,192,13598,1,0,0:0:0:0:
64,192,13598,1,0,0:0:0:0:
320,192,13676,1,0,0:0:0:70:kick.wav
64,192,13755,1,0,0:0:0:70:kick.wav
448,192,13755,1,0,0:0:0:0:
192,192,13834,1,0,0:0:0:70:kick.wav
64,192,13913,1,0,0:0:0:70:kick.wav
448,192,13913,1,0,0:0:0:70:cymbal.wav
320,192,13913,1,0,0:0:0:0:
192,192,14070,1,0,0:0:0:50:hihat.wav
320,192,14070,1,0,0:0:0:0:
64,192,14228,1,0,0:0:0:50:hihat.wav
320,192,14228,1,0,0:0:0:0:
192,192,14386,1,0,0:0:0:70:kick.wav
64,192,14386,1,0,0:0:0:0:
448,192,14386,1,0,0:0:0:0:
192,192,14544,1,0,0:0:0:50:hihat.wav
320,192,14544,1,0,0:0:0:0:
192,192,14702,1,0,0:0:0:70:kick.wav
448,192,14702,1,0,0:0:0:0:
64,192,14702,1,0,0:0:0:0:
64,192,14860,1,0,0:0:0:70:kick.wav
320,192,14860,1,0,0:0:0:0:
448,192,14860,1,0,0:0:0:0:
192,192,15018,1,0,0:0:0:50:hihat.wav
320,192,15018,1,0,0:0:0:0:
192,192,15176,1,0,0:0:0:70:kick.wav
64,192,15176,1,0,0:0:0:0:
448,192,15176,1,0,0:0:0:0:
448,192,15334,1,0,0:0:0:50:hihat.wav
320,192,15334,1,0,0:0:0:0:
192,192,15491,1,0,0:0:0:50:hihat.wav
320,192,15491,1,0,0:0:0:0:
192,192,15649,1,0,0:0:0:70:kick.wav
448,192,15649,1,0,0:0:0:0:
64,192,15649,1,0,0:0:0:0:
320,192,15807,1,0,0:0:0:70:kick.wav
448,192,15807,1,0,0:0:0:0:
64,192,15807,1,0,0:0:0:0:
320,192,15965,1,0,0:0:0:50:hihat.wav
192,192,15965,1,0,0:0:0:0:
320,192,16123,1,0,0:0:0:50:hihat.wav
64,192,16123,1,0,0:0:0:0:
192,192,16281,1,0,0:0:0:70:kick.wav
448,192,16281,1,0,0:0:0:0:
64,192,16281,1,0,0:0:0:0:
192,192,16439,1,0,0:0:0:50:hihat.wav
320,192,16439,1,0,0:0:0:0:
192,192,16597,1,0,0:0:0:70:kick.wav
448,192,16597,1,0,0:0:0:0:
64,192,16597,1,0,0:0:0:0:
64,192,16755,1,0,0:0:0:70:kick.wav
320,192,16755,1,0,0:0:0:0:
448,192,16755,1,0,0:0:0:0:
320,192,16913,1,0,0:0:0:50:hihat.wav
192,192,16913,1,0,0:0:0:0:
192,192,17070,1,0,0:0:0:70:kick.wav
64,192,17070,1,0,0:0:0:0:
448,192,17070,1,0,0:0:0:0:
192,192,17228,1,0,0:0:0:50:hihat.wav
320,192,17228,1,0,0:0:0:0:
320,192,17386,1,0,0:0:0:70:kick.wav
448,192,17386,1,0,0:0:0:0:
64,192,17386,1,0,0:0:0:0:
64,192,17702,1,0,0:0:0:70:kick.wav
448,192,17702,1,0,0:0:0:0:
192,192,17702,1,0,0:0:0:0:
192,192,17860,1,0,0:0:0:50:hihat.wav
320,192,17860,1,0,0:0:0:0:
192,192,18018,1,0,0:0:0:50:hihat.wav
448,192,18018,1,0,0:0:0:0:
64,192,18176,1,0,0:0:0:70:kick.wav
320,192,18176,1,0,0:0:0:0:
448,192,18176,1,0,0:0:0:0:
320,192,18334,1,0,0:0:0:50:hihat.wav
192,192,18334,1,0,0:0:0:0:
320,192,18491,1,0,0:0:0:70:kick.wav
64,192,18491,1,0,0:0:0:0:
448,192,18491,1,0,0:0:0:0:
64,192,18649,1,0,0:0:0:70:kick.wav
448,192,18649,1,0,0:0:0:0:
192,192,18649,1,0,0:0:0:0:
192,192,18807,1,0,0:0:0:50:hihat.wav
320,192,18807,1,0,0:0:0:0:
320,192,18965,1,0,0:0:0:70:kick.wav
448,192,18965,1,0,0:0:0:0:
64,192,18965,1,0,0:0:0:0:
64,192,19123,1,0,0:0:0:50:hihat.wav
192,192,19123,1,0,0:0:0:0:
192,192,19281,1,0,0:0:0:50:hihat.wav
320,192,19281,1,0,0:0:0:0:
320,192,19439,1,0,0:0:0:70:kick.wav
448,192,19439,1,0,0:0:0:0:
64,192,19439,1,0,0:0:0:0:
192,192,19597,1,0,0:0:0:70:kick.wav
64,192,19597,1,0,0:0:0:0:
448,192,19597,1,0,0:0:0:0:
192,192,19755,1,0,0:0:0:50:hihat.wav
320,192,19755,1,0,0:0:0:0:
192,192,19913,1,0,0:0:0:50:hihat.wav
448,192,19913,1,0,0:0:0:0:
320,192,20070,1,0,0:0:0:70:kick.wav
448,192,20070,1,0,0:0:0:0:
64,192,20070,1,0,0:0:0:0:
320,192,20228,1,0,0:0:0:50:hihat.wav
192,192,20228,1,0,0:0:0:0:
320,192,20386,1,0,0:0:0:70:kick.wav
64,192,20386,1,0,0:0:0:0:
448,192,20386,1,0,0:0:0:0:
192,192,20544,1,0,0:0:0:50:drum.wav
64,192,20544,1,0,0:0:0:70:kick.wav
448,192,20544,1,0,0:0:0:0:
320,192,20623,1,0,0:0:0:50:drum.wav
64,192,20702,1,0,0:0:0:50:drum.wav
448,192,20702,1,0,0:0:0:50:hihat.wav
192,192,20781,1,0,0:0:0:50:drum.wav
320,192,20860,1,0,0:0:0:50:drum.wav
448,192,20860,1,0,0:0:0:70:kick.wav
64,192,20939,1,0,0:0:0:50:drum.wav
192,192,21018,1,0,0:0:0:50:drum.wav
448,192,21018,1,0,0:0:0:50:hihat.wav
320,192,21097,1,0,0:0:0:50:drum.wav
192,192,21176,1,0,0:0:0:50:drum.wav
64,192,21176,1,0,0:0:0:70:kick.wav
320,192,21255,1,0,0:0:0:50:drum.wav
448,192,21255,1,0,0:0:0:0:
192,192,21334,1,0,0:0:0:50:drum.wav
64,192,21334,1,0,0:0:0:50:hihat.wav
320,192,21413,1,0,0:0:0:50:drum.wav
448,192,21413,1,0,0:0:0:0:
192,192,21491,1,0,0:0:0:70:cymbal.wav
64,192,21491,1,0,0:0:0:70:kick.wav
448,192,21491,1,0,0:0:0:0:
320,192,21649,1,0,0:0:0:50:hihat.wav
192,192,21649,1,0,0:0:0:0:
448,192,21807,1,0,0:0:0:50:drum.wav
192,192,21807,1,0,0:0:0:50:hihat.wav
320,192,21965,1,0,0:0:0:70:kick.wav
448,192,21965,1,0,0:0:0:0:
64,192,21965,1,0,0:0:0:0:
320,192,22123,1,0,0:0:0:50:drum.wav
192,192,22123,1,0,0:0:0:50:hihat.wav
320,192,22281,1,0,0:0:0:70:kick.wav
64,192,22281,1,0,0:0:0:0:
448,192,22281,1,0,0:0:0:0:
448,192,22439,1,0,0:0:0:70:kick.wav
192,192,22439,1,0,0:0:0:0:
64,192,22439,1,0,0:0:0:0:
320,192,22597,1,0,0:0:0:50:hihat.wav
192,192,22597,1,0,0:0:0:0:
320,192,22755,1,0,0:0:0:50:drum.wav
448,192,22755,1,0,0:0:0:70:kick.wav
64,192,22755,1,0,0:0:0:0:
64,192,22913,1,0,0:0:0:50:hihat.wav
192,192,22913,1,0,0:0:0:0:
320,192,23070,1,0,0:0:0:50:drum.wav
192,192,23070,1,0,0:0:0:50:hihat.wav
320,192,23228,1,0,0:0:0:70:kick.wav
64,192,23228,1,0,0:0:0:0:
448,192,23228,1,0,0:0:0:0:
192,192,23386,1,0,0:0:0:70:kick.wav
64,192,23386,1,0,0:0:0:0:
448,192,23386,1,0,0:0:0:0:
192,192,23544,1,0,0:0:0:50:hihat.wav
320,192,23544,1,0,0:0:0:0:
192,192,23702,1,0,0:0:0:50:drum.wav
448,192,23702,1,0,0:0:0:50:hihat.wav
320,192,23860,1,0,0:0:0:70:kick.wav
64,192,23860,1,0,0:0:0:0:
448,192,23860,1,0,0:0:0:0:
320,192,24018,1,0,0:0:0:50:drum.wav
192,192,24018,1,0,0:0:0:50:hihat.wav
320,192,24176,1,0,0:0:0:70:kick.wav
64,192,24176,1,0,0:0:0:0:
448,192,24176,1,0,0:0:0:0:
448,192,24334,1,0,0:0:0:70:kick.wav
192,192,24334,1,0,0:0:0:0:
64,192,24334,1,0,0:0:0:0:
192,192,24491,1,0,0:0:0:50:drum.wav
320,192,24491,1,0,0:0:0:50:hihat.wav
320,192,24649,1,0,0:0:0:70:kick.wav
448,192,24649,1,0,0:0:0:0:
64,192,24649,1,0,0:0:0:0:
320,192,24807,1,0,0:0:0:50:hihat.wav
192,192,24807,1,0,0:0:0:0:
192,192,24965,1,0,0:0:0:50:drum.wav
64,192,24965,1,0,0:0:0:70:kick.wav
448,192,24965,1,0,0:0:0:0:
448,192,25281,1,0,0:0:0:70:kick.wav
64,192,25281,1,0,0:0:0:0:
320,192,25281,1,0,0:0:0:0:
320,192,25439,1,0,0:0:0:50:hihat.wav
192,192,25439,1,0,0:0:0:0:
320,192,25597,1,0,0:0:0:50:hihat.wav
64,192,25597,1,0,0:0:0:50:drum.wav
448,192,25755,1,0,0:0:0:70:kick.wav
192,192,25755,1,0,0:0:0:0:
64,192,25755,1,0,0:0:0:0:
192,192,25913,1,0,0:0:0:50:hihat.wav
320,192,25913,1,0,0:0:0:50:drum.wav
192,192,26070,1,0,0:0:0:70:kick.wav
448,192,26070,1,0,0:0:0:0:
64,192,26070,1,0,0:0:0:0:
448,192,26228,1,0,0:0:0:70:kick.wav
64,192,26228,1,0,0:0:0:0:
320,192,26228,1,0,0:0:0:0:
320,192,26386,1,0,0:0:0:50:hihat.wav
192,192,26386,1,0,0:0:0:0:
192,192,26544,1,0,0:0:0:50:drum.wav
64,192,26544,1,0,0:0:0:70:kick.wav
448,192,26544,1,0,0:0:0:0:
448,192,26702,1,0,0:0:0:50:hihat.wav
320,192,26702,1,0,0:0:0:0:
320,192,26860,1,0,0:0:0:50:hihat.wav
192,192,26860,1,0,0:0:0:50:drum.wav
192,192,27018,1,0,0:0:0:70:kick.wav
64,192,27018,1,0,0:0:0:0:
448,192,27018,1,0,0:0:0:0:
320,192,27176,1,0,0:0:0:70:kick.wav
448,192,27176,1,0,0:0:0:0:
64,192,27176,1,0,0:0:0:0:
320,192,27334,1,0,0:0:0:50:hihat.wav
192,192,27334,1,0,0:0:0:0:
320,192,27491,1,0,0:0:0:50:hihat.wav
64,192,27491,1,0,0:0:0:50:drum.wav
192,192,27649,1,0,0:0:0:70:kick.wav
64,192,27649,1,0,0:0:0:0:
448,192,27649,1,0,0:0:0:0:
192,192,27807,1,0,0:0:0:50:hihat.wav
320,192,27807,1,0,0:0:0:50:drum.wav
192,192,27965,1,0,0:0:0:70:kick.wav
448,192,27965,1,0,0:0:0:0:
64,192,27965,1,0,0:0:0:0:
320,192,28123,1,0,0:0:0:70:kick.wav
448,192,28123,1,0,0:0:0:50:drum.wav
64,192,28123,1,0,0:0:0:0:
192,192,28202,1,0,0:0:0:50:drum.wav
448,192,28281,1,0,0:0:0:50:hihat.wav
64,192,28281,1,0,0:0:0:50:drum.wav
320,192,28360,1,0,0:0:0:50:drum.wav
192,192,28439,1,0,0:0:0:50:drum.wav
64,192,28439,1,0,0:0:0:70:kick.wav
320,192,28518,1,0,0:0:0:50:drum.wav
448,192,28597,1,0,0:0:0:50:hihat.wav
64,192,28597,1,0,0:0:0:50:drum.wav
192,192,28676,1,0,0:0:0:50:drum.wav
320,192,28755,1,0,0:0:0:70:kick.wav
448,192,28755,1,0,0:0:0:50:drum.wav
192,192,28834,1,0,0:0:0:50:drum.wav
64,192,28834,1,0,0:0:0:0:
320,192,28913,1,0,0:0:0:50:hihat.wav
448,192,28913,1,0,0:0:0:50:drum.wav
192,192,28991,1,0,0:0:0:50:drum.wav
64,192,28991,1,0,0:0:0:0:
320,192,29070,1,0,0:0:0:70:cymbal.wav
448,192,29070,1,0,0:0:0:70:kick.wav
64,192,29070,128,0,29544:0:0:0:50:clock.wav
320,192,29544,128,0,29702:0:0:0:0:
192,192,29860,128,0,30018:0:0:0:0:
448,192,30018,128,0,30649:0:0:0:50:clock.wav
320,192,30334,128,0,30965:0:0:0:0:
192,192,30649,128,0,31281:0:0:0:0:
64,192,30965,128,0,31597:0:0:0:50:clock.wav
448,192,31281,128,0,31439:0:0:0:0:
320,192,31439,128,0,31597:0:0:0:0:
192,192,31597,128,0,31755:0:0:0:0:
64,192,31755,128,0,32860:0:0:0:0:
320,192,31913,128,0,32386:0:0:0:50:clock.wav
320,192,32544,128,0,32702:0:0:0:0:
448,192,32860,128,0,33334:0:0:0:50:clock.wav
192,192,33334,128,0,33491:0:0:0:0:
320,192,33649,128,0,33807:0:0:0:0:
64,192,33807,128,0,34439:0:0:0:50:clock.wav
192,192,34123,128,0,34755:0:0:0:0:
320,192,34439,128,0,35070:0:0:0:0:
448,192,34755,128,0,35386:0:0:0:50:clock.wav
64,192,35228,128,0,35544:0:0:0:0:
320,192,35544,128,0,35702:0:0:0:0:
192,192,35702,128,0,36018:0:0:0:50:clock.wav
320,192,36018,1,0,0:0:0:50:drum.wav
448,192,36018,1,0,0:0:0:0:
192,192,36097,1,0,0:0:0:50:drum.wav
64,192,36097,1,0,0:0:0:0:
320,192,36176,1,0,0:0:0:50:drum.wav
448,192,36176,1,0,0:0:0:0:
192,192,36255,1,0,0:0:0:50:drum.wav
64,192,36255,1,0,0:0:0:0:
320,192,36334,1,0,0:0:0:50:drum.wav
448,192,36334,1,0,0:0:0:0:
192,192,36413,1,0,0:0:0:50:drum.wav
64,192,36413,1,0,0:0:0:0:
320,192,36491,1,0,0:0:0:50:drum.wav
448,192,36491,1,0,0:0:0:0:
64,192,36570,1,0,0:0:0:50:drum.wav
192,192,36570,1,0,0:0:0:0:
320,192,36649,1,0,0:0:0:70:cymbal.wav
64,192,36649,1,0,0:0:0:70:kick.wav
448,192,36649,1,0,0:0:0:0:
64,192,36807,1,0,0:0:0:50:hihat.wav
448,192,36886,1,0,0:0:0:70:kick.wav
192,192,36886,1,0,0:0:0:0:
320,192,36965,1,0,0:0:0:50:drum.wav
64,192,36965,1,0,0:0:0:0:
64,192,37123,1,0,0:0:0:50:hihat.wav
448,192,37123,128,0,37281:0:0:0:70:kick.wav
192,192,37202,1,0,0:0:0:0:
320,192,37281,1,0,0:0:0:50:drum.wav
64,192,37281,1,0,0:0:0:0:
192,192,37439,1,0,0:0:0:50:hihat.wav
320,192,37439,128,0,37597:0:0:0:0:
448,192,37597,1,0,0:0:0:70:kick.wav
64,192,37597,1,0,0:0:0:0:
320,192,37676,1,0,0:0:0:0:
64,192,37755,1,0,0:0:0:50:hihat.wav
192,192,37834,1,0,0:0:0:70:kick.wav
448,192,37834,1,0,0:0:0:0:
64,192,37913,1,0,0:0:0:50:drum.wav
320,192,37913,1,0,0:0:0:0:
448,192,37991,1,0,0:0:0:0:
64,192,38070,1,0,0:0:0:70:kick.wav
192,192,38070,1,0,0:0:0:50:hihat.wav
192,192,38149,1,0,0:0:0:70:kick.wav
320,192,38149,1,0,0:0:0:0:
320,192,38228,1,0,0:0:0:50:drum.wav
448,192,38228,1,0,0:0:0:0:
192,192,38307,1,0,0:0:0:0:
64,192,38386,1,0,0:0:0:50:hihat.wav
320,192,38465,1,0,0:0:0:0:
192,192,38544,1,0,0:0:0:70:kick.wav
64,192,38544,1,0,0:0:0:0:
320,192,38623,1,0,0:0:0:0:
448,192,38702,1,0,0:0:0:50:hihat.wav
192,192,38781,1,0,0:0:0:70:kick.wav
64,192,38781,1,0,0:0:0:0:
320,192,38860,1,0,0:0:0:50:drum.wav
448,192,38860,1,0,0:0:0:0:
64,192,38939,1,0,0:0:0:0:
448,192,39018,1,0,0:0:0:70:kick.wav
192,192,39018,1,0,0:0:0:50:hihat.wav
320,192,39097,1,0,0:0:0:0:
448,192,39176,1,0,0:0:0:50:drum.wav
64,192,39176,1,0,0:0:0:0:
192,192,39255,1,0,0:0:0:0:
320,192,39334,128,0,39491:0:0:0:50:hihat.wav
448,192,39491,1,0,0:0:0:70:kick.wav
64,192,39491,1,0,0:0:0:0:
320,192,39570,1,0,0:0:0:0:
448,192,39649,1,0,0:0:0:50:drum.wav
320,192,39728,1,0,0:0:0:70:kick.wav
64,192,39728,1,0,0:0:0:0:
448,192,39807,1,0,0:0:0:0:
192,192,39807,1,0,0:0:0:0:
64,192,39886,1,0,0:0:0:0:
320,192,39965,1,0,0:0:0:70:kick.wav
448,192,39965,1,0,0:0:0:50:hihat.wav
192,192,40044,1,0,0:0:0:70:kick.wav
320,192,40044,1,0,0:0:0:0:
64,192,40123,1,0,0:0:0:50:drum.wav
192,192,40123,1,0,0:0:0:0:
448,192,40202,1,0,0:0:0:0:
320,192,40281,1,0,0:0:0:50:hihat.wav
192,192,40360,1,0,0:0:0:0:
320,192,40439,1,0,0:0:0:70:kick.wav
64,192,40439,1,0,0:0:0:0:
448,192,40518,1,0,0:0:0:0:
64,192,40597,1,0,0:0:0:50:hihat.wav
192,192,40676,1,0,0:0:0:70:kick.wav
448,192,40676,1,0,0:0:0:0:
320,192,40755,1,0,0:0:0:50:drum.wav
64,192,40755,1,0,0:0:0:0:
448,192,40834,1,0,0:0:0:0:
192,192,40913,1,0,0:0:0:70:kick.wav
64,192,40913,1,0,0:0:0:50:hihat.wav
320,192,40991,1,0,0:0:0:0:
64,192,41070,1,0,0:0:0:50:drum.wav
448,192,41070,128,0,41386:0:0:0:0:
64,192,41386,1,0,0:0:0:70:kick.wav
192,192,41386,1,0,0:0:0:0:
320,192,41465,1,0,0:0:0:0:
64,192,41544,1,0,0:0:0:50:hihat.wav
192,192,41623,1,0,0:0:0:70:kick.wav
448,192,41623,1,0,0:0:0:0:
320,192,41702,1,0,0:0:0:50:drum.wav
64,192,41702,1,0,0:0:0:0:
448,192,41781,1,0,0:0:0:0:
192,192,41860,1,0,0:0:0:70:kick.wav
64,192,41860,1,0,0:0:0:50:hihat.wav
192,192,41939,1,0,0:0:0:70:kick.wav
320,192,41939,1,0,0:0:0:0:
320,192,42018,1,0,0:0:0:50:drum.wav
448,192,42018,1,0,0:0:0:0:
192,192,42097,1,0,0:0:0:0:
64,192,42176,1,0,0:0:0:50:hihat.wav
320,192,42255,1,0,0:0:0:0:
64,192,42334,1,0,0:0:0:70:kick.wav
192,192,42334,1,0,0:0:0:0:
320,192,42413,1,0,0:0:0:0:
448,192,42491,1,0,0:0:0:50:hihat.wav
64,192,42570,1,0,0:0:0:70:kick.wav
192,192,42570,1,0,0:0:0:0:
448,192,42649,1,0,0:0:0:50:drum.wav
320,192,42649,1,0,0:0:0:0:
64,192,42807,1,0,0:0:0:50:hihat.wav
448,192,42807,1,0,0:0:0:70:kick.wav
320,192,42860,1,0,0:0:0:0:
192,192,42913,1,0,0:0:0:0:
448,192,42965,1,0,0:0:0:50:drum.wav
64,192,42965,128,0,43281:0:0:0:0:
448,192,43281,1,0,0:0:0:70:kick.wav
192,192,43281,1,0,0:0:0:0:
320,192,43360,1,0,0:0:0:0:
64,192,43439,1,0,0:0:0:50:hihat.wav
192,192,43518,1,0,0:0:0:70:kick.wav
448,192,43518,1,0,0:0:0:0:
320,192,43597,1,0,0:0:0:0:
192,192,43676,1,0,0:0:0:0:
448,192,43755,128,0,44149:0:0:0:50:hihat.wav
64,192,43755,1,0,0:0:0:70:kick.wav
64,192,43913,5,0,0:0:0:0:
320,192,43913,128,0,44149:0:0:0:0:
192,192,43991,1,0,0:0:0:0:
64,192,44070,1,0,0:0:0:0:
192,192,44149,1,0,0:0:0:0:
320,192,44228,5,0,0:0:0:70:cymbal.wav
448,192,44228,1,0,0:0:0:70:kick.wav
64,192,44228,1,0,0:0:0:70:boom.wav
192,192,44307,1,0,0:0:0:0:
64,192,44386,1,0,0:0:0:50:hihat.wav
448,192,44386,1,0,0:0:0:0:
320,192,44465,1,0,0:0:0:0:
192,192,44544,1,0,0:0:0:70:snare.wav
64,192,44544,1,0,0:0:0:0:
448,192,44544,1,0,0:0:0:0:
192,192,44702,1,0,0:0:0:70:kick.wav
320,192,44702,1,0,0:0:0:50:hihat.wav
64,192,44860,1,0,0:0:0:70:snare.wav
448,192,44860,1,0,0:0:0:0:
320,192,44860,1,0,0:0:0:0:
448,192,45018,1,0,0:0:0:50:hihat.wav
64,192,45018,1,0,0:0:0:70:snare.wav
192,192,45070,1,0,0:0:0:70:snare.wav
320,192,45123,1,0,0:0:0:70:snare.wav
64,192,45176,1,0,0:0:0:70:kick.wav
448,192,45176,1,0,0:0:0:0:
320,192,45334,1,0,0:0:0:50:hihat.wav
192,192,45334,1,0,0:0:0:0:
448,192,45491,1,0,0:0:0:50:hihat.wav
64,192,45491,1,0,0:0:0:0:
320,192,45544,1,0,0:0:0:50:hihat.wav
192,192,45597,1,0,0:0:0:50:hihat.wav
64,192,45649,1,0,0:0:0:70:kick.wav
448,192,45702,1,0,0:0:0:50:hihat.wav
320,192,45755,1,0,0:0:0:50:hihat.wav
192,192,45807,1,0,0:0:0:50:hihat.wav
64,192,45807,1,0,0:0:0:0:
320,192,45886,1,0,0:0:0:0:
448,192,45965,1,0,0:0:0:50:hihat.wav
64,192,46044,1,0,0:0:0:0:
448,192,46123,1,0,0:0:0:70:kick.wav
192,192,46123,1,0,0:0:0:0:
320,192,46202,1,0,0:0:0:0:
192,192,46281,1,0,0:0:0:50:hihat.wav
64,192,46360,1,0,0:0:0:0:
320,192,46439,1,0,0:0:0:50:hihat.wav
448,192,46439,1,0,0:0:0:0:
192,192,46518,1,0,0:0:0:0:
64,192,46597,1,0,0:0:0:70:kick.wav
320,192,46597,1,0,0:0:0:70:snare.wav
448,192,46676,1,0,0:0:0:0:
192,192,46755,1,0,0:0:0:50:hihat.wav
64,192,46755,1,0,0:0:0:0:
320,192,46834,1,0,0:0:0:0:
64,192,46913,1,0,0:0:0:50:hihat.wav
192,192,46991,1,0,0:0:0:0:
448,192,47070,1,0,0:0:0:70:kick.wav
320,192,47070,1,0,0:0:0:0:
448,192,47228,1,0,0:0:0:50:drum.wav
64,192,47228,1,0,0:0:0:0:
320,192,47281,1,0,0:0:0:50:drum.wav
192,192,47334,1,0,0:0:0:50:drum.wav
64,192,47386,1,0,0:0:0:0:
448,192,47386,1,0,0:0:0:0:
192,192,47544,1,0,0:0:0:70:kick.wav
448,192,47544,1,0,0:0:0:50:drum.wav
64,192,47597,1,0,0:0:0:50:drum.wav
448,192,47649,1,0,0:0:0:50:drum.wav
320,192,47702,1,0,0:0:0:0:
64,192,47702,1,0,0:0:0:0:
64,192,47860,1,0,0:0:0:70:kick.wav
448,192,47860,1,0,0:0:0:50:drum.wav
192,192,47913,1,0,0:0:0:50:drum.wav
320,192,47965,1,0,0:0:0:50:drum.wav
448,192,48018,1,0,0:0:0:70:kick.wav
64,192,48018,1,0,0:0:0:0:
192,192,48176,1,0,0:0:0:50:hihat.wav
448,192,48176,1,0,0:0:0:0:
320,192,48334,1,0,0:0:0:70:snare.wav
64,192,48334,1,0,0:0:0:0:
64,192,48491,1,0,0:0:0:70:kick.wav
448,192,48491,1,0,0:0:0:50:hihat.wav
192,192,48649,1,0,0:0:0:70:snare.wav
320,192,48649,1,0,0:0:0:0:
64,192,48807,1,0,0:0:0:70:kick.wav
448,192,48807,1,0,0:0:0:50:hihat.wav
192,192,48860,1,0,0:0:0:70:snare.wav
320,192,48913,1,0,0:0:0:70:snare.wav
448,192,48965,1,0,0:0:0:70:kick.wav
64,192,48965,1,0,0:0:0:0:
320,192,49123,1,0,0:0:0:50:hihat.wav
192,192,49123,1,0,0:0:0:0:
448,192,49281,1,0,0:0:0:50:hihat.wav
64,192,49281,1,0,0:0:0:0:
320,192,49334,1,0,0:0:0:50:hihat.wav
192,192,49386,1,0,0:0:0:50:hihat.wav
64,192,49439,1,0,0:0:0:70:kick.wav
192,192,49491,1,0,0:0:0:50:hihat.wav
320,192,49544,1,0,0:0:0:50:hihat.wav
448,192,49597,1,0,0:0:0:50:hihat.wav
64,192,49597,1,0,0:0:0:0:
64,192,49755,1,0,0:0:0:50:hihat.wav
448,192,49755,1,0,0:0:0:0:
320,192,49834,1,0,0:0:0:0:
192,192,49913,1,0,0:0:0:70:kick.wav
64,192,49913,1,0,0:0:0:50:hihat.wav
64,192,50070,1,0,0:0:0:50:hihat.wav
448,192,50070,1,0,0:0:0:0:
192,192,50149,1,0,0:0:0:50:hihat.wav
448,192,50228,1,0,0:0:0:50:hihat.wav
320,192,50228,1,0,0:0:0:70:snare.wav
192,192,50307,1,0,0:0:0:0:
448,192,50386,1,0,0:0:0:70:kick.wav
64,192,50386,1,0,0:0:0:50:hihat.wav
320,192,50465,1,0,0:0:0:50:hihat.wav
192,192,50544,1,0,0:0:0:50:hihat.wav
64,192,50544,1,0,0:0:0:70:snare.wav
320,192,50623,1,0,0:0:0:0:
64,192,50702,1,0,0:0:0:50:hihat.wav
448,192,50702,1,0,0:0:0:0:
64,192,50781,1,0,0:0:0:50:hihat.wav
448,192,50860,1,0,0:0:0:70:kick.wav
192,192,50860,1,0,0:0:0:50:hihat.wav
320,192,50939,1,0,0:0:0:0:
64,192,51018,128,0,51070:0:0:0:50:hihat.wav
448,192,51018,1,0,0:0:0:0:
320,192,51070,1,0,0:0:0:50:hihat.wav
192,192,51123,1,0,0:0:0:50:hihat.wav
64,192,51176,1,0,0:0:0:50:hihat.wav
448,192,51176,128,0,51228:0:0:0:0:
192,192,51334,128,0,51386:0:0:0:70:kick.wav
448,192,51334,1,0,0:0:0:50:hihat.wav
320,192,51491,128,0,51544:0:0:0:50:hihat.wav
64,192,51491,1,0,0:0:0:50:drum.wav
448,192,51649,1,0,0:0:0:70:kick.wav
64,192,51649,1,0,0:0:0:50:drum.wav
320,192,51702,1,0,0:0:0:50:drum.wav
192,192,51755,1,0,0:0:0:50:drum.wav
64,192,51807,1,0,0:0:0:0:
192,192,52123,1,0,0:0:0:70:cymbal.wav
64,192,52123,1,0,0:0:0:70:snare.wav
448,192,52123,1,0,0:0:0:0:
192,192,52281,1,0,0:0:0:70:kick.wav
320,192,52281,1,0,0:0:0:50:hihat.wav
320,192,52439,1,0,0:0:0:70:snare.wav
448,192,52439,1,0,0:0:0:0:
64,192,52439,1,0,0:0:0:0:
64,192,52597,1,0,0:0:0:70:kick.wav
448,192,52597,1,0,0:0:0:70:snare.wav
320,192,52649,1,0,0:0:0:70:snare.wav
192,192,52702,1,0,0:0:0:70:snare.wav
64,192,52755,1,0,0:0:0:70:kick.wav
448,192,52755,1,0,0:0:0:0:
320,192,52913,1,0,0:0:0:50:hihat.wav
64,192,52913,1,0,0:0:0:0:
192,192,53070,1,0,0:0:0:50:hihat.wav
448,192,53070,1,0,0:0:0:0:
64,192,53123,1,0,0:0:0:50:hihat.wav
320,192,53176,1,0,0:0:0:50:hihat.wav
192,192,53228,1,0,0:0:0:70:kick.wav
448,192,53281,1,0,0:0:0:50:hihat.wav
320,192,53334,1,0,0:0:0:50:hihat.wav
192,192,53386,1,0,0:0:0:50:hihat.wav
64,192,53386,1,0,0:0:0:0:
64,192,53544,1,0,0:0:0:50:hihat.wav
448,192,53544,1,0,0:0:0:0:
192,192,53623,1,0,0:0:0:0:
320,192,53702,1,0,0:0:0:70:kick.wav
448,192,53702,1,0,0:0:0:0:
64,192,53781,1,0,0:0:0:0:
192,192,53860,1,0,0:0:0:50:hihat.wav
320,192,53939,1,0,0:0:0:0:
448,192,54018,1,0,0:0:0:50:hihat.wav
64,192,54018,1,0,0:0:0:0:
192,192,54097,1,0,0:0:0:0:
448,192,54176,1,0,0:0:0:70:kick.wav
320,192,54176,1,0,0:0:0:70:snare.wav
192,192,54255,1,0,0:0:0:0:
64,192,54334,1,0,0:0:0:50:hihat.wav
448,192,54334,1,0,0:0:0:0:
320,192,54413,1,0,0:0:0:0:
192,192,54491,1,0,0:0:0:50:hihat.wav
64,192,54491,1,0,0:0:0:0:
320,192,54570,1,0,0:0:0:0:
64,192,54649,1,0,0:0:0:70:kick.wav
448,192,54649,1,0,0:0:0:0:
64,192,54807,1,0,0:0:0:50:drum.wav
448,192,54807,1,0,0:0:0:0:
192,192,54860,1,0,0:0:0:50:drum.wav
320,192,54913,1,0,0:0:0:50:drum.wav
448,192,54965,1,0,0:0:0:0:
64,192,54965,1,0,0:0:0:0:
320,192,55123,1,0,0:0:0:70:kick.wav
64,192,55123,1,0,0:0:0:50:drum.wav
448,192,55176,1,0,0:0:0:50:drum.wav
64,192,55228,1,0,0:0:0:50:drum.wav
192,192,55281,1,0,0:0:0:0:
448,192,55281,1,0,0:0:0:0:
64,192,55439,1,0,0:0:0:70:kick.wav
448,192,55439,1,0,0:0:0:50:drum.wav
192,192,55491,1,0,0:0:0:50:drum.wav
320,192,55544,1,0,0:0:0:50:drum.wav
448,192,55597,1,0,0:0:0:70:kick.wav
64,192,55597,1,0,0:0:0:50:drum.wav
64,192,55676,1,0,0:0:0:50:drum.wav
448,192,55755,1,0,0:0:0:50:drum.wav
320,192,55794,1,0,0:0:0:50:drum.wav
192,192,55834,1,0,0:0:0:50:drum.wav
64,192,55873,1,0,0:0:0:50:drum.wav
448,192,55913,1,0,0:0:0:70:snare.wav
320,192,55913,1,0,0:0:0:50:drum.wav
448,192,55991,1,0,0:0:0:50:drum.wav
64,192,56070,1,0,0:0:0:70:kick.wav
192,192,56110,1,0,0:0:0:50:drum.wav
320,192,56149,1,0,0:0:0:50:drum.wav
448,192,56189,1,0,0:0:0:50:drum.wav
192,192,56228,1,0,0:0:0:70:snare.wav
64,192,56228,1,0,0:0:0:50:drum.wav
64,192,56307,1,0,0:0:0:50:drum.wav
448,192,56386,1,0,0:0:0:70:kick.wav
320,192,56426,1,0,0:0:0:50:drum.wav
192,192,56465,1,0,0:0:0:50:drum.wav
64,192,56505,1,0,0:0:0:50:drum.wav
320,192,56544,1,0,0:0:0:70:kick.wav
448,192,56544,1,0,0:0:0:0:
320,192,56702,1,0,0:0:0:50:hihat.wav
64,192,56702,1,0,0:0:0:0:
448,192,56860,1,0,0:0:0:50:hihat.wav
192,192,56860,1,0,0:0:0:0:
64,192,56913,1,0,0:0:0:50:hihat.wav
320,192,56965,1,0,0:0:0:50:hihat.wav
192,192,57018,1,0,0:0:0:70:kick.wav
448,192,57070,1,0,0:0:0:50:hihat.wav
320,192,57123,1,0,0:0:0:50:hihat.wav
192,192,57176,1,0,0:0:0:50:hihat.wav
64,192,57176,1,0,0:0:0:0:
448,192,57334,1,0,0:0:0:50:hihat.wav
64,192,57334,1,0,0:0:0:0:
320,192,57386,1,0,0:0:0:50:hihat.wav
192,192,57439,1,0,0:0:0:50:hihat.wav
64,192,57491,1,0,0:0:0:70:kick.wav
448,192,57491,1,0,0:0:0:50:hihat.wav
448,192,57570,1,0,0:0:0:50:drum.wav
64,192,57649,1,0,0:0:0:50:drum.wav
192,192,57689,1,0,0:0:0:50:drum.wav
320,192,57728,1,0,0:0:0:50:drum.wav
448,192,57768,1,0,0:0:0:50:drum.wav
192,192,57807,1,0,0:0:0:70:snare.wav
64,192,57807,1,0,0:0:0:50:drum.wav
64,192,57886,1,0,0:0:0:50:drum.wav
448,192,57965,1,0,0:0:0:70:kick.wav
320,192,58005,1,0,0:0:0:50:drum.wav
192,192,58044,1,0,0:0:0:50:drum.wav
64,192,58084,1,0,0:0:0:50:drum.wav
448,192,58123,1,0,0:0:0:70:snare.wav
320,192,58123,1,0,0:0:0:50:drum.wav
448,192,58202,1,0,0:0:0:50:drum.wav
64,192,58281,1,0,0:0:0:50:drum.wav
192,192,58320,1,0,0:0:0:50:drum.wav
320,192,58360,1,0,0:0:0:50:drum.wav
448,192,58399,1,0,0:0:0:50:drum.wav
64,192,58439,1,0,0:0:0:70:kick.wav
192,192,58439,1,0,0:0:0:0:
64,192,58518,1,0,0:0:0:0:
448,192,58597,1,0,0:0:0:50:drum.wav
448,192,58676,1,0,0:0:0:0:
192,192,58755,1,0,0:0:0:50:drum.wav
64,192,58755,1,0,0:0:0:0:
192,192,58834,128,0,58913:0:0:0:50:drum.wav
64,192,58834,128,0,58913:0:0:0:0:
320,192,58991,1,0,0:0:0:0:
448,192,58991,1,0,0:0:0:0:
320,192,59070,128,0,59149:0:0:0:50:drum.wav
448,192,59070,128,0,59149:0:0:0:0:
448,192,59228,1,0,0:0:0:70:kick.wav
64,192,59228,1,0,0:0:0:0:
64,192,59307,1,0,0:0:0:0:
448,192,59307,1,0,0:0:0:0:
448,192,59386,1,0,0:0:0:70:kick.wav
64,192,59386,128,0,60334:0:0:0:70:cymbal.wav
192,192,59386,128,0,60334:0:0:0:0:
448,192,60334,128,0,60649:0:0:0:0:
320,192,60649,128,0,60965:0:0:0:0:
192,192,60965,128,0,61281:0:0:0:0:
64,192,61281,128,0,61597:0:0:0:0:
192,192,61597,128,0,61913:0:0:0:0:
320,192,61913,128,0,62228:0:0:0:0:
64,192,62228,128,0,62702:0:0:0:0:
448,192,62228,128,0,62860:0:0:0:0:
192,192,62860,128,0,63018:0:0:0:0:
320,192,63018,128,0,63176:0:0:0:0:
448,192,63176,128,0,63649:0:0:0:0:
64,192,63176,128,0,63807:0:0:0:0:
320,192,63807,128,0,64123:0:0:0:0:
192,192,64123,128,0,64439:0:0:0:0:
64,192,64439,128,0,64755:0:0:0:0:
448,192,64755,128,0,66176:0:0:0:0:
320,192,65070,128,0,66176:0:0:0:0:
64,192,65860,128,0,66176:0:0:0:0:
192,192,66018,128,0,66176:0:0:0:0:
448,192,66334,1,0,0:0:0:50:drum.wav
320,192,66334,1,0,0:0:0:0:
448,192,66439,1,0,0:0:0:50:drum.wav
320,192,66439,1,0,0:0:0:0:
448,192,66544,1,0,0:0:0:50:drum.wav
320,192,66544,1,0,0:0:0:0:
320,192,66649,128,0,66728:0:0:0:50:drum.wav
448,192,66649,128,0,66728:0:0:0:0:
320,192,66807,128,0,66886:0:0:0:50:drum.wav
192,192,66807,128,0,66886:0:0:0:0:
192,192,66965,128,0,67439:0:0:0:50:drum.wav
64,192,66965,128,0,67439:0:0:0:50:hihat.wav
448,192,66965,1,0,0:0:0:0:
448,192,67281,1,0,0:0:0:50:hihat.wav
448,192,67439,128,0,67597:0:0:0:50:drum.wav
64,192,67597,128,0,68386:0:0:0:50:hihat.wav
192,192,67913,128,0,68386:0:0:0:50:drum.wav
448,192,67913,1,0,0:0:0:50:hihat.wav
448,192,68228,1,0,0:0:0:50:drum.wav
192,192,68544,128,0,68623:0:0:0:50:drum.wav
64,192,68544,128,0,68623:0:0:0:0:
448,192,68544,1,0,0:0:0:0:
192,192,68702,128,0,68781:0:0:0:50:drum.wav
320,192,68702,128,0,68781:0:0:0:0:
320,192,68860,128,0,69334:0:0:0:50:hihat.wav
448,192,68860,128,0,69334:0:0:0:0:
64,192,68860,1,0,0:0:0:0:
64,192,69176,1,0,0:0:0:50:hihat.wav
64,192,69334,128,0,69491:0:0:0:50:drum.wav
448,192,69491,128,0,70281:0:0:0:50:hihat.wav
320,192,69807,128,0,70281:0:0:0:50:drum.wav
64,192,69807,1,0,0:0:0:50:hihat.wav
64,192,70123,1,0,0:0:0:50:drum.wav
320,192,70439,128,0,70518:0:0:0:50:drum.wav
448,192,70439,128,0,70518:0:0:0:0:
64,192,70439,1,0,0:0:0:0:
320,192,70597,128,0,70676:0:0:0:0:
192,192,70597,128,0,70676:0:0:0:0:
192,192,70755,128,0,71228:0:0:0:50:drum.wav
64,192,70755,128,0,71228:0:0:0:50:hihat.wav
448,192,70755,1,0,0:0:0:0:
448,192,71070,1,0,0:0:0:50:hihat.wav
448,192,71386,128,0,71623:0:0:0:50:hihat.wav
64,192,71386,1,0,0:0:0:0:
320,192,71702,128,0,71939:0:0:0:50:hihat.wav
64,192,71702,1,0,0:0:0:50:drum.wav
192,192,72018,128,0,72255:0:0:0:50:drum.wav
448,192,72018,1,0,0:0:0:0:
64,192,72334,128,0,72570:0:0:0:50:drum.wav
320,192,72334,1,0,0:0:0:0:
192,192,72413,1,0,0:0:0:50:drum.wav
320,192,72491,1,0,0:0:0:50:drum.wav
192,192,72570,1,0,0:0:0:50:drum.wav
448,192,72649,128,0,74544:0:0:0:50:clock.wav
320,192,72649,128,0,74544:0:0:0:0:
64,192,72649,128,0,72728:0:0:0:0:
64,192,73597,128,0,73676:0:0:0:50:clock.wav
64,192,74544,5,0,0:0:0:50:drum.wav
192,192,74544,1,0,0:0:0:50:clock.wav
448,192,74623,1,0,0:0:0:50:drum.wav
320,192,74623,1,0,0:0:0:0:
192,192,74702,1,0,0:0:0:50:drum.wav
64,192,74702,1,0,0:0:0:0:
448,192,74781,1,0,0:0:0:50:drum.wav
320,192,74781,1,0,0:0:0:0:
192,192,74860,1,0,0:0:0:50:drum.wav
64,192,74860,1,0,0:0:0:0:
448,192,74939,1,0,0:0:0:50:drum.wav
320,192,74939,1,0,0:0:0:0:
192,192,75018,1,0,0:0:0:50:drum.wav
64,192,75018,1,0,0:0:0:0:
448,192,75097,1,0,0:0:0:50:drum.wav
320,192,75097,1,0,0:0:0:0:
192,192,75176,1,0,0:0:0:50:drum.wav
64,192,75176,1,0,0:0:0:0:
448,192,75255,1,0,0:0:0:50:drum.wav
320,192,75255,1,0,0:0:0:0:
192,192,75334,1,0,0:0:0:50:drum.wav
64,192,75334,1,0,0:0:0:0:
448,192,75413,1,0,0:0:0:50:drum.wav
320,192,75413,1,0,0:0:0:0:
192,192,75491,128,0,75570:0:0:0:0:
64,192,75491,128,0,75570:0:0:0:0:
64,192,75807,128,0,75886:0:0:0:0:
448,192,75807,128,0,76044:0:0:0:0:
192,192,75965,128,0,76044:0:0:0:0:
320,192,76123,128,0,76202:0:0:0:0:
64,192,76123,128,0,76360:0:0:0:0:
448,192,76281,128,0,76360:0:0:0:0:
64,192,76439,1,0,0:0:0:70:cymbal.wav
320,192,76439,1,0,0:0:0:70:kick.wav
448,192,76439,128,0,76991:0:0:0:70:boom.wav
192,192,76597,1,0,0:0:0:50:hihat.wav
64,192,76755,1,0,0:0:0:70:kick.wav
320,192,76755,1,0,0:0:0:0:
64,192,76913,1,0,0:0:0:50:hihat.wav
192,192,76991,1,0,0:0:0:50:hihat.wav
448,192,77070,1,0,0:0:0:70:kick.wav
320,192,77070,128,0,77149:0:0:0:0:
192,192,77228,128,0,77307:0:0:0:50:hihat.wav
320,192,77228,1,0,0:0:0:0:
192,192,77386,1,0,0:0:0:70:kick.wav
64,192,77386,128,0,77860:0:0:0:0:
448,192,77386,1,0,0:0:0:0:
192,192,77544,1,0,0:0:0:50:hihat.wav
448,192,77702,128,0,78176:0:0:0:70:kick.wav
320,192,77702,1,0,0:0:0:0:
192,192,77860,1,0,0:0:0:50:hihat.wav
64,192,78018,128,0,78176:0:0:0:70:kick.wav
320,192,78018,1,0,0:0:0:0:
192,192,78176,1,0,0:0:0:50:hihat.wav
320,192,78255,1,0,0:0:0:50:hihat.wav
448,192,78334,1,0,0:0:0:70:kick.wav
64,192,78334,128,0,78807:0:0:0:0:
448,192,78491,1,0,0:0:0:50:hihat.wav
192,192,78649,1,0,0:0:0:70:kick.wav
320,192,78649,128,0,78728:0:0:0:0:
320,192,78807,1,0,0:0:0:50:hihat.wav
192,192,78886,1,0,0:0:0:50:hihat.wav
64,192,78965,1,0,0:0:0:70:kick.wav
448,192,78965,128,0,79044:0:0:0:0:
192,192,79123,1,0,0:0:0:50:hihat.wav
448,192,79123,1,0,0:0:0:0:
320,192,79202,1,0,0:0:0:50:hihat.wav
64,192,79281,1,0,0:0:0:70:kick.wav
192,192,79281,128,0,79360:0:0:0:0:
192,192,79439,1,0,0:0:0:50:hihat.wav
320,192,79518,1,0,0:0:0:0:
64,192,79597,128,0,79676:0:0:0:70:kick.wav
448,192,79597,128,0,79834:0:0:0:0:
192,192,79755,128,0,79834:0:0:0:50:hihat.wav
320,192,79913,128,0,79991:0:0:0:70:kick.wav
64,192,79913,128,0,80149:0:0:0:0:
448,192,80070,128,0,80149:0:0:0:50:hihat.wav
448,192,80228,1,0,0:0:0:70:kick.wav
192,192,80228,1,0,0:0:0:0:
64,192,80228,128,0,80781:0:0:0:0:
320,192,80386,1,0,0:0:0:50:hihat.wav
448,192,80544,1,0,0:0:0:70:kick.wav
192,192,80544,1,0,0:0:0:0:
448,192,80702,1,0,0:0:0:50:hihat.wav
320,192,80781,1,0,0:0:0:50:hihat.wav
64,192,80860,1,0,0:0:0:70:kick.wav
192,192,80860,128,0,80939:0:0:0:0:
320,192,81018,128,0,81097:0:0:0:50:hihat.wav
192,192,81018,1,0,0:0:0:0:
320,192,81176,1,0,0:0:0:70:kick.wav
448,192,81176,128,0,81649:0:0:0:0:
64,192,81176,1,0,0:0:0:0:
320,192,81334,1,0,0:0:0:50:hihat.wav
64,192,81491,128,0,81965:0:0:0:70:kick.wav
192,192,81491,1,0,0:0:0:0:
320,192,81649,1,0,0:0:0:50:hihat.wav
448,192,81807,128,0,81965:0:0:0:70:kick.wav
192,192,81807,1,0,0:0:0:0:
320,192,81965,1,0,0:0:0:50:hihat.wav
192,192,82044,1,0,0:0:0:50:hihat.wav
64,192,82123,1,0,0:0:0:70:kick.wav
448,192,82123,128,0,82597:0:0:0:0:
64,192,82281,1,0,0:0:0:50:hihat.wav
320,192,82439,1,0,0:0:0:70:kick.wav
192,192,82439,128,0,82518:0:0:0:0:
192,192,82597,1,0,0:0:0:50:hihat.wav
320,192,82676,1,0,0:0:0:50:hihat.wav
448,192,82755,1,0,0:0:0:70:kick.wav
64,192,82755,128,0,82834:0:0:0:0:
320,192,82913,1,0,0:0:0:50:hihat.wav
64,192,82913,1,0,0:0:0:0:
192,192,82991,1,0,0:0:0:0:
448,192,83070,1,0,0:0:0:70:kick.wav
320,192,83070,128,0,83149:0:0:0:0:
320,192,83228,1,0,0:0:0:50:hihat.wav
192,192,83307,1,0,0:0:0:0:
448,192,83386,128,0,83465:0:0:0:70:kick.wav
64,192,83386,1,0,0:0:0:0:
448,192,83544,1,0,0:0:0:50:hihat.wav
64,192,83544,1,0,0:0:0:0:
320,192,83623,1,0,0:0:0:0:
64,192,83702,128,0,83939:0:0:0:70:kick.wav
192,192,83702,1,0,0:0:0:0:
320,192,83860,1,0,0:0:0:50:hihat.wav
192,192,83939,1,0,0:0:0:50:hihat.wav
64,192,84018,1,0,0:0:0:70:kick.wav
448,192,84018,128,0,84413:0:0:0:0:
64,192,84176,1,0,0:0:0:50:hihat.wav
192,192,84334,1,0,0:0:0:70:kick.wav
320,192,84334,1,0,0:0:0:0:
448,192,84491,128,0,84570:0:0:0:50:hihat.wav
64,192,84491,1,0,0:0:0:0:
192,192,84570,1,0,0:0:0:50:hihat.wav
320,192,84649,128,0,84728:0:0:0:70:kick.wav
448,192,84649,1,0,0:0:0:0:
192,192,84807,128,0,84886:0:0:0:50:hihat.wav
320,192,84807,1,0,0:0:0:0:
64,192,84965,128,0,85202:0:0:0:70:kick.wav
192,192,84965,1,0,0:0:0:0:
448,192,85123,1,0,0:0:0:50:hihat.wav
192,192,85281,128,0,85518:0:0:0:70:kick.wav
64,192,85281,1,0,0:0:0:0:
448,192,85439,1,0,0:0:0:50:hihat.wav
320,192,85597,128,0,85834:0:0:0:70:kick.wav
64,192,85597,1,0,0:0:0:0:
192,192,85755,1,0,0:0:0:50:hihat.wav
448,192,85913,128,0,86386:0:0:0:70:kick.wav
64,192,85913,1,0,0:0:0:0:
64,192,86070,1,0,0:0:0:50:hihat.wav
64,192,86228,128,0,86307:0:0:0:70:kick.wav
320,192,86228,1,0,0:0:0:0:
64,192,86386,1,0,0:0:0:50:hihat.wav
192,192,86465,1,0,0:0:0:50:hihat.wav
320,192,86544,128,0,86623:0:0:0:70:kick.wav
448,192,86544,1,0,0:0:0:0:
64,192,86702,1,0,0:0:0:50:hihat.wav
192,192,86702,1,0,0:0:0:0:
320,192,86781,1,0,0:0:0:0:
192,192,86860,128,0,86939:0:0:0:70:kick.wav
448,192,86860,1,0,0:0:0:0:
64,192,87018,1,0,0:0:0:50:hihat.wav
192,192,87097,1,0,0:0:0:0:
448,192,87176,128,0,87255:0:0:0:70:kick.wav
320,192,87176,1,0,0:0:0:0:
64,192,87255,1,0,0:0:0:0:
192,192,87334,1,0,0:0:0:50:hihat.wav
320,192,87413,1,0,0:0:0:0:
64,192,87491,1,0,0:0:0:70:kick.wav
448,192,87491,128,0,87570:0:0:0:0:
320,192,87649,128,0,87728:0:0:0:50:hihat.wav
64,192,87649,1,0,0:0:0:0:
192,192,87807,128,0,88281:0:0:0:70:kick.wav
64,192,87807,1,0,0:0:0:0:
448,192,87807,1,0,0:0:0:0:
320,192,87965,1,0,0:0:0:50:hihat.wav
448,192,88123,1,0,0:0:0:70:kick.wav
64,192,88123,1,0,0:0:0:0:
64,192,88281,1,0,0:0:0:50:hihat.wav
192,192,88360,1,0,0:0:0:50:hihat.wav
320,192,88439,128,0,88518:0:0:0:70:kick.wav
448,192,88439,1,0,0:0:0:0:
192,192,88597,128,0,88676:0:0:0:50:hihat.wav
320,192,88597,1,0,0:0:0:0:
64,192,88755,128,0,89228:0:0:0:70:kick.wav
192,192,88755,1,0,0:0:0:0:
448,192,88755,1,0,0:0:0:0:
320,192,88913,1,0,0:0:0:50:hihat.wav
448,192,89070,128,0,89386:0:0:0:70:kick.wav
192,192,89070,1,0,0:0:0:0:
320,192,89228,1,0,0:0:0:50:hihat.wav
192,192,89386,1,0,0:0:0:70:kick.wav
64,192,89386,1,0,0:0:0:50:drum.wav
320,192,89465,1,0,0:0:0:50:drum.wav
448,192,89465,1,0,0:0:0:0:
192,192,89544,1,0,0:0:0:50:hihat.wav
64,192,89544,1,0,0:0:0:50:drum.wav
320,192,89623,1,0,0:0:0:50:hihat.wav
448,192,89623,1,0,0:0:0:50:drum.wav
192,192,89702,1,0,0:0:0:70:kick.wav
448,192,89702,1,0,0:0:0:70:cymbal.wav
64,192,89702,1,0,0:0:0:50:drum.wav
320,192,89781,1,0,0:0:0:50:drum.wav
192,192,89860,1,0,0:0:0:50:drum.wav
320,192,89939,1,0,0:0:0:50:drum.wav
192,192,90018,1,0,0:0:0:50:drum.wav
320,192,90097,1,0,0:0:0:50:drum.wav
192,192,90176,1,0,0:0:0:70:kick.wav
448,192,90176,1,0,0:0:0:70:cymbal.wav
64,192,90176,1,0,0:0:0:50:drum.wav
320,192,90255,1,0,0:0:0:50:drum.wav
192,192,90334,1,0,0:0:0:50:drum.wav
320,192,90413,1,0,0:0:0:50:drum.wav
192,192,90491,1,0,0:0:0:50:drum.wav
320,192,90570,1,0,0:0:0:50:drum.wav
192,192,90649,1,0,0:0:0:70:kick.wav
64,192,90649,1,0,0:0:0:70:cymbal.wav
320,192,90728,1,0,0:0:0:50:drum.wav
448,192,90728,1,0,0:0:0:0:
192,192,90807,1,0,0:0:0:50:drum.wav
64,192,90807,1,0,0:0:0:0:
320,192,90886,1,0,0:0:0:50:drum.wav
448,192,90886,1,0,0:0:0:0:
192,192,90965,1,0,0:0:0:50:drum.wav
64,192,90965,1,0,0:0:0:0:
320,192,91044,1,0,0:0:0:50:drum.wav
448,192,91044,1,0,0:0:0:0:
192,192,91123,1,0,0:0:0:50:drum.wav
64,192,91123,1,0,0:0:0:70:kick.wav
320,192,91202,1,0,0:0:0:50:drum.wav
448,192,91202,1,0,0:0:0:0:
192,192,91281,1,0,0:0:0:50:drum.wav
64,192,91281,1,0,0:0:0:0:
320,192,91360,1,0,0:0:0:50:drum.wav
448,192,91360,1,0,0:0:0:0:
192,192,91439,1,0,0:0:0:50:drum.wav
64,192,91439,1,0,0:0:0:0:
320,192,91518,1,0,0:0:0:50:drum.wav
448,192,91518,1,0,0:0:0:0:
192,192,91597,1,0,0:0:0:70:cymbal.wav
64,192,91597,1,0,0:0:0:50:clock.wav
448,192,91597,1,0,0:0:0:70:kick.wav
320,192,91676,1,0,0:0:0:0:
64,192,91755,1,0,0:0:0:50:hihat.wav
192,192,91834,1,0,0:0:0:70:kick.wav
448,192,91834,1,0,0:0:0:0:
320,192,91913,1,0,0:0:0:50:drum.wav
64,192,91913,1,0,0:0:0:0:
448,192,91991,1,0,0:0:0:0:
192,192,92070,1,0,0:0:0:70:kick.wav
320,192,92070,1,0,0:0:0:50:hihat.wav
64,192,92149,1,0,0:0:0:0:
192,192,92228,1,0,0:0:0:50:drum.wav
448,192,92228,1,0,0:0:0:0:
320,192,92307,1,0,0:0:0:0:
64,192,92386,1,0,0:0:0:50:hihat.wav
448,192,92386,1,0,0:0:0:0:
192,192,92465,1,0,0:0:0:0:
320,192,92544,1,0,0:0:0:50:clock.wav
448,192,92544,1,0,0:0:0:70:kick.wav
64,192,92623,1,0,0:0:0:0:
448,192,92702,1,0,0:0:0:50:hihat.wav
320,192,92781,1,0,0:0:0:70:kick.wav
64,192,92781,1,0,0:0:0:0:
192,192,92860,1,0,0:0:0:50:drum.wav
448,192,92860,1,0,0:0:0:0:
64,192,92939,1,0,0:0:0:0:
320,192,93018,1,0,0:0:0:50:hihat.wav
448,192,93018,1,0,0:0:0:70:kick.wav
448,192,93097,1,0,0:0:0:70:kick.wav
320,192,93097,1,0,0:0:0:0:
192,192,93176,1,0,0:0:0:50:drum.wav
64,192,93176,1,0,0:0:0:0:
448,192,93255,1,0,0:0:0:0:
320,192,93334,1,0,0:0:0:50:hihat.wav
192,192,93413,1,0,0:0:0:0:
64,192,93491,1,0,0:0:0:50:clock.wav
448,192,93491,1,0,0:0:0:70:kick.wav
320,192,93570,1,0,0:0:0:0:
64,192,93649,1,0,0:0:0:50:hihat.wav
192,192,93728,1,0,0:0:0:70:kick.wav
448,192,93728,1,0,0:0:0:0:
320,192,93807,1,0,0:0:0:50:drum.wav
64,192,93807,1,0,0:0:0:0:
448,192,93886,1,0,0:0:0:0:
64,192,93965,1,0,0:0:0:50:hihat.wav
192,192,93965,1,0,0:0:0:70:kick.wav
320,192,94044,1,0,0:0:0:0:
192,192,94123,1,0,0:0:0:50:drum.wav
448,192,94123,1,0,0:0:0:0:
64,192,94202,1,0,0:0:0:0:
320,192,94281,1,0,0:0:0:50:hihat.wav
448,192,94360,1,0,0:0:0:0:
192,192,94439,1,0,0:0:0:50:clock.wav
64,192,94439,1,0,0:0:0:70:kick.wav
320,192,94518,1,0,0:0:0:0:
64,192,94597,1,0,0:0:0:50:hihat.wav
192,192,94676,1,0,0:0:0:70:kick.wav
448,192,94676,1,0,0:0:0:0:
320,192,94755,1,0,0:0:0:50:drum.wav
64,192,94755,1,0,0:0:0:0:
448,192,94834,1,0,0:0:0:0:
192,192,94913,1,0,0:0:0:70:kick.wav
64,192,94913,1,0,0:0:0:50:hihat.wav
64,192,94991,1,0,0:0:0:70:kick.wav
192,192,94991,1,0,0:0:0:0:
320,192,95070,1,0,0:0:0:50:drum.wav
448,192,95070,1,0,0:0:0:0:
64,192,95149,1,0,0:0:0:0:
192,192,95228,1,0,0:0:0:50:hihat.wav
320,192,95307,1,0,0:0:0:0:
448,192,95386,1,0,0:0:0:50:clock.wav
192,192,95386,1,0,0:0:0:70:kick.wav
64,192,95465,1,0,0:0:0:0:
320,192,95544,1,0,0:0:0:50:hihat.wav
192,192,95623,1,0,0:0:0:70:kick.wav
64,192,95623,1,0,0:0:0:0:
320,192,95702,1,0,0:0:0:50:drum.wav
448,192,95702,1,0,0:0:0:0:
192,192,95781,1,0,0:0:0:0:
448,192,95860,1,0,0:0:0:70:kick.wav
64,192,95860,1,0,0:0:0:50:hihat.wav
320,192,95939,1,0,0:0:0:0:
192,192,96018,1,0,0:0:0:50:drum.wav
64,192,96018,1,0,0:0:0:0:
320,192,96097,1,0,0:0:0:0:
448,192,96176,1,0,0:0:0:50:hihat.wav
64,192,96176,1,0,0:0:0:0:
192,192,96255,1,0,0:0:0:0:
320,192,96334,1,0,0:0:0:50:clock.wav
448,192,96334,1,0,0:0:0:70:kick.wav
64,192,96413,1,0,0:0:0:0:
448,192,96491,1,0,0:0:0:50:hihat.wav
320,192,96570,1,0,0:0:0:70:kick.wav
64,192,96570,1,0,0:0:0:0:
192,192,96649,1,0,0:0:0:50:drum.wav
448,192,96649,1,0,0:0:0:0:
64,192,96728,1,0,0:0:0:0:
320,192,96807,1,0,0:0:0:50:hihat.wav
448,192,96807,1,0,0:0:0:70:kick.wav
448,192,96886,1,0,0:0:0:70:kick.wav
320,192,96886,1,0,0:0:0:0:
192,192,96965,1,0,0:0:0:50:drum.wav
64,192,96965,1,0,0:0:0:0:
448,192,97044,1,0,0:0:0:0:
320,192,97123,1,0,0:0:0:50:hihat.wav
192,192,97202,1,0,0:0:0:0:
64,192,97281,1,0,0:0:0:50:clock.wav
448,192,97281,1,0,0:0:0:70:kick.wav
320,192,97360,1,0,0:0:0:0:
64,192,97439,1,0,0:0:0:50:hihat.wav
192,192,97518,1,0,0:0:0:70:kick.wav
448,192,97518,1,0,0:0:0:0:
320,192,97597,1,0,0:0:0:50:drum.wav
64,192,97597,1,0,0:0:0:0:
448,192,97676,1,0,0:0:0:0:
64,192,97755,1,0,0:0:0:50:hihat.wav
192,192,97755,1,0,0:0:0:70:kick.wav
320,192,97834,1,0,0:0:0:0:
64,192,97913,1,0,0:0:0:50:drum.wav
448,192,97913,1,0,0:0:0:0:
192,192,97991,1,0,0:0:0:0:
320,192,98070,1,0,0:0:0:50:hihat.wav
448,192,98070,1,0,0:0:0:0:
192,192,98149,1,0,0:0:0:0:
64,192,98228,1,0,0:0:0:50:clock.wav
448,192,98228,1,0,0:0:0:70:kick.wav
320,192,98307,1,0,0:0:0:0:
64,192,98386,1,0,0:0:0:50:hihat.wav
192,192,98465,1,0,0:0:0:70:kick.wav
448,192,98465,1,0,0:0:0:0:
320,192,98544,1,0,0:0:0:50:drum.wav
64,192,98544,1,0,0:0:0:0:
448,192,98623,1,0,0:0:0:0:
192,192,98702,1,0,0:0:0:70:kick.wav
64,192,98702,1,0,0:0:0:50:hihat.wav
64,192,98781,1,0,0:0:0:70:kick.wav
192,192,98781,1,0,0:0:0:0:
320,192,98860,1,0,0:0:0:50:drum.wav
448,192,98860,1,0,0:0:0:0:
64,192,98939,1,0,0:0:0:0:
320,192,99018,1,0,0:0:0:50:hihat.wav
192,192,99097,1,0,0:0:0:0:
448,192,99176,1,0,0:0:0:50:clock.wav
64,192,99176,1,0,0:0:0:70:kick.wav
320,192,99255,1,0,0:0:0:0:
64,192,99334,1,0,0:0:0:50:hihat.wav
192,192,99413,1,0,0:0:0:70:kick.wav
448,192,99413,1,0,0:0:0:0:
320,192,99491,1,0,0:0:0:50:drum.wav
64,192,99491,1,0,0:0:0:0:
448,192,99570,1,0,0:0:0:0:
192,192,99649,1,0,0:0:0:70:kick.wav
64,192,99649,1,0,0:0:0:50:hihat.wav
320,192,99728,1,0,0:0:0:0:
448,192,99807,1,0,0:0:0:50:drum.wav
64,192,99807,1,0,0:0:0:0:
192,192,99886,1,0,0:0:0:0:
320,192,99965,1,0,0:0:0:50:hihat.wav
448,192,99965,1,0,0:0:0:0:
192,192,100044,1,0,0:0:0:0:
448,192,100123,1,0,0:0:0:50:clock.wav
64,192,100123,1,0,0:0:0:70:kick.wav
320,192,100202,1,0,0:0:0:0:
448,192,100281,1,0,0:0:0:50:hihat.wav
320,192,100360,1,0,0:0:0:70:kick.wav
64,192,100360,1,0,0:0:0:0:
192,192,100439,1,0,0:0:0:50:drum.wav
448,192,100439,1,0,0:0:0:0:
64,192,100518,1,0,0:0:0:0:
320,192,100597,1,0,0:0:0:50:hihat.wav
448,192,100597,1,0,0:0:0:70:kick.wav
448,192,100676,1,0,0:0:0:70:kick.wav
320,192,100676,1,0,0:0:0:0:
192,192,100755,1,0,0:0:0:50:drum.wav
64,192,100755,1,0,0:0:0:0:
448,192,100834,1,0,0:0:0:0:
320,192,100913,1,0,0:0:0:50:hihat.wav
192,192,100991,1,0,0:0:0:0:
64,192,101070,1,0,0:0:0:50:clock.wav
320,192,101070,1,0,0:0:0:70:kick.wav
448,192,101149,1,0,0:0:0:0:
64,192,101228,1,0,0:0:0:50:hihat.wav
192,192,101307,1,0,0:0:0:70:kick.wav
448,192,101307,1,0,0:0:0:0:
320,192,101386,1,0,0:0:0:50:drum.wav
64,192,101386,1,0,0:0:0:0:
448,192,101465,1,0,0:0:0:0:
192,192,101544,1,0,0:0:0:50:hihat.wav
64,192,101544,1,0,0:0:0:70:kick.wav
320,192,101623,1,0,0:0:0:0:
192,192,101702,1,0,0:0:0:50:drum.wav
448,192,101702,1,0,0:0:0:0:
64,192,101781,5,0,0:0:0:0:
448,192,101860,1,0,0:0:0:50:hihat.wav
320,192,101939,1,0,0:0:0:0:
192,192,102018,1,0,0:0:0:50:clock.wav
64,192,102018,1,0,0:0:0:70:kick.wav
320,192,102097,1,0,0:0:0:0:
64,192,102176,1,0,0:0:0:50:hihat.wav
448,192,102176,1,0,0:0:0:0:
192,192,102255,1,0,0:0:0:70:kick.wav
320,192,102255,1,0,0:0:0:0:
64,192,102334,5,0,0:0:0:50:drum.wav
448,192,102334,1,0,0:0:0:0:
320,192,102413,5,0,0:0:0:50:drum.wav
192,192,102413,1,0,0:0:0:0:
64,192,102491,5,0,0:0:0:70:kick.wav
448,192,102491,1,0,0:0:0:50:hihat.wav
192,192,102570,5,0,0:0:0:70:kick.wav
320,192,102570,1,0,0:0:0:50:drum.wav
64,192,102649,5,0,0:0:0:50:drum.wav
448,192,102649,1,0,0:0:0:0:
192,192,102728,5,0,0:0:0:50:drum.wav
320,192,102728,1,0,0:0:0:0:
64,192,102807,5,0,0:0:0:50:hihat.wav
448,192,102807,1,0,0:0:0:50:drum.wav
192,192,102886,5,0,0:0:0:50:drum.wav
320,192,102886,1,0,0:0:0:0:
64,192,102965,5,0,0:0:0:50:clock.wav
448,192,102965,1,0,0:0:0:70:kick.wav
320,192,103018,5,0,0:0:0:0:
192,192,103070,1,0,0:0:0:0:
64,192,103123,1,0,0:0:0:0:
448,192,103176,1,0,0:0:0:0:
320,192,103228,1,0,0:0:0:0:
192,192,103281,1,0,0:0:0:50:drum.wav
64,192,103281,1,0,0:0:0:0:
320,192,103334,1,0,0:0:0:0:
448,192,103386,1,0,0:0:0:50:drum.wav
64,192,103386,1,0,0:0:0:0:
192,192,103439,1,0,0:0:0:0:
320,192,103491,1,0,0:0:0:50:drum.wav
448,192,103491,1,0,0:0:0:0:
192,192,103544,1,0,0:0:0:0:
64,192,103597,1,0,0:0:0:50:drum.wav
448,192,103597,1,0,0:0:0:70:kick.wav
320,192,103649,1,0,0:0:0:0:
192,192,103702,1,0,0:0:0:0:
64,192,103755,1,0,0:0:0:50:drum.wav
320,192,103755,1,0,0:0:0:0:
448,192,103807,1,0,0:0:0:0:
192,192,103860,1,0,0:0:0:0:
320,192,103913,1,0,0:0:0:50:clock.wav
448,192,103913,1,0,0:0:0:50:drum.wav
64,192,103965,1,0,0:0:0:0:
192,192,104018,1,0,0:0:0:0:
448,192,104070,1,0,0:0:0:0:
320,192,104123,1,0,0:0:0:0:
192,192,104176,1,0,0:0:0:0:
64,192,104228,1,0,0:0:0:50:drum.wav
448,192,104228,1,0,0:0:0:0:
320,192,104281,1,0,0:0:0:0:
192,192,104334,1,0,0:0:0:0:
64,192,104386,1,0,0:0:0:50:drum.wav
320,192,104386,1,0,0:0:0:0:
448,192,104439,1,0,0:0:0:0:
64,192,104491,1,0,0:0:0:0:
192,192,104544,1,0,0:0:0:50:drum.wav
320,192,104544,1,0,0:0:0:70:kick.wav
448,192,104597,1,0,0:0:0:0:
64,192,104649,1,0,0:0:0:0:
192,192,104702,1,0,0:0:0:0:
448,192,104702,1,0,0:0:0:0:
320,192,104755,1,0,0:0:0:0:
192,192,104807,1,0,0:0:0:0:
448,192,104860,1,0,0:0:0:50:clock.wav
64,192,104860,1,0,0:0:0:70:cymbal.wav
320,192,104939,1,0,0:0:0:0:
192,192,105018,1,0,0:0:0:0:
64,192,105018,1,0,0:0:0:0:
320,192,105097,1,0,0:0:0:0:
64,192,105176,1,0,0:0:0:50:drum.wav
448,192,105176,1,0,0:0:0:0:
320,192,105281,1,0,0:0:0:50:drum.wav
64,192,105281,1,0,0:0:0:0:
192,192,105386,1,0,0:0:0:50:drum.wav
448,192,105386,1,0,0:0:0:0:
448,192,105491,1,0,0:0:0:50:drum.wav
64,192,105491,1,0,0:0:0:70:kick.wav
192,192,105570,1,0,0:0:0:0:
448,192,105649,1,0,0:0:0:50:drum.wav
320,192,105649,1,0,0:0:0:0:
192,192,105728,1,0,0:0:0:0:
64,192,105807,1,0,0:0:0:50:clock.wav
448,192,105807,1,0,0:0:0:50:drum.wav
320,192,105886,1,0,0:0:0:50:drum.wav
192,192,105886,1,0,0:0:0:0:
448,192,105965,1,0,0:0:0:50:drum.wav
64,192,105965,1,0,0:0:0:0:
320,192,106044,1,0,0:0:0:50:drum.wav
192,192,106044,1,0,0:0:0:0:
448,192,106123,1,0,0:0:0:50:drum.wav
64,192,106123,1,0,0:0:0:70:kick.wav
320,192,106202,1,0,0:0:0:50:drum.wav
192,192,106281,1,0,0:0:0:50:drum.wav
64,192,106281,1,0,0:0:0:70:kick.wav
448,192,106360,1,0,0:0:0:50:drum.wav
320,192,106360,1,0,0:0:0:70:kick.wav
192,192,106439,1,0,0:0:0:50:drum.wav
64,192,106439,1,0,0:0:0:70:kick.wav
320,192,106518,1,0,0:0:0:50:drum.wav
192,192,106597,1,0,0:0:0:50:drum.wav
64,192,106597,1,0,0:0:0:70:kick.wav
320,192,106676,1,0,0:0:0:50:drum.wav
448,192,106676,1,0,0:0:0:70:kick.wav
64,192,106755,1,0,0:0:0:50:drum.wav
192,192,106755,1,0,0:0:0:70:kick.wav
448,192,106755,128,0,106834:0:0:0:70:cymbal.wav
320,192,106834,128,0,106913:0:0:0:0:
192,192,106913,128,0,106991:0:0:0:50:hihat.wav
64,192,106913,1,0,0:0:0:0:
320,192,106991,128,0,107070:0:0:0:0:
448,192,107070,128,0,107149:0:0:0:70:kick.wav
64,192,107070,1,0,0:0:0:50:drum.wav
320,192,107149,128,0,107228:0:0:0:0:
64,192,107228,1,0,0:0:0:50:hihat.wav
448,192,107228,128,0,107307:0:0:0:0:
192,192,107307,1,0,0:0:0:50:hihat.wav
320,192,107307,128,0,107386:0:0:0:0:
64,192,107386,1,0,0:0:0:70:kick.wav
448,192,107386,128,0,107465:0:0:0:50:drum.wav
192,192,107465,128,0,107544:0:0:0:0:
320,192,107544,128,0,107623:0:0:0:50:hihat.wav
448,192,107544,1,0,0:0:0:0:
64,192,107623,128,0,107702:0:0:0:0:
192,192,107702,128,0,107781:0:0:0:70:kick.wav
448,192,107702,1,0,0:0:0:0:
320,192,107781,128,0,107860:0:0:0:0:
448,192,107860,128,0,107939:0:0:0:50:hihat.wav
64,192,107860,1,0,0:0:0:0:
320,192,107939,128,0,108018:0:0:0:0:
192,192,108018,128,0,108097:0:0:0:50:drum.wav
448,192,108018,1,0,0:0:0:70:kick.wav
64,192,108097,128,0,108176:0:0:0:0:
320,192,108176,128,0,108255:0:0:0:50:hihat.wav
448,192,108176,1,0,0:0:0:0:
192,192,108255,128,0,108334:0:0:0:0:
448,192,108334,128,0,108413:0:0:0:50:drum.wav
64,192,108334,1,0,0:0:0:70:kick.wav
320,192,108413,128,0,108491:0:0:0:0:
192,192,108491,128,0,108570:0:0:0:50:hihat.wav
64,192,108491,1,0,0:0:0:0:
320,192,108570,128,0,108649:0:0:0:0:
448,192,108649,128,0,108728:0:0:0:70:kick.wav
64,192,108649,128,0,108728:0:0:0:0:
192,192,108728,128,0,108807:0:0:0:0:
320,192,108807,128,0,108886:0:0:0:50:hihat.wav
448,192,108886,128,0,108965:0:0:0:0:
64,192,108965,128,0,109044:0:0:0:70:kick.wav
192,192,108965,128,0,109044:0:0:0:50:drum.wav
320,192,109044,128,0,109123:0:0:0:0:
64,192,109123,128,0,109202:0:0:0:50:hihat.wav
192,192,109202,128,0,109281:0:0:0:0:
448,192,109281,128,0,109360:0:0:0:50:drum.wav
320,192,109281,128,0,109360:0:0:0:70:kick.wav
192,192,109360,128,0,109439:0:0:0:0:
64,192,109439,128,0,109518:0:0:0:50:hihat.wav
448,192,109518,128,0,109597:0:0:0:0:
64,192,109597,128,0,109676:0:0:0:70:kick.wav
320,192,109597,128,0,109676:0:0:0:0:
192,192,109676,128,0,109755:0:0:0:0:
320,192,109755,128,0,109834:0:0:0:50:hihat.wav
448,192,109834,128,0,109913:0:0:0:0:
64,192,109913,128,0,109991:0:0:0:70:kick.wav
192,192,109913,128,0,109991:0:0:0:0:
320,192,109991,128,0,110070:0:0:0:0:
64,192,110070,128,0,110149:0:0:0:50:hihat.wav
192,192,110149,128,0,110228:0:0:0:0:
448,192,110228,128,0,110307:0:0:0:50:drum.wav
320,192,110228,128,0,110307:0:0:0:70:kick.wav
192,192,110307,128,0,110386:0:0:0:0:
64,192,110386,128,0,110465:0:0:0:50:hihat.wav
448,192,110544,1,0,0:0:0:70:cymbal.wav
320,192,110544,1,0,0:0:0:70:kick.wav
64,192,110544,128,0,110623:0:0:0:0:
192,192,110623,128,0,110702:0:0:0:0:
320,192,110702,128,0,110781:0:0:0:50:hihat.wav
448,192,110702,1,0,0:0:0:0:
192,192,110781,128,0,110860:0:0:0:0:
64,192,110860,128,0,110939:0:0:0:50:drum.wav
448,192,110860,1,0,0:0:0:70:kick.wav
192,192,110939,128,0,111018:0:0:0:0:
448,192,111018,1,0,0:0:0:50:hihat.wav
64,192,111018,128,0,111097:0:0:0:0:
320,192,111097,1,0,0:0:0:0:
192,192,111097,128,0,111176:0:0:0:0:
448,192,111176,1,0,0:0:0:50:drum.wav
64,192,111176,128,0,111255:0:0:0:70:kick.wav
320,192,111255,128,0,111334:0:0:0:0:
192,192,111334,128,0,111413:0:0:0:50:hihat.wav
64,192,111334,1,0,0:0:0:0:
448,192,111413,128,0,111491:0:0:0:0:
320,192,111491,128,0,111570:0:0:0:70:kick.wav
64,192,111491,1,0,0:0:0:0:
192,192,111570,128,0,111649:0:0:0:0:
64,192,111649,128,0,111728:0:0:0:50:hihat.wav
448,192,111649,1,0,0:0:0:0:
192,192,111728,128,0,111807:0:0:0:0:
320,192,111807,128,0,111886:0:0:0:50:drum.wav
64,192,111807,1,0,0:0:0:70:kick.wav
448,192,111886,128,0,111965:0:0:0:0:
192,192,111965,128,0,112044:0:0:0:50:hihat.wav
64,192,111965,1,0,0:0:0:0:
320,192,112044,128,0,112123:0:0:0:0:
64,192,112123,128,0,112202:0:0:0:50:drum.wav
448,192,112123,1,0,0:0:0:70:kick.wav
192,192,112202,128,0,112281:0:0:0:0:
320,192,112281,128,0,112360:0:0:0:50:hihat.wav
448,192,112281,1,0,0:0:0:0:
192,192,112360,128,0,112439:0:0:0:0:
64,192,112439,128,0,112518:0:0:0:70:kick.wav
448,192,112439,128,0,112518:0:0:0:70:cymbal.wav
320,192,112518,128,0,112597:0:0:0:0:
192,192,112597,128,0,112676:0:0:0:50:hihat.wav
64,192,112676,128,0,112755:0:0:0:0:
448,192,112755,128,0,112834:0:0:0:70:kick.wav
320,192,112755,128,0,112834:0:0:0:50:drum.wav
192,192,112834,128,0,112913:0:0:0:0:
448,192,112913,128,0,112991:0:0:0:50:hihat.wav
320,192,112991,128,0,113070:0:0:0:0:
64,192,113070,128,0,113149:0:0:0:70:kick.wav
192,192,113070,128,0,113149:0:0:0:50:drum.wav
448,192,113149,128,0,113228:0:0:0:0:
320,192,113228,128,0,113307:0:0:0:50:hihat.wav
192,192,113307,128,0,113386:0:0:0:0:
64,192,113386,128,0,113465:0:0:0:70:kick.wav
320,192,113386,1,0,0:0:0:50:drum.wav
192,192,113465,128,0,113544:0:0:0:50:drum.wav
448,192,113465,1,0,0:0:0:0:
320,192,113544,128,0,113623:0:0:0:50:drum.wav
64,192,113544,1,0,0:0:0:0:
448,192,113623,128,0,113702:0:0:0:50:drum.wav
192,192,113623,1,0,0:0:0:0:
64,192,113702,128,0,113781:0:0:0:50:drum.wav
320,192,113702,1,0,0:0:0:70:kick.wav
192,192,113781,128,0,113860:0:0:0:50:drum.wav
448,192,113781,1,0,0:0:0:0:
320,192,113860,128,0,113939:0:0:0:50:drum.wav
64,192,113860,1,0,0:0:0:0:
448,192,113939,128,0,114018:0:0:0:50:drum.wav
192,192,113939,1,0,0:0:0:0:
320,192,114018,1,0,0:0:0:70:kick.wav
64,192,114018,1,0,0:0:0:50:drum.wav
448,192,114097,1,0,0:0:0:50:drum.wav
192,192,114176,1,0,0:0:0:50:drum.wav
64,192,114176,1,0,0:0:0:0:
320,192,114255,1,0,0:0:0:50:drum.wav
448,192,114334,128,0,114413:0:0:0:70:cymbal.wav
192,192,114334,128,0,116228:0:0:0:70:kick.wav
64,192,114334,128,0,116228:0:0:0:0:
448,192,116544,128,0,116623:0:0:0:0:
320,192,116860,128,0,116939:0:0:0:0:
64,192,117176,128,0,117255:0:0:0:0:
192,192,117491,128,0,117570:0:0:0:0:
448,192,117807,128,0,117886:0:0:0:0:
320,192,118123,128,0,118202:0:0:0:0:
192,192,118123,128,0,120334:0:0:0:0:
64,192,118123,128,0,120334:0:0:0:0:
448,192,120334,128,0,120424:0:0:0:0:
320,192,120697,128,0,120793:0:0:0:0:
64,192,121084,128,0,121187:0:0:0:0:
192,192,121497,128,0,121622:0:0:0:0:
448,192,121997,128,0,122211:0:0:0:0:
320,192,122854,128,0,123169:0:0:0:0:
64,192,122854,128,0,126643:0:0:0:0:
