osu file format v14

[General]
AudioFilename: audio.mp3
AudioLeadIn: 0
PreviewTime: 75798
Countdown: 0
SampleSet: Normal
StackLeniency: 0.7
Mode: 1
LetterboxInBreaks: 0
WidescreenStoryboard: 1

[Editor]
DistanceSpacing: 1.2
BeatDivisor: 4
GridSize: 4
TimelineZoom: 2

[Metadata]
Title:Reason of being
TitleUnicode:Reason of being
Artist:sak respect for Arata Iiyoshi
ArtistUnicode:sak respect for Arata Iiyoshi
Creator:Idealism
Version:MUZUKASHII
Source:BMS
Tags:Pokémon Pokemon Nintendo NDS Mystery Dungeon Explorers of Darkness Time Sky PMD ポケモン不思議のダンジョン 空の探検隊 時の探検隊 闇の探検隊 とざくろ Tozakuro Portable Memories March -BMS Edition- Optie しろやぎとざくろ Gear Pikachu Chimchar Primal Dialga Final Boss Battle Theme Fight to The Finish Remix Arrange けっせん!ディアルガ! Coryn ARGENTINE DREAM ARGENTINE_DREAM
BeatmapID:1618065
BeatmapSetID:768658

[Difficulty]
HPDrainRate:5.5
CircleSize:5
OverallDifficulty:5
ApproachRate:5
SliderMultiplier:1.4
SliderTickRate:1

[Events]
//Background and Video events
0,0,"image (2).jpg",0,0
//Break Periods
//Storyboard Layer 0 (Background)
//Storyboard Layer 1 (Fail)
//Storyboard Layer 2 (Pass)
//Storyboard Layer 3 (Foreground)
//Storyboard Sound Samples

[TimingPoints]
10,315.789473684211,3,1,0,50,1,0
10,-200,4,1,0,50,0,0
3799,315.789473684211,4,1,0,50,1,0
3799,-200,4,1,0,50,0,0
6325,315.789473684211,3,1,0,50,1,0
6325,-200,4,1,0,50,0,0
13588,-100,4,1,0,90,0,0
29061,315.789473684211,3,1,0,75,1,8
29085,315.789473684211,3,1,0,75,1,0
34746,315.789473684211,3,1,0,90,1,0
72640,326.086956521739,3,1,0,70,1,0
72640,-96.8429207824908,4,1,0,70,0,0
73618,305.966343702193,3,1,0,70,1,0
74535,315.789473684211,3,1,0,75,1,0
74535,-105.263157894737,4,1,0,75,0,0
76429,-90.9090909090909,4,1,0,90,0,1
91587,-90.9090909090909,4,1,0,90,0,0
91824,-100,4,1,0,90,0,0
106745,-100,4,1,0,90,0,1
114324,-100,4,1,0,80,0,0
115271,-142.857142857143,4,1,0,75,0,0
116535,-142.857142857143,4,1,0,75,0,0
116850,-142.857142857143,4,1,0,72,0,0
117166,-142.857142857143,4,1,0,69,0,0
117482,-142.857142857143,4,1,0,66,0,0
117798,-142.857142857143,4,1,0,63,0,0
118113,-142.857142857143,4,1,0,60,0,0
119061,-170.784103116379,4,1,0,55,0,0
120324,377.358490566038,3,1,0,55,1,8
120324,-142.857142857143,4,1,0,55,0,0
120701,387.096774193548,3,1,0,50,1,8
120701,-138.888888888889,4,1,0,50,0,0
121088,419.58041958042,3,1,0,45,1,8
121088,-129.87012987013,4,1,0,45,0,0
121507,500,3,1,0,40,1,8
121507,-109.89010989011,4,1,0,40,0,0
122007,841.514726507714,3,1,0,35,1,8
122007,-64.1025641025641,4,1,0,35,0,0
122848,1256.5445026178,3,1,0,30,1,8
122848,-42.9184549356223,4,1,0,30,0,0

[HitObjects]
256,192,10,5,8,0:0:0:0:
256,192,957,1,0,0:0:0:0:
256,192,1904,1,8,0:0:0:0:
256,192,3799,1,8,0:0:0:0:
256,192,4114,1,8,0:0:0:0:
256,192,4430,1,8,0:0:0:0:
256,192,4746,1,8,0:0:0:0:
256,192,5062,1,8,0:0:0:0:
256,192,6325,1,8,0:0:0:0:
256,192,7272,1,0,0:0:0:0:
256,192,8219,1,8,0:0:0:0:
256,192,10114,1,8,0:0:0:0:
256,192,10430,1,8,0:0:0:0:
256,192,10746,1,8,0:0:0:0:
256,192,11061,1,8,0:0:0:0:
256,192,11377,1,8,0:0:0:0:
256,192,12009,1,8,0:0:0:0:
256,192,12167,12,0,13430,0:0:0:0:
256,192,13588,5,0,0:0:0:0:
256,192,13667,1,0,0:0:0:0:
256,192,13746,1,0,0:0:0:0:
256,192,13903,1,8,0:0:0:0:
256,192,14061,1,8,0:0:0:0:
256,192,14219,1,0,0:0:0:0:
256,192,14377,1,8,0:0:0:0:
256,192,14851,1,0,0:0:0:0:
256,192,14930,1,0,0:0:0:0:
256,192,15009,1,0,0:0:0:0:
256,192,15167,1,8,0:0:0:0:
256,192,15325,1,8,0:0:0:0:
256,192,15482,1,0,0:0:0:0:
256,192,15798,1,8,0:0:0:0:
256,192,15956,1,8,0:0:0:0:
256,192,16114,1,0,0:0:0:0:
256,192,16272,1,8,0:0:0:0:
256,192,16746,1,8,0:0:0:0:
256,192,16903,1,8,0:0:0:0:
256,192,16982,1,8,0:0:0:0:
256,192,17061,1,8,0:0:0:0:
256,192,17219,1,8,0:0:0:0:
256,192,17377,1,0,0:0:0:0:
256,192,17693,1,8,0:0:0:0:
256,192,17851,1,8,0:0:0:0:
256,192,18009,1,0,0:0:0:0:
256,192,18167,1,8,0:0:0:0:
256,192,18640,1,0,0:0:0:0:
256,192,18719,1,0,0:0:0:0:
256,192,18798,1,0,0:0:0:0:
256,192,18956,1,8,0:0:0:0:
256,192,19114,1,8,0:0:0:0:
256,192,19272,1,0,0:0:0:0:
256,192,19588,1,8,0:0:0:0:
256,192,19746,1,8,0:0:0:0:
256,192,19903,1,0,0:0:0:0:
256,192,20061,1,8,0:0:0:0:
256,192,20535,1,8,0:0:0:0:
256,192,20614,1,8,0:0:0:0:
256,192,20693,1,8,0:0:0:0:
256,192,20851,1,8,0:0:0:0:
256,192,21009,1,8,0:0:0:0:
256,192,21167,1,8,0:0:0:0:
256,192,21482,1,12,0:0:0:0:
256,192,21640,1,8,0:0:0:0:
256,192,21798,1,0,0:0:0:0:
256,192,21956,1,8,0:0:0:0:
256,192,22114,1,0,0:0:0:0:
256,192,22430,1,0,0:0:0:0:
256,192,22509,1,0,0:0:0:0:
256,192,22588,1,0,0:0:0:0:
256,192,22746,1,8,0:0:0:0:
256,192,22903,1,8,0:0:0:0:
256,192,23061,1,0,0:0:0:0:
256,192,23377,1,8,0:0:0:0:
256,192,23535,1,8,0:0:0:0:
256,192,23693,1,0,0:0:0:0:
256,192,23851,1,8,0:0:0:0:
256,192,24325,1,8,0:0:0:0:
256,192,24482,1,8,0:0:0:0:
256,192,24561,1,8,0:0:0:0:
256,192,24640,1,8,0:0:0:0:
256,192,24798,1,8,0:0:0:0:
256,192,24956,1,0,0:0:0:0:
256,192,25272,1,8,0:0:0:0:
256,192,25430,1,8,0:0:0:0:
256,192,25588,1,0,0:0:0:0:
256,192,25746,1,8,0:0:0:0:
256,192,25903,1,0,0:0:0:0:
256,192,26219,1,0,0:0:0:0:
256,192,26298,1,0,0:0:0:0:
256,192,26377,1,0,0:0:0:0:
256,192,26535,1,8,0:0:0:0:
256,192,26693,1,8,0:0:0:0:
256,192,26851,1,0,0:0:0:0:
256,192,27167,1,8,0:0:0:0:
256,192,27325,1,8,0:0:0:0:
256,192,27482,1,0,0:0:0:0:
256,192,27640,1,8,0:0:0:0:
256,192,28114,1,8,0:0:0:0:
256,192,28193,1,8,0:0:0:0:
256,192,28272,1,8,0:0:0:0:
256,192,28430,1,8,0:0:0:0:
256,192,28588,1,8,0:0:0:0:
256,192,28746,1,0,0:0:0:0:
256,192,29085,1,8,0:0:0:0:
256,192,29558,1,0,0:0:0:0:
256,192,29874,1,8,0:0:0:0:
256,192,30032,1,0,0:0:0:0:
256,192,30348,1,0,0:0:0:0:
256,192,30663,1,0,0:0:0:0:
256,192,30979,1,0,0:0:0:0:
256,192,31295,1,0,0:0:0:0:
256,192,31453,1,8,0:0:0:0:
256,192,31611,1,0,0:0:0:0:
256,192,31769,1,0,0:0:0:0:
256,192,31927,1,0,0:0:0:0:
256,192,32558,1,0,0:0:0:0:
256,192,32874,1,8,0:0:0:0:
256,192,33348,1,0,0:0:0:0:
256,192,33663,1,8,0:0:0:0:
256,192,33821,1,0,0:0:0:0:
256,192,34137,1,0,0:0:0:0:
256,192,34453,1,0,0:0:0:0:
256,192,34746,1,0,0:0:0:0:
256,192,35219,1,8,0:0:0:0:
256,192,35535,1,8,0:0:0:0:
256,192,35693,1,0,0:0:0:0:
256,192,36009,1,8,0:0:0:0:
256,192,36167,1,8,0:0:0:0:
256,192,36246,1,8,0:0:0:0:
256,192,36324,1,8,0:0:0:0:
256,192,36482,1,0,0:0:0:0:
256,192,36640,1,4,0:0:0:0:
256,192,37114,1,0,0:0:0:0:
256,192,37272,1,8,0:0:0:0:
256,192,37588,1,8,0:0:0:0:
256,192,37667,1,8,0:0:0:0:
256,192,37746,1,8,0:0:0:0:
256,192,37903,1,8,0:0:0:0:
256,192,38061,1,0,0:0:0:0:
256,192,38219,1,8,0:0:0:0:
256,192,38377,1,8,0:0:0:0:
256,192,38535,1,0,0:0:0:0:
256,192,39009,1,0,0:0:0:0:
256,192,39167,1,8,0:0:0:0:
256,192,39483,1,8,0:0:0:0:
256,192,39562,1,8,0:0:0:0:
256,192,39640,1,8,0:0:0:0:
256,192,39798,1,0,0:0:0:0:
256,192,39956,1,8,0:0:0:0:
256,192,40114,1,8,0:0:0:0:
256,192,40272,1,8,0:0:0:0:
256,192,40430,1,0,0:0:0:0:
256,192,40903,1,0,0:0:0:0:
256,192,41061,1,8,0:0:0:0:
256,192,41377,1,0,0:0:0:0:
256,192,41851,1,0,0:0:0:0:
256,192,42009,1,8,0:0:0:0:
256,192,42324,1,0,0:0:0:0:
256,192,42798,1,0,0:0:0:0:
256,192,42956,1,8,0:0:0:0:
256,192,43272,1,0,0:0:0:0:
256,192,43746,1,0,0:0:0:0:
256,192,43903,1,8,0:0:0:0:
256,192,43982,1,8,0:0:0:0:
256,192,44061,1,8,0:0:0:0:
256,192,44219,1,0,0:0:0:0:
256,192,44535,1,8,0:0:0:0:
256,192,44693,1,0,0:0:0:0:
256,192,44851,1,8,0:0:0:0:
256,192,45009,1,8,0:0:0:0:
256,192,45088,1,8,0:0:0:0:
256,192,45167,1,8,0:0:0:0:
256,192,45482,1,8,0:0:0:0:
256,192,45561,1,8,0:0:0:0:
256,192,45640,1,8,0:0:0:0:
256,192,45798,1,8,0:0:0:0:
256,192,46430,1,0,0:0:0:0:
256,192,46588,1,8,0:0:0:0:
256,192,46746,1,8,0:0:0:0:
256,192,46903,1,8,0:0:0:0:
256,192,47061,1,0,0:0:0:0:
256,192,47377,1,0,0:0:0:0:
256,192,47456,1,0,0:0:0:0:
256,192,47535,1,0,0:0:0:0:
256,192,47693,1,0,0:0:0:0:
256,192,48324,1,8,0:0:0:0:
256,192,48482,1,0,0:0:0:0:
256,192,48640,1,8,0:0:0:0:
256,192,48798,1,8,0:0:0:0:
256,192,48877,1,8,0:0:0:0:
256,192,48956,1,8,0:0:0:0:
256,192,49272,1,8,0:0:0:0:
256,192,49351,1,8,0:0:0:0:
256,192,49430,1,8,0:0:0:0:
256,192,49588,1,8,0:0:0:0:
256,192,50061,1,0,0:0:0:0:
256,192,50219,1,8,0:0:0:0:
256,192,50377,1,0,0:0:0:0:
256,192,50535,1,8,0:0:0:0:
256,192,50693,1,8,0:0:0:0:
256,192,50772,1,8,0:0:0:0:
256,192,50851,1,8,0:0:0:0:
256,192,51167,1,0,0:0:0:0:
256,192,51324,1,0,0:0:0:0:
256,192,51482,1,8,0:0:0:0:
256,192,51640,1,8,0:0:0:0:
256,192,51719,1,8,0:0:0:0:
256,192,51798,1,8,0:0:0:0:
256,192,52114,1,12,0:0:0:0:
256,192,52272,1,0,0:0:0:0:
256,192,52430,1,8,0:0:0:0:
256,192,52588,1,8,0:0:0:0:
256,192,52667,1,8,0:0:0:0:
256,192,52746,1,8,0:0:0:0:
256,192,53061,1,8,0:0:0:0:
256,192,53140,1,8,0:0:0:0:
256,192,53219,1,8,0:0:0:0:
256,192,53377,1,8,0:0:0:0:
256,192,54009,1,0,0:0:0:0:
256,192,54167,1,8,0:0:0:0:
256,192,54324,1,8,0:0:0:0:
256,192,54482,1,8,0:0:0:0:
256,192,54640,1,0,0:0:0:0:
256,192,54956,1,0,0:0:0:0:
256,192,55035,1,0,0:0:0:0:
256,192,55114,1,0,0:0:0:0:
256,192,55272,1,0,0:0:0:0:
256,192,55588,1,8,0:0:0:0:
256,192,55667,1,8,0:0:0:0:
256,192,55746,1,8,0:0:0:0:
256,192,55903,1,8,0:0:0:0:
256,192,56061,1,8,0:0:0:0:
256,192,56219,1,8,0:0:0:0:
256,192,56377,1,8,0:0:0:0:
256,192,56535,1,0,0:0:0:0:
256,192,56851,1,8,0:0:0:0:
256,192,56930,1,8,0:0:0:0:
256,192,57009,1,8,0:0:0:0:
256,192,57482,1,8,0:0:0:0:
256,192,57561,1,8,0:0:0:0:
256,192,57640,1,8,0:0:0:0:
256,192,57798,1,8,0:0:0:0:
256,192,57956,1,8,0:0:0:0:
256,192,58114,1,8,0:0:0:0:
256,192,58272,1,8,0:0:0:0:
256,192,58430,1,0,0:0:0:0:
256,192,58746,1,0,0:0:0:0:
256,192,58903,1,0,0:0:0:0:
256,192,59061,1,8,0:0:0:0:
256,192,59377,1,0,0:0:0:0:
256,192,60324,1,8,0:0:0:0:
256,192,60640,1,0,0:0:0:0:
256,192,60956,1,0,0:0:0:0:
256,192,61272,1,8,0:0:0:0:
256,192,61430,1,0,0:0:0:0:
256,192,61588,1,0,0:0:0:0:
256,192,62061,1,8,0:0:0:0:
256,192,62140,1,8,0:0:0:0:
256,192,62219,1,8,0:0:0:0:
256,192,62851,1,0,0:0:0:0:
256,192,63167,1,8,0:0:0:0:
256,192,63798,1,0,0:0:0:0:
256,192,63956,1,8,0:0:0:0:
256,192,64114,1,0,0:0:0:0:
256,192,64430,1,0,0:0:0:0:
256,192,64746,1,0,0:0:0:0:
256,192,65061,1,8,0:0:0:0:
256,192,65851,1,0,0:0:0:0:
256,192,65930,1,0,0:0:0:0:
256,192,66009,1,0,0:0:0:0:
256,192,66324,1,8,0:0:0:0:
256,192,66482,1,8,0:0:0:0:
256,192,66640,1,0,0:0:0:0:
256,192,66956,1,8,0:0:0:0:
256,192,67272,1,8,0:0:0:0:
256,192,67430,1,0,0:0:0:0:
256,192,67588,1,8,0:0:0:0:
256,192,67903,1,8,0:0:0:0:
256,192,68535,1,0,0:0:0:0:
256,192,68693,1,8,0:0:0:0:
256,192,68851,1,8,0:0:0:0:
256,192,69167,1,8,0:0:0:0:
256,192,69324,1,0,0:0:0:0:
256,192,69482,1,8,0:0:0:0:
256,192,69798,1,8,0:0:0:0:
256,192,70430,1,0,0:0:0:0:
256,192,70588,1,0,0:0:0:0:
256,192,70746,1,8,0:0:0:0:
256,192,71061,1,8,0:0:0:0:
256,192,71219,1,0,0:0:0:0:
256,192,71377,1,8,0:0:0:0:
256,192,71693,1,8,0:0:0:0:
256,192,72009,1,8,0:0:0:0:
256,192,72324,1,8,0:0:0:0:
256,192,72640,1,4,0:0:0:0:
256,192,74535,12,0,75482,0:0:0:0:
256,192,76429,5,0,0:0:0:0:
256,192,76587,1,0,0:0:0:0:
256,192,76745,1,8,0:0:0:0:
256,192,76903,1,0,0:0:0:0:
256,192,76982,1,0,0:0:0:0:
256,192,77061,1,0,0:0:0:0:
256,192,77219,1,8,0:0:0:0:
256,192,77377,1,8,0:0:0:0:
256,192,77692,1,8,0:0:0:0:
256,192,77850,1,0,0:0:0:0:
256,192,77929,1,0,0:0:0:0:
256,192,78008,1,0,0:0:0:0:
256,192,78166,1,8,0:0:0:0:
256,192,78324,1,0,0:0:0:0:
256,192,78640,1,8,0:0:0:0:
256,192,79271,1,8,0:0:0:0:
256,192,79587,1,0,0:0:0:0:
256,192,79745,1,8,0:0:0:0:
256,192,79903,1,8,0:0:0:0:
256,192,80061,1,0,0:0:0:0:
256,192,80219,1,8,0:0:0:0:
256,192,80377,1,0,0:0:0:0:
256,192,80456,1,0,0:0:0:0:
256,192,80535,1,0,0:0:0:0:
256,192,80692,1,0,0:0:0:0:
256,192,80850,1,8,0:0:0:0:
256,192,81166,1,8,0:0:0:0:
256,192,81324,1,0,0:0:0:0:
256,192,81403,1,0,0:0:0:0:
256,192,81482,1,0,0:0:0:0:
256,192,81640,1,0,0:0:0:0:
256,192,81798,1,8,0:0:0:0:
256,192,82113,1,0,0:0:0:0:
256,192,82429,1,8,0:0:0:0:
256,192,83061,1,8,0:0:0:0:
256,192,83377,1,8,0:0:0:0:
256,192,83456,1,8,0:0:0:0:
256,192,83535,1,8,0:0:0:0:
256,192,83692,1,0,0:0:0:0:
256,192,84008,1,8,0:0:0:0:
256,192,84324,1,0,0:0:0:0:
252,188,84482,1,8,0:0:0:0:
252,188,84561,1,8,0:0:0:0:
252,188,84640,1,8,0:0:0:0:
252,188,84798,1,8,0:0:0:0:
252,188,84956,1,0,0:0:0:0:
252,188,85271,1,0,0:0:0:0:
252,188,85350,1,0,0:0:0:0:
252,188,85429,1,0,0:0:0:0:
252,188,85587,1,8,0:0:0:0:
252,188,85903,1,0,0:0:0:0:
252,188,86219,1,8,0:0:0:0:
252,188,86850,1,8,0:0:0:0:
252,188,87166,1,0,0:0:0:0:
252,188,87245,1,0,0:0:0:0:
252,188,87324,1,0,0:0:0:0:
252,188,87482,1,0,0:0:0:0:
252,188,87640,1,8,0:0:0:0:
252,188,87798,1,8,0:0:0:0:
252,188,88113,1,8,0:0:0:0:
252,188,88271,1,0,0:0:0:0:
252,188,88350,1,0,0:0:0:0:
252,188,88429,1,0,0:0:0:0:
252,188,88587,1,8,0:0:0:0:
252,188,88745,1,0,0:0:0:0:
252,188,89061,1,8,0:0:0:0:
252,188,89377,1,8,0:0:0:0:
252,188,89692,1,12,0:0:0:0:
252,188,90166,1,12,0:0:0:0:
252,188,90640,1,12,0:0:0:0:
252,188,91113,1,12,0:0:0:0:
252,188,91587,1,4,0:0:0:0:
252,188,92061,1,0,0:0:0:0:
252,188,92219,1,8,0:0:0:0:
252,188,92535,1,8,0:0:0:0:
252,188,92613,1,8,0:0:0:0:
252,188,92692,1,8,0:0:0:0:
252,188,92850,1,0,0:0:0:0:
252,188,93166,1,8,0:0:0:0:
252,188,93324,1,8,0:0:0:0:
252,188,93482,1,0,0:0:0:0:
252,188,93798,1,8,0:0:0:0:
252,188,94113,1,0,0:0:0:0:
252,188,94429,1,8,0:0:0:0:
252,188,94745,1,0,0:0:0:0:
252,188,94824,1,0,0:0:0:0:
252,188,94903,1,0,0:0:0:0:
252,188,95061,1,8,0:0:0:0:
252,188,95377,1,0,0:0:0:0:
252,188,95850,1,0,0:0:0:0:
252,188,96008,1,8,0:0:0:0:
252,188,96324,1,8,0:0:0:0:
252,188,96403,1,8,0:0:0:0:
252,188,96482,1,8,0:0:0:0:
252,188,96640,1,0,0:0:0:0:
252,188,96956,1,8,0:0:0:0:
252,188,97113,1,8,0:0:0:0:
252,188,97271,1,8,0:0:0:0:
252,188,97587,1,0,0:0:0:0:
252,188,97903,1,8,0:0:0:0:
252,188,98219,1,0,0:0:0:0:
252,188,98377,1,8,0:0:0:0:
252,188,98456,1,8,0:0:0:0:
252,188,98535,1,8,0:0:0:0:
252,188,98692,1,0,0:0:0:0:
252,188,98850,1,8,0:0:0:0:
252,188,99166,1,0,0:0:0:0:
252,188,99640,1,0,0:0:0:0:
252,188,99798,1,8,0:0:0:0:
252,188,100113,1,8,0:0:0:0:
252,188,100192,1,8,0:0:0:0:
252,188,100271,1,8,0:0:0:0:
252,188,100429,1,0,0:0:0:0:
252,188,100745,1,8,0:0:0:0:
252,188,100903,1,8,0:0:0:0:
252,188,101061,1,0,0:0:0:0:
252,188,101377,1,8,0:0:0:0:
252,188,101692,1,0,0:0:0:0:
252,188,102008,1,8,0:0:0:0:
252,188,102324,1,0,0:0:0:0:
252,188,102403,1,0,0:0:0:0:
252,188,102482,1,0,0:0:0:0:
252,188,102640,1,0,0:0:0:0:
252,188,102798,1,0,0:0:0:0:
252,188,102956,1,12,0:0:0:0:
252,188,103271,1,8,0:0:0:0:
252,188,103377,1,8,0:0:0:0:
252,188,103482,1,8,0:0:0:0:
252,188,103587,1,8,0:0:0:0:
252,188,103903,1,12,0:0:0:0:
252,188,104219,1,0,0:0:0:0:
252,188,104850,1,12,0:0:0:0:
252,188,105166,1,8,0:0:0:0:
252,188,105271,1,8,0:0:0:0:
252,188,105377,1,8,0:0:0:0:
252,188,105482,1,8,0:0:0:0:
252,188,105798,1,12,0:0:0:0:
252,188,106114,1,0,0:0:0:0:
252,188,106193,1,0,0:0:0:0:
252,188,106271,1,0,0:0:0:0:
252,188,106429,1,8,0:0:0:0:
252,188,106745,1,4,0:0:0:0:
252,188,106903,1,0,0:0:0:0:
252,188,107061,1,8,0:0:0:0:
252,188,107219,1,8,0:0:0:0:
252,188,107298,1,8,0:0:0:0:
252,188,107377,1,8,0:0:0:0:
252,188,107535,1,8,0:0:0:0:
252,188,107692,1,8,0:0:0:0:
252,188,108008,1,0,0:0:0:0:
252,188,108324,1,8,0:0:0:0:
252,188,108956,1,8,0:0:0:0:
252,188,109113,1,0,0:0:0:0:
252,188,109192,1,0,0:0:0:0:
252,188,109271,1,0,0:0:0:0:
252,188,109429,1,0,0:0:0:0:
252,188,109587,1,8,0:0:0:0:
252,188,109903,1,8,0:0:0:0:
252,188,109982,1,8,0:0:0:0:
252,188,110061,1,8,0:0:0:0:
252,188,110219,1,0,0:0:0:0:
252,188,110377,1,0,0:0:0:0:
252,188,110535,1,8,0:0:0:0:
252,188,110850,1,0,0:0:0:0:
252,188,111008,1,0,0:0:0:0:
252,188,111087,1,0,0:0:0:0:
252,188,111166,1,0,0:0:0:0:
252,188,111324,1,0,0:0:0:0:
252,188,111482,1,8,0:0:0:0:
252,188,111798,1,0,0:0:0:0:
252,188,112113,1,8,0:0:0:0:
252,188,112745,1,8,0:0:0:0:
252,188,112903,1,0,0:0:0:0:
252,188,112982,1,0,0:0:0:0:
252,188,113061,1,0,0:0:0:0:
252,188,113219,1,0,0:0:0:0:
252,188,113377,1,8,0:0:0:0:
252,188,113535,1,8,0:0:0:0:
252,188,113692,1,8,0:0:0:0:
252,188,113850,1,8,0:0:0:0:
252,188,114008,1,0,0:0:0:0:
252,188,114166,1,0,0:0:0:0:
252,188,114324,1,0,0:0:0:0:
256,192,116535,1,8,0:0:0:0:
256,192,116850,1,0,0:0:0:0:
256,192,117166,1,8,0:0:0:0:
256,192,117482,1,0,0:0:0:0:
256,192,117798,1,0,0:0:0:0:
256,192,118113,1,0,0:0:0:0:
256,192,120324,1,8,0:0:0:0:
256,192,120701,1,0,0:0:0:0:
256,192,121088,1,8,0:0:0:0:
256,192,121507,1,0,0:0:0:0:
256,192,122007,1,0,0:0:0:0:
256,192,122848,1,0,0:0:0:0:
256,192,123005,12,0,126617,0:0:0:0:
