osu file format v14

[General]
AudioFilename: audio.mp3
AudioLeadIn: 0
PreviewTime: 75718
Countdown: 0
SampleSet: Normal
StackLeniency: 0.7
Mode: 1
LetterboxInBreaks: 0
WidescreenStoryboard: 1

[Editor]
DistanceSpacing: 1.2
BeatDivisor: 4
GridSize: 32
TimelineZoom: 2.699999

[Metadata]
Title:Reason of being
TitleUnicode:Reason of being
Artist:sak respect for Arata Iiyoshi
ArtistUnicode:sak respect for Arata Iiyoshi
Creator:D o t
Version:yassu-'s Inner Oni
Source:BMS
Tags:Pokémon Nintendo NDS Mystery Dungeon Explorers of the Darkness Time Sky ポケモン不思議のダンジョン 空の探検隊 時の探検隊 闇の探検隊 とざくろ Tozakuro Portable Memories March BMS Edition Optie しろやぎとざくろ Pikachu Chimchar Primal Dialga Final Boss Battle Theme Fight to The Finish Remix Finale tasuke912 yassu-
BeatmapID:1778137
BeatmapSetID:809965

[Difficulty]
HPDrainRate:5.5
CircleSize:5
OverallDifficulty:6
ApproachRate:5
SliderMultiplier:1.4
SliderTickRate:1

[Events]
//Background and Video events
0,0,"BG.jpg",0,-120
Video,-100,"BGA.mp4"
//Break Periods
//Storyboard Layer 0 (Background)
//Storyboard Layer 1 (Fail)
//Storyboard Layer 2 (Pass)
//Storyboard Layer 3 (Foreground)
//Storyboard Sound Samples

[TimingPoints]
10,315.789473684211,6,1,0,60,1,0
10,-133.333333333333,6,1,0,60,0,0
3799,315.789473684211,8,1,0,60,1,0
3799,-133.333333333333,8,1,0,60,0,0
6325,315.789473684211,6,1,0,60,1,0
6325,-133.333333333333,6,1,0,60,0,0
13588,-100,6,1,0,90,0,0
13903,315.789473684211,3,1,0,90,1,0
29060,-111.111111111111,3,1,0,70,0,0
34745,-105.263157894737,6,1,0,80,0,0
36639,-100,6,1,0,90,0,0
44218,-95.2380952380952,6,1,0,90,0,0
52113,-90.9090909090909,6,1,0,90,0,0
59456,-125,6,1,0,80,0,0
66955,-111.111111111111,6,1,0,80,0,0
75481,-28.5714285714286,6,1,0,80,0,0
75797,-108.695652173913,6,1,0,60,0,0
75955,-106.382978723404,6,1,0,60,0,0
76113,-104.166666666667,6,1,0,60,0,0
76271,-102.040816326531,6,1,0,60,0,0
76350,-100,6,1,0,80,0,0
76429,-100,3,1,0,90,0,1
91587,-100,3,1,0,90,0,0
106034,-99.009900990099,3,1,0,90,0,0
106113,-98.0392156862745,3,1,0,90,0,0
106271,-96.1538461538461,3,1,0,90,0,0
106350,-95.2380952380952,3,1,0,90,0,0
106429,-94.3396226415094,3,1,0,90,0,0
106508,-93.4579439252336,3,1,0,90,0,0
106587,-92.5925925925926,3,1,0,90,0,0
106666,-91.743119266055,3,1,0,90,0,0
106745,-90.9090909090909,3,1,0,90,0,1
114324,-90.9090909090909,3,1,0,90,0,0
114482,-100,3,1,0,60,0,0
120008,-119.047619047619,3,1,0,45,0,0
120324,375.93984962406,3,1,0,40,1,8
120699,388.349514563107,3,1,0,40,1,8
120699,-97.0873786407767,3,1,0,40,0,0
121087,421.644413211525,3,1,0,40,1,0
121087,-89.2857142857143,3,1,0,40,0,0
121508,500,3,1,0,40,1,8
121508,-75.187969924812,3,1,0,40,0,0
122008,842.696629213483,3,1,0,40,1,8
122008,-44.6428571428571,3,1,0,40,0,0
122850,1263.15789473684,3,1,0,40,1,0
122850,-29.7619047619048,3,1,0,40,0,0
123165,-29.7619047619048,3,1,0,10,0,0

[HitObjects]
256,192,10,5,2,0:0:0:0:
256,192,957,1,2,0:0:0:0:
256,192,1904,1,2,0:0:0:0:
256,192,3799,1,6,0:0:0:0:
256,192,6325,1,2,0:0:0:0:
256,192,7272,1,2,0:0:0:0:
256,192,8219,1,2,0:0:0:0:
256,192,10114,1,6,0:0:0:0:
256,192,12009,1,2,0:0:0:0:
256,192,13588,1,2,0:0:0:0:
256,192,13667,1,2,0:0:0:0:
256,192,13746,1,2,0:0:0:0:
256,192,13903,1,4,0:0:0:0:
256,192,14060,1,2,0:0:0:0:
256,192,14218,1,2,0:0:0:0:
256,192,14376,1,0,0:0:0:0:
256,192,14534,1,2,0:0:0:0:
256,192,14613,1,2,0:0:0:0:
256,192,14692,1,0,0:0:0:0:
256,192,14850,1,0,0:0:0:0:
256,192,15008,1,2,0:0:0:0:
256,192,15166,1,0,0:0:0:0:
256,192,15324,1,2,0:0:0:0:
256,192,15403,1,0,0:0:0:0:
256,192,15481,1,2,0:0:0:0:
256,192,15560,1,2,0:0:0:0:
256,192,15639,1,0,0:0:0:0:
256,192,15797,1,0,0:0:0:0:
256,192,15955,1,2,0:0:0:0:
256,192,16034,1,0,0:0:0:0:
256,192,16113,1,2,0:0:0:0:
256,192,16271,1,0,0:0:0:0:
256,192,16429,1,2,0:0:0:0:
256,192,16508,1,2,0:0:0:0:
256,192,16587,1,0,0:0:0:0:
256,192,16745,1,0,0:0:0:0:
256,192,16903,1,2,0:0:0:0:
256,192,17060,1,0,0:0:0:0:
256,192,17218,1,2,0:0:0:0:
256,192,17297,1,0,0:0:0:0:
256,192,17376,1,0,0:0:0:0:
256,192,17692,1,0,0:0:0:0:
256,192,17850,1,2,0:0:0:0:
256,192,18008,1,2,0:0:0:0:
256,192,18166,1,0,0:0:0:0:
256,192,18324,1,2,0:0:0:0:
256,192,18403,1,2,0:0:0:0:
256,192,18482,1,0,0:0:0:0:
256,192,18640,1,0,0:0:0:0:
256,192,18798,1,2,0:0:0:0:
256,192,18956,1,0,0:0:0:0:
256,192,19114,1,2,0:0:0:0:
256,192,19193,1,0,0:0:0:0:
256,192,19271,1,2,0:0:0:0:
256,192,19350,1,2,0:0:0:0:
256,192,19429,1,0,0:0:0:0:
256,192,19587,1,0,0:0:0:0:
256,192,19745,1,2,0:0:0:0:
256,192,19824,1,0,0:0:0:0:
256,192,19903,1,2,0:0:0:0:
256,192,20061,1,0,0:0:0:0:
256,192,20219,1,2,0:0:0:0:
256,192,20298,1,2,0:0:0:0:
256,192,20377,1,0,0:0:0:0:
256,192,20535,1,0,0:0:0:0:
256,192,20613,1,0,0:0:0:0:
256,192,20693,1,2,0:0:0:0:
256,192,20771,1,2,0:0:0:0:
256,192,20850,1,0,0:0:0:0:
256,192,21008,1,2,0:0:0:0:
256,192,21087,1,0,0:0:0:0:
256,192,21166,1,0,0:0:0:0:
256,192,21245,1,2,0:0:0:0:
256,192,21324,1,2,0:0:0:0:
256,192,21482,1,4,0:0:0:0:
256,192,21639,1,2,0:0:0:0:
256,192,21718,1,0,0:0:0:0:
256,192,21797,1,2,0:0:0:0:
256,192,21955,1,0,0:0:0:0:
256,192,22034,1,0,0:0:0:0:
256,192,22113,1,2,0:0:0:0:
256,192,22271,1,0,0:0:0:0:
256,224,22429,1,0,0:0:0:0:
256,192,22587,1,2,0:0:0:0:
256,192,22666,1,2,0:0:0:0:
256,192,22745,1,0,0:0:0:0:
256,192,22903,1,2,0:0:0:0:
256,192,22981,1,0,0:0:0:0:
256,192,23060,1,2,0:0:0:0:
256,192,23139,1,2,0:0:0:0:
256,192,23218,1,0,0:0:0:0:
256,192,23376,1,0,0:0:0:0:
256,192,23534,1,2,0:0:0:0:
256,192,23692,1,2,0:0:0:0:
256,192,23850,1,0,0:0:0:0:
256,192,23929,1,0,0:0:0:0:
256,192,24008,1,2,0:0:0:0:
256,192,24166,1,0,0:0:0:0:
256,192,24324,1,0,0:0:0:0:
256,192,24481,1,2,0:0:0:0:
256,192,24639,1,0,0:0:0:0:
256,192,24718,1,2,0:0:0:0:
256,192,24797,1,2,0:0:0:0:
256,192,24955,1,0,0:0:0:0:
256,192,25271,1,0,0:0:0:0:
256,192,25429,1,2,0:0:0:0:
256,192,25508,1,0,0:0:0:0:
256,192,25587,1,2,0:0:0:0:
256,192,25745,1,0,0:0:0:0:
256,192,25824,1,0,0:0:0:0:
256,192,25903,1,2,0:0:0:0:
256,192,26060,1,0,0:0:0:0:
256,192,26218,1,0,0:0:0:0:
256,192,26376,1,2,0:0:0:0:
256,192,26455,1,2,0:0:0:0:
256,192,26534,1,0,0:0:0:0:
256,192,26692,1,2,0:0:0:0:
256,192,26771,1,0,0:0:0:0:
256,192,26850,1,2,0:0:0:0:
256,192,26929,1,2,0:0:0:0:
256,192,27008,1,0,0:0:0:0:
256,192,27166,1,0,0:0:0:0:
256,192,27324,1,2,0:0:0:0:
256,192,27403,1,0,0:0:0:0:
256,192,27481,1,2,0:0:0:0:
256,192,27639,1,0,0:0:0:0:
256,192,27718,1,0,0:0:0:0:
256,192,27797,1,2,0:0:0:0:
256,192,27876,1,2,0:0:0:0:
256,192,27955,1,0,0:0:0:0:
256,192,28113,1,0,0:0:0:0:
256,192,28192,1,0,0:0:0:0:
256,192,28271,1,2,0:0:0:0:
256,192,28350,1,0,0:0:0:0:
256,192,28429,1,0,0:0:0:0:
256,192,28508,1,2,0:0:0:0:
256,192,28587,1,2,0:0:0:0:
256,192,28666,1,2,0:0:0:0:
256,192,28745,1,0,0:0:0:0:
256,192,29060,1,6,0:0:0:0:
256,192,30008,1,2,0:0:0:0:
256,192,30955,1,2,0:0:0:0:
256,192,31271,1,0,0:0:0:0:
256,192,31429,1,2,0:0:0:0:
256,192,31745,1,2,0:0:0:0:
256,192,31903,1,0,0:0:0:0:
256,192,32534,1,0,0:0:0:0:
256,192,32850,1,2,0:0:0:0:
256,192,33797,1,2,0:0:0:0:
256,192,34745,1,2,0:0:0:0:
256,192,34903,1,0,0:0:0:0:
256,192,35060,1,2,0:0:0:0:
256,192,35218,1,0,0:0:0:0:
256,192,35297,1,0,0:0:0:0:
256,192,35376,1,0,0:0:0:0:
256,192,35534,1,0,0:0:0:0:
256,192,35692,1,2,0:0:0:0:
256,192,36008,1,2,0:0:0:0:
256,192,36087,1,2,0:0:0:0:
256,192,36166,1,2,0:0:0:0:
256,192,36245,1,2,0:0:0:0:
256,192,36324,1,0,0:0:0:0:
256,192,36481,1,2,0:0:0:0:
256,192,36639,1,4,0:0:0:0:
256,192,36876,1,0,0:0:0:0:
256,192,37113,1,0,0:0:0:0:
256,192,37192,1,0,0:0:0:0:
256,192,37271,1,2,0:0:0:0:
256,192,37429,1,2,0:0:0:0:
256,192,37587,1,0,0:0:0:0:
256,192,37745,1,2,0:0:0:0:
256,192,37824,1,0,0:0:0:0:
256,192,37981,1,2,0:0:0:0:
256,192,38060,1,0,0:0:0:0:
256,192,38139,1,0,0:0:0:0:
256,192,38218,1,2,0:0:0:0:
256,192,38376,1,2,0:0:0:0:
256,192,38455,1,2,0:0:0:0:
256,192,38534,1,0,0:0:0:0:
256,192,38771,1,0,0:0:0:0:
256,192,38850,1,2,0:0:0:0:
256,192,39008,1,0,0:0:0:0:
256,192,39087,1,0,0:0:0:0:
256,192,39166,1,2,0:0:0:0:
256,192,39324,1,2,0:0:0:0:
256,192,39481,1,0,0:0:0:0:
256,192,39639,1,2,0:0:0:0:
256,192,39718,1,0,0:0:0:0:
256,192,39876,1,2,0:0:0:0:
256,192,39955,1,0,0:0:0:0:
256,192,40034,1,0,0:0:0:0:
256,192,40113,1,2,0:0:0:0:
256,192,40271,1,0,0:0:0:0:
256,192,40350,1,2,0:0:0:0:
256,192,40429,1,0,0:0:0:0:
256,192,40666,1,0,0:0:0:0:
256,192,40745,1,2,0:0:0:0:
256,192,40903,1,0,0:0:0:0:
256,192,40981,1,0,0:0:0:0:
256,192,41060,1,2,0:0:0:0:
256,192,41218,1,2,0:0:0:0:
256,192,41376,1,0,0:0:0:0:
256,192,41455,1,0,0:0:0:0:
256,192,41613,1,0,0:0:0:0:
256,192,41692,1,2,0:0:0:0:
256,192,41850,1,0,0:0:0:0:
256,192,41929,1,0,0:0:0:0:
256,192,42008,1,2,0:0:0:0:
256,192,42087,1,0,0:0:0:0:
256,192,42166,1,0,0:0:0:0:
256,192,42245,1,2,0:0:0:0:
256,192,42324,1,0,0:0:0:0:
256,192,42560,1,0,0:0:0:0:
256,192,42639,1,2,0:0:0:0:
256,192,42797,1,0,0:0:0:0:
256,192,42876,1,2,0:0:0:0:
256,192,42955,1,2,0:0:0:0:
256,192,43034,1,0,0:0:0:0:
256,192,43113,1,2,0:0:0:0:
256,192,43271,1,0,0:0:0:0:
256,192,43429,1,2,0:0:0:0:
256,192,43508,1,0,0:0:0:0:
256,192,43587,1,2,0:0:0:0:
256,192,43666,1,2,0:0:0:0:
256,192,43745,1,0,0:0:0:0:
256,192,43824,1,0,0:0:0:0:
256,192,43903,1,2,0:0:0:0:
256,192,43981,1,2,0:0:0:0:
256,192,44060,1,2,0:0:0:0:
256,192,44218,1,4,0:0:0:0:
256,192,44534,1,2,0:0:0:0:
256,192,44692,1,0,0:0:0:0:
256,192,44850,1,2,0:0:0:0:
256,192,45008,1,2,0:0:0:0:
256,192,45060,1,2,0:0:0:0:
256,192,45113,1,2,0:0:0:0:
256,192,45166,1,0,0:0:0:0:
256,192,45324,1,0,0:0:0:0:
256,192,45481,1,2,0:0:0:0:
256,192,45560,1,2,0:0:0:0:
256,192,45639,1,0,0:0:0:0:
256,192,45718,1,0,0:0:0:0:
256,192,45797,1,2,0:0:0:0:
256,192,45955,1,2,0:0:0:0:
256,192,46034,1,2,0:0:0:0:
256,192,46113,1,0,0:0:0:0:
256,192,46271,1,0,0:0:0:0:
256,192,46429,1,2,0:0:0:0:
256,192,46587,1,0,0:0:0:0:
256,192,46745,1,2,0:0:0:0:
256,192,46903,1,2,0:0:0:0:
256,192,47060,1,0,0:0:0:0:
256,192,47218,1,2,0:0:0:0:
256,192,47297,1,2,0:0:0:0:
256,192,47376,1,2,0:0:0:0:
256,192,47455,1,2,0:0:0:0:
256,192,47534,1,0,0:0:0:0:
256,192,47613,1,0,0:0:0:0:
256,192,47692,1,2,0:0:0:0:
256,192,47850,1,0,0:0:0:0:
256,192,48008,1,0,0:0:0:0:
256,192,48166,1,2,0:0:0:0:
256,192,48324,1,2,0:0:0:0:
256,192,48403,1,2,0:0:0:0:
256,192,48481,1,0,0:0:0:0:
256,192,48639,1,2,0:0:0:0:
256,192,48797,1,2,0:0:0:0:
256,192,48850,1,2,0:0:0:0:
256,192,48903,1,2,0:0:0:0:
256,192,48955,1,0,0:0:0:0:
256,192,49113,1,0,0:0:0:0:
256,192,49271,1,2,0:0:0:0:
256,192,49350,1,2,0:0:0:0:
256,192,49429,1,0,0:0:0:0:
256,192,49508,1,0,0:0:0:0:
256,192,49587,1,2,0:0:0:0:
256,192,49745,1,2,0:0:0:0:
256,192,49824,1,2,0:0:0:0:
256,192,49903,1,0,0:0:0:0:
256,192,50060,1,0,0:0:0:0:
256,192,50139,1,0,0:0:0:0:
256,192,50218,1,2,0:0:0:0:
256,192,50376,1,0,0:0:0:0:
256,192,50455,1,0,0:0:0:0:
256,192,50534,1,2,0:0:0:0:
256,192,50692,1,2,0:0:0:0:
256,192,50771,1,2,0:0:0:0:
256,192,50850,1,0,0:0:0:0:
256,192,51008,1,2,0:0:0:0:
256,192,51087,1,2,0:0:0:0:
256,192,51166,1,0,0:0:0:0:
256,192,51245,1,2,0:0:0:0:
256,192,51324,1,0,0:0:0:0:
256,192,51403,1,0,0:0:0:0:
256,192,51481,1,2,0:0:0:0:
256,192,51560,1,0,0:0:0:0:
256,192,51639,1,2,0:0:0:0:
256,192,51718,1,2,0:0:0:0:
256,192,51797,1,0,0:0:0:0:
256,192,52113,1,6,0:0:0:0:
256,192,52271,1,0,0:0:0:0:
256,192,52429,1,2,0:0:0:0:
256,192,52587,1,2,0:0:0:0:
256,192,52639,1,2,0:0:0:0:
256,192,52692,1,2,0:0:0:0:
256,192,52745,1,0,0:0:0:0:
256,192,52903,1,0,0:0:0:0:
256,192,53060,1,2,0:0:0:0:
256,192,53139,1,2,0:0:0:0:
256,192,53218,1,0,0:0:0:0:
256,192,53297,1,0,0:0:0:0:
256,192,53376,1,2,0:0:0:0:
256,192,53534,1,2,0:0:0:0:
256,192,53613,1,2,0:0:0:0:
256,192,53692,1,0,0:0:0:0:
256,192,53850,1,0,0:0:0:0:
256,192,54008,1,2,0:0:0:0:
256,192,54166,1,0,0:0:0:0:
256,192,54324,1,2,0:0:0:0:
256,192,54481,1,2,0:0:0:0:
256,192,54639,1,0,0:0:0:0:
256,192,54797,1,2,0:0:0:0:
256,192,54876,1,2,0:0:0:0:
256,192,54955,1,2,0:0:0:0:
256,192,55034,1,2,0:0:0:0:
256,192,55113,1,0,0:0:0:0:
256,192,55192,1,0,0:0:0:0:
256,192,55271,1,2,0:0:0:0:
256,192,55429,1,0,0:0:0:0:
256,192,55587,1,0,0:0:0:0:
256,192,55666,1,2,0:0:0:0:
256,192,55745,1,2,0:0:0:0:
256,192,55903,1,2,0:0:0:0:
256,192,55981,1,0,0:0:0:0:
256,192,56060,1,2,0:0:0:0:
256,192,56218,1,2,0:0:0:0:
256,192,56297,1,0,0:0:0:0:
256,192,56376,1,2,0:0:0:0:
256,192,56455,1,2,0:0:0:0:
256,192,56534,1,0,0:0:0:0:
256,192,56692,1,0,0:0:0:0:
256,192,56850,1,2,0:0:0:0:
256,192,56929,1,2,0:0:0:0:
256,192,57008,1,0,0:0:0:0:
256,192,57087,1,0,0:0:0:0:
256,192,57166,1,2,0:0:0:0:
256,192,57324,1,2,0:0:0:0:
256,192,57403,1,2,0:0:0:0:
256,192,57481,1,0,0:0:0:0:
256,192,57560,1,2,0:0:0:0:
256,192,57639,1,2,0:0:0:0:
256,192,57797,1,2,0:0:0:0:
256,192,57876,1,0,0:0:0:0:
256,192,57955,1,2,0:0:0:0:
256,192,58113,1,2,0:0:0:0:
256,192,58192,1,0,0:0:0:0:
256,192,58271,1,2,0:0:0:0:
256,192,58350,1,2,0:0:0:0:
256,192,58429,1,0,0:0:0:0:
256,192,58508,1,2,0:0:0:0:
256,192,58587,1,2,0:0:0:0:
256,192,58666,1,0,0:0:0:0:
256,192,58745,1,2,0:0:0:0:
256,192,58824,1,0,0:0:0:0:
256,192,58981,1,0,0:0:0:0:
256,192,59060,1,2,0:0:0:0:
256,192,59139,1,0,0:0:0:0:
256,192,59218,1,2,0:0:0:0:
256,192,59297,1,2,0:0:0:0:
256,192,59376,1,0,0:0:0:0:
256,192,60166,1,2,0:0:0:0:
256,192,60324,1,2,0:0:0:0:
256,192,60639,1,2,0:0:0:0:
256,192,60955,1,0,0:0:0:0:
256,192,61271,1,2,0:0:0:0:
256,192,61587,1,0,0:0:0:0:
256,192,61745,1,2,0:0:0:0:
256,192,62060,1,2,0:0:0:0:
256,192,62139,1,2,0:0:0:0:
256,192,62218,1,2,0:0:0:0:
256,192,62850,1,0,0:0:0:0:
256,192,63008,1,0,0:0:0:0:
256,192,63166,5,2,0:0:0:0:
256,192,63639,1,2,0:0:0:0:
256,192,63955,1,2,0:0:0:0:
256,192,64113,1,2,0:0:0:0:
256,192,64429,1,0,0:0:0:0:
256,192,64745,1,0,0:0:0:0:
256,192,65060,1,2,0:0:0:0:
256,192,65534,1,2,0:0:0:0:
256,192,65850,1,2,0:0:0:0:
256,192,65929,1,2,0:0:0:0:
256,192,66008,1,0,0:0:0:0:
256,192,66324,1,0,0:0:0:0:
256,192,66429,1,0,0:0:0:0:
256,192,66534,1,0,0:0:0:0:
256,192,66639,1,2,0:0:0:0:
256,192,66797,1,2,0:0:0:0:
256,192,66955,1,4,0:0:0:0:
256,192,67429,1,0,0:0:0:0:
256,192,67587,1,2,0:0:0:0:
256,192,67903,1,0,0:0:0:0:
256,192,68218,5,2,0:0:0:0:
256,192,68534,1,2,0:0:0:0:
256,192,68639,1,2,0:0:0:0:
256,192,68745,1,2,0:0:0:0:
256,192,68850,1,0,0:0:0:0:
256,192,69324,1,0,0:0:0:0:
256,192,69481,1,2,0:0:0:0:
256,192,69797,1,0,0:0:0:0:
256,192,70113,1,2,0:0:0:0:
256,192,70271,1,0,0:0:0:0:
256,192,70429,1,2,0:0:0:0:
256,192,70534,1,0,0:0:0:0:
256,192,70639,1,0,0:0:0:0:
256,192,70745,1,2,0:0:0:0:
256,192,71060,1,0,0:0:0:0:
256,192,71218,1,0,0:0:0:0:
256,192,71376,1,2,0:0:0:0:
256,192,71692,1,0,0:0:0:0:
256,192,72008,1,2,0:0:0:0:
320,64,72166,1,0,0:0:0:0:
256,192,72323,5,2,0:0:0:0:
256,192,72402,1,2,0:0:0:0:
256,192,72481,1,2,0:0:0:0:
256,192,72560,1,2,0:0:0:0:
256,192,72639,1,0,0:0:0:0:
256,192,74534,2,0,L|224:160,11,31.4999990386963
256,192,75797,1,0,0:0:0:0:
256,192,75955,1,0,0:0:0:0:
256,192,76113,1,2,0:0:0:0:
256,192,76271,1,2,0:0:0:0:
256,192,76429,1,4,0:0:0:0:
256,192,76745,1,0,0:0:0:0:
256,192,76903,1,2,0:0:0:0:
256,192,76981,1,2,0:0:0:0:
256,192,77060,1,0,0:0:0:0:
256,192,77218,1,2,0:0:0:0:
256,192,77376,1,0,0:0:0:0:
256,192,77613,1,2,0:0:0:0:
256,192,77692,1,0,0:0:0:0:
256,192,77850,1,2,0:0:0:0:
256,192,78008,1,0,0:0:0:0:
256,192,78087,1,0,0:0:0:0:
256,192,78245,1,2,0:0:0:0:
256,192,78324,1,0,0:0:0:0:
256,192,78560,1,2,0:0:0:0:
256,192,78639,1,0,0:0:0:0:
256,192,78797,1,2,0:0:0:0:
256,192,78876,1,2,0:0:0:0:
256,192,78955,1,0,0:0:0:0:
256,192,79034,1,2,0:0:0:0:
256,192,79192,1,2,0:0:0:0:
256,192,79271,1,0,0:0:0:0:
256,192,79429,1,2,0:0:0:0:
256,192,79587,1,0,0:0:0:0:
256,192,79666,1,0,0:0:0:0:
256,192,79745,1,2,0:0:0:0:
256,192,79903,1,0,0:0:0:0:
256,192,80060,1,2,0:0:0:0:
256,192,80139,1,2,0:0:0:0:
256,192,80218,1,0,0:0:0:0:
256,192,80534,1,0,0:0:0:0:
256,192,80692,1,2,0:0:0:0:
256,192,80771,1,2,0:0:0:0:
256,192,80850,1,0,0:0:0:0:
256,192,81008,1,2,0:0:0:0:
256,192,81166,1,0,0:0:0:0:
256,192,81403,1,2,0:0:0:0:
256,192,81481,1,0,0:0:0:0:
256,192,81639,1,2,0:0:0:0:
256,192,81797,1,0,0:0:0:0:
256,192,81876,1,2,0:0:0:0:
256,192,82034,1,2,0:0:0:0:
256,192,82113,1,0,0:0:0:0:
256,192,82271,1,0,0:0:0:0:
256,192,82350,1,2,0:0:0:0:
256,192,82429,1,0,0:0:0:0:
256,192,82587,1,2,0:0:0:0:
256,192,82666,1,2,0:0:0:0:
256,192,82745,1,0,0:0:0:0:
256,192,82824,1,0,0:0:0:0:
256,192,82981,1,2,0:0:0:0:
256,192,83060,1,0,0:0:0:0:
256,192,83218,1,2,0:0:0:0:
256,192,83376,1,0,0:0:0:0:
256,192,83455,1,0,0:0:0:0:
256,192,83534,1,2,0:0:0:0:
256,192,83613,1,2,0:0:0:0:
256,192,83692,1,0,0:0:0:0:
256,192,83850,1,2,0:0:0:0:
256,192,84008,1,0,0:0:0:0:
256,192,84324,1,0,0:0:0:0:
256,192,84482,1,2,0:0:0:0:
256,192,84560,1,2,0:0:0:0:
256,192,84639,1,0,0:0:0:0:
256,192,84797,1,2,0:0:0:0:
256,192,84955,1,0,0:0:0:0:
256,192,85192,1,2,0:0:0:0:
256,192,85271,1,0,0:0:0:0:
256,192,85429,1,2,0:0:0:0:
256,192,85587,1,0,0:0:0:0:
256,192,85666,1,0,0:0:0:0:
256,192,85824,1,2,0:0:0:0:
256,192,85903,1,0,0:0:0:0:
256,192,86139,1,2,0:0:0:0:
256,192,86218,1,0,0:0:0:0:
256,192,86376,1,2,0:0:0:0:
256,192,86455,1,2,0:0:0:0:
256,192,86534,1,0,0:0:0:0:
256,192,86613,1,2,0:0:0:0:
256,192,86771,1,2,0:0:0:0:
256,192,86850,1,0,0:0:0:0:
256,192,87008,1,2,0:0:0:0:
256,192,87166,1,0,0:0:0:0:
256,192,87245,1,0,0:0:0:0:
256,192,87324,1,2,0:0:0:0:
256,192,87482,1,2,0:0:0:0:
256,192,87560,1,0,0:0:0:0:
256,192,87639,1,2,0:0:0:0:
256,192,87718,1,2,0:0:0:0:
256,192,87797,1,0,0:0:0:0:
256,192,88113,1,0,0:0:0:0:
256,192,88271,1,2,0:0:0:0:
256,192,88350,1,2,0:0:0:0:
256,192,88429,1,0,0:0:0:0:
256,192,88587,1,2,0:0:0:0:
256,192,88745,1,0,0:0:0:0:
256,192,88903,1,0,0:0:0:0:
256,192,88982,1,2,0:0:0:0:
256,192,89060,1,0,0:0:0:0:
256,192,89218,1,2,0:0:0:0:
256,192,89297,1,0,0:0:0:0:
256,192,89376,1,0,0:0:0:0:
256,192,89455,1,2,0:0:0:0:
256,192,89534,1,2,0:0:0:0:
256,192,89692,1,6,0:0:0:0:
256,192,89929,1,0,0:0:0:0:
256,192,90008,1,0,0:0:0:0:
256,192,90166,1,6,0:0:0:0:
256,192,90324,1,0,0:0:0:0:
256,192,90403,1,0,0:0:0:0:
256,192,90481,1,0,0:0:0:0:
256,192,90639,1,6,0:0:0:0:
256,192,90797,1,0,0:0:0:0:
256,192,90876,1,0,0:0:0:0:
256,192,90955,1,0,0:0:0:0:
256,192,91034,1,0,0:0:0:0:
256,192,91113,1,2,0:0:0:0:
256,192,91271,1,0,0:0:0:0:
256,192,91429,1,2,0:0:0:0:
256,192,91587,1,4,0:0:0:0:
256,192,91824,1,0,0:0:0:0:
256,192,92060,1,0,0:0:0:0:
256,192,92139,1,0,0:0:0:0:
256,192,92218,1,2,0:0:0:0:
256,192,92376,1,2,0:0:0:0:
256,192,92534,1,0,0:0:0:0:
256,192,92613,1,0,0:0:0:0:
256,192,92771,1,0,0:0:0:0:
256,192,92850,1,2,0:0:0:0:
256,192,93008,1,0,0:0:0:0:
256,192,93087,1,0,0:0:0:0:
256,192,93166,1,2,0:0:0:0:
256,192,93324,1,2,0:0:0:0:
256,192,93403,1,2,0:0:0:0:
256,192,93481,1,0,0:0:0:0:
256,192,93718,1,0,0:0:0:0:
256,192,93797,1,2,0:0:0:0:
256,192,93955,1,0,0:0:0:0:
256,192,94034,1,0,0:0:0:0:
256,192,94113,1,2,0:0:0:0:
256,192,94271,1,0,0:0:0:0:
256,192,94429,1,2,0:0:0:0:
256,192,94508,1,0,0:0:0:0:
256,192,94666,1,0,0:0:0:0:
256,192,94745,1,2,0:0:0:0:
256,192,94903,1,0,0:0:0:0:
256,192,94981,1,0,0:0:0:0:
256,192,95060,1,2,0:0:0:0:
256,192,95218,1,2,0:0:0:0:
256,192,95297,1,2,0:0:0:0:
256,192,95376,1,0,0:0:0:0:
256,192,95613,1,0,0:0:0:0:
256,192,95692,1,2,0:0:0:0:
256,192,95850,1,0,0:0:0:0:
256,192,95929,1,0,0:0:0:0:
256,192,96008,1,2,0:0:0:0:
256,192,96166,1,2,0:0:0:0:
256,192,96324,1,0,0:0:0:0:
256,192,96403,1,0,0:0:0:0:
256,192,96560,1,0,0:0:0:0:
256,192,96639,1,2,0:0:0:0:
256,192,96797,1,0,0:0:0:0:
256,192,96876,1,0,0:0:0:0:
256,192,96955,1,2,0:0:0:0:
256,192,97034,1,2,0:0:0:0:
256,192,97113,1,2,0:0:0:0:
256,192,97192,1,0,0:0:0:0:
256,192,97271,1,2,0:0:0:0:
256,192,97508,1,0,0:0:0:0:
256,192,97587,1,2,0:0:0:0:
256,192,97745,1,0,0:0:0:0:
256,192,97824,1,2,0:0:0:0:
256,192,97903,1,2,0:0:0:0:
256,192,97981,1,0,0:0:0:0:
256,192,98060,1,2,0:0:0:0:
256,192,98218,1,0,0:0:0:0:
256,192,98376,1,2,0:0:0:0:
256,192,98455,1,0,0:0:0:0:
256,192,98534,5,2,0:0:0:0:
256,192,98613,1,2,0:0:0:0:
256,192,98692,1,0,0:0:0:0:
256,192,98771,1,0,0:0:0:0:
256,192,98850,1,2,0:0:0:0:
256,192,99008,1,2,0:0:0:0:
256,192,99087,1,2,0:0:0:0:
256,192,99166,1,0,0:0:0:0:
256,192,99403,1,0,0:0:0:0:
256,192,99481,1,2,0:0:0:0:
256,192,99639,1,0,0:0:0:0:
256,192,99718,1,0,0:0:0:0:
256,192,99797,1,2,0:0:0:0:
256,192,99955,1,2,0:0:0:0:
256,192,100113,1,0,0:0:0:0:
256,192,100192,1,0,0:0:0:0:
256,192,100350,1,0,0:0:0:0:
256,192,100429,1,2,0:0:0:0:
256,192,100587,1,0,0:0:0:0:
256,192,100666,1,0,0:0:0:0:
256,192,100745,1,2,0:0:0:0:
256,192,100824,1,0,0:0:0:0:
256,192,100903,1,2,0:0:0:0:
256,192,100981,1,2,0:0:0:0:
256,192,101060,1,0,0:0:0:0:
256,192,101297,1,0,0:0:0:0:
256,192,101376,1,2,0:0:0:0:
256,192,101534,1,0,0:0:0:0:
256,192,101613,1,0,0:0:0:0:
256,192,101692,1,2,0:0:0:0:
256,192,101850,1,0,0:0:0:0:
256,192,102008,1,2,0:0:0:0:
256,192,102087,1,0,0:0:0:0:
256,192,102245,1,0,0:0:0:0:
256,192,102324,1,2,0:0:0:0:
256,192,102403,1,2,0:0:0:0:
256,192,102481,1,0,0:0:0:0:
256,192,102560,1,0,0:0:0:0:
256,192,102639,1,2,0:0:0:0:
256,192,102718,1,2,0:0:0:0:
256,192,102797,1,2,0:0:0:0:
256,192,102955,1,4,0:0:0:0:
256,192,103271,1,2,0:0:0:0:
256,192,103376,1,2,0:0:0:0:
256,192,103481,1,2,0:0:0:0:
256,192,103587,1,0,0:0:0:0:
256,192,103745,1,2,0:0:0:0:
256,192,103903,1,4,0:0:0:0:
256,192,104218,1,2,0:0:0:0:
256,192,104376,1,2,0:0:0:0:
256,192,104455,1,2,0:0:0:0:
256,192,104534,1,0,0:0:0:0:
256,192,104692,1,2,0:0:0:0:
256,192,104850,1,4,0:0:0:0:
256,192,105166,1,2,0:0:0:0:
256,192,105271,1,2,0:0:0:0:
256,192,105376,1,2,0:0:0:0:
256,192,105481,1,0,0:0:0:0:
256,192,105639,1,2,0:0:0:0:
256,192,105797,1,4,0:0:0:0:
256,192,105955,1,2,0:0:0:0:
256,192,106034,1,2,0:0:0:0:
256,192,106113,1,0,0:0:0:0:
256,192,106271,1,0,0:0:0:0:
256,192,106350,1,0,0:0:0:0:
256,192,106429,1,2,0:0:0:0:
256,192,106508,1,0,0:0:0:0:
256,192,106587,1,2,0:0:0:0:
256,192,106666,1,2,0:0:0:0:
256,192,106745,1,0,0:0:0:0:
256,192,106903,1,2,0:0:0:0:
256,192,107060,1,0,0:0:0:0:
256,192,107218,1,2,0:0:0:0:
256,192,107297,1,2,0:0:0:0:
256,192,107376,1,0,0:0:0:0:
256,192,107534,1,2,0:0:0:0:
256,192,107692,1,0,0:0:0:0:
256,192,107771,1,2,0:0:0:0:
256,192,107850,1,2,0:0:0:0:
256,192,108008,1,0,0:0:0:0:
256,192,108166,1,2,0:0:0:0:
256,192,108245,1,0,0:0:0:0:
256,192,108324,1,0,0:0:0:0:
256,192,108403,1,2,0:0:0:0:
256,192,108481,1,2,0:0:0:0:
256,192,108560,1,2,0:0:0:0:
256,192,108639,1,0,0:0:0:0:
256,192,108797,1,0,0:0:0:0:
256,192,108955,1,2,0:0:0:0:
256,192,109113,1,0,0:0:0:0:
256,192,109192,1,0,0:0:0:0:
256,192,109271,1,2,0:0:0:0:
256,192,109429,1,0,0:0:0:0:
256,192,109587,1,2,0:0:0:0:
256,192,109666,1,0,0:0:0:0:
256,192,109745,1,0,0:0:0:0:
256,192,109903,1,2,0:0:0:0:
256,192,110060,1,0,0:0:0:0:
256,192,110139,1,2,0:0:0:0:
256,192,110218,1,2,0:0:0:0:
256,192,110297,1,0,0:0:0:0:
256,192,110376,1,0,0:0:0:0:
256,192,110455,1,0,0:0:0:0:
256,192,110534,1,2,0:0:0:0:
256,192,110613,1,0,0:0:0:0:
256,192,110692,1,2,0:0:0:0:
256,192,110850,1,0,0:0:0:0:
256,192,111008,1,2,0:0:0:0:
256,192,111087,1,2,0:0:0:0:
256,192,111166,1,0,0:0:0:0:
256,192,111324,1,2,0:0:0:0:
256,192,111481,1,0,0:0:0:0:
256,192,111560,1,2,0:0:0:0:
256,192,111639,1,2,0:0:0:0:
256,192,111718,1,0,0:0:0:0:
256,192,111797,1,0,0:0:0:0:
256,192,111955,1,2,0:0:0:0:
256,192,112034,1,0,0:0:0:0:
256,192,112113,1,0,0:0:0:0:
256,192,112192,1,2,0:0:0:0:
256,192,112271,1,2,0:0:0:0:
256,192,112350,1,2,0:0:0:0:
256,192,112429,1,0,0:0:0:0:
256,192,112587,1,0,0:0:0:0:
256,192,112745,1,2,0:0:0:0:
256,192,112903,1,0,0:0:0:0:
256,192,112981,1,0,0:0:0:0:
256,192,113060,1,2,0:0:0:0:
256,192,113218,1,0,0:0:0:0:
256,192,113376,1,2,0:0:0:0:
256,192,113455,1,2,0:0:0:0:
256,192,113534,1,0,0:0:0:0:
256,192,113613,1,0,0:0:0:0:
256,192,113692,1,2,0:0:0:0:
256,192,113771,1,0,0:0:0:0:
256,192,113850,1,0,0:0:0:0:
256,192,113929,1,2,0:0:0:0:
256,192,114008,1,2,0:0:0:0:
256,192,114087,1,2,0:0:0:0:
256,192,114166,1,0,0:0:0:0:
256,192,114245,1,0,0:0:0:0:
256,192,114324,1,2,0:0:0:0:
256,192,116534,5,2,0:0:0:0:
256,192,116850,1,0,0:0:0:0:
256,192,117166,1,2,0:0:0:0:
256,192,117481,1,0,0:0:0:0:
256,192,117797,1,0,0:0:0:0:
256,192,118113,1,2,0:0:0:0:
256,192,120324,1,0,0:0:0:0:
256,192,120699,1,2,0:0:0:0:
256,192,121087,1,2,0:0:0:0:
256,192,121508,1,0,0:0:0:0:
256,192,122008,1,0,0:0:0:0:
256,192,122850,1,2,0:0:0:0:
256,192,123165,12,0,126639,0:0:0:0:
