osu file format v14

[General]
AudioFilename: audio.mp3
AudioLeadIn: 0
PreviewTime: 75718
Countdown: 0
SampleSet: Normal
StackLeniency: 0.7
Mode: 1
LetterboxInBreaks: 0
WidescreenStoryboard: 1

[Editor]
DistanceSpacing: 1.2
BeatDivisor: 4
GridSize: 32
TimelineZoom: 2.699999

[Metadata]
Title:Reason of being
TitleUnicode:Reason of being
Artist:sak respect for Arata Iiyoshi
ArtistUnicode:sak respect for Arata Iiyoshi
Creator:D o t
Version:Oni
Source:BMS
Tags:Pokémon Nintendo NDS Mystery Dungeon Explorers of the Darkness Time Sky ポケモン不思議のダンジョン 空の探検隊 時の探検隊 闇の探検隊 とざくろ Tozakuro Portable Memories March BMS Edition Optie しろやぎとざくろ Pikachu Chimchar Primal Dialga Final Boss Battle Theme Fight to The Finish Remix Finale tasuke912 yassu-
BeatmapID:1699508
BeatmapSetID:809965

[Difficulty]
HPDrainRate:5
CircleSize:5
OverallDifficulty:5
ApproachRate:5
SliderMultiplier:1.4
SliderTickRate:1

[Events]
//Background and Video events
0,0,"BG.jpg",0,-120
Video,-100,"BGA.mp4"
//Break Periods
//Storyboard Layer 0 (Background)
//Storyboard Layer 1 (Fail)
//Storyboard Layer 2 (Pass)
//Storyboard Layer 3 (Foreground)
//Storyboard Sound Samples

[TimingPoints]
10,315.789473684211,6,1,0,60,1,0
10,-133.333333333333,6,1,0,60,0,0
3799,315.789473684211,8,1,0,60,1,0
3799,-133.333333333333,8,1,0,60,0,0
6325,315.789473684211,6,1,0,60,1,0
6325,-133.333333333333,6,1,0,60,0,0
13509,-100,6,1,0,90,0,0
13903,315.789473684211,3,1,0,90,1,0
29218,-133.333333333333,3,1,0,70,0,0
36008,-133.333333333333,3,1,0,80,0,0
36639,-100,3,1,0,90,0,0
59456,-100,3,1,0,80,0,0
66956,-100,3,1,0,85,0,0
75797,-100,3,1,0,60,0,0
76350,-100,6,1,0,80,0,0
76429,-100,3,1,0,90,0,1
91587,-100,3,1,0,90,0,0
106745,-100,3,1,0,90,0,1
114324,-100,27,1,0,90,0,0
114482,-100,3,1,0,60,0,0
120008,-119.047619047619,3,1,0,45,0,0
120324,375.93984962406,3,1,0,40,1,8
120699,388.349514563107,3,1,0,40,1,8
120699,-97.0873786407767,3,1,0,40,0,0
121087,421.644413211525,3,1,0,40,1,0
121087,-89.2857142857143,3,1,0,40,0,0
121508,500,3,1,0,40,1,8
121508,-75.187969924812,3,1,0,40,0,0
122008,842.696629213483,3,1,0,40,1,8
122008,-44.6428571428571,3,1,0,40,0,0
122850,1263.15789473684,3,1,0,40,1,0
122850,-29.7619047619048,3,1,0,40,0,0
123165,-29.7619047619048,3,1,0,10,0,0

[HitObjects]
256,192,10,5,2,0:0:0:0:
256,192,957,1,2,0:0:0:0:
256,192,1905,1,2,0:0:0:0:
256,192,3799,1,6,0:0:0:0:
256,192,6325,1,2,0:0:0:0:
256,192,7272,1,2,0:0:0:0:
256,192,8219,1,2,0:0:0:0:
256,192,10114,1,6,0:0:0:0:
256,192,12009,1,2,0:0:0:0:
256,192,13588,1,2,0:0:0:0:
256,192,13667,1,2,0:0:0:0:
256,192,13746,1,0,0:0:0:0:
256,192,13825,1,0,0:0:0:0:
256,192,13903,1,2,0:0:0:0:
256,192,14061,1,0,0:0:0:0:
256,192,14218,1,0,0:0:0:0:
256,192,14377,1,2,0:0:0:0:
256,192,14535,1,0,0:0:0:0:
256,192,14614,1,0,0:0:0:0:
256,192,14693,1,0,0:0:0:0:
256,192,14851,1,2,0:0:0:0:
256,192,15167,1,0,0:0:0:0:
256,192,15325,1,2,0:0:0:0:
256,192,15482,1,0,0:0:0:0:
256,192,15640,1,0,0:0:0:0:
256,192,15719,1,0,0:0:0:0:
256,192,15798,1,2,0:0:0:0:
256,192,15956,1,0,0:0:0:0:
256,192,16114,1,0,0:0:0:0:
256,192,16272,1,2,0:0:0:0:
256,192,16430,1,0,0:0:0:0:
256,192,16509,1,0,0:0:0:0:
256,192,16588,1,0,0:0:0:0:
256,192,16746,1,2,0:0:0:0:
256,192,17061,1,2,0:0:0:0:
256,192,17219,1,0,0:0:0:0:
256,192,17377,1,2,0:0:0:0:
256,192,17693,1,2,0:0:0:0:
256,192,17851,1,0,0:0:0:0:
256,192,18009,1,0,0:0:0:0:
256,192,18167,1,2,0:0:0:0:
256,192,18325,1,0,0:0:0:0:
256,192,18403,1,0,0:0:0:0:
256,192,18482,1,0,0:0:0:0:
256,192,18640,1,2,0:0:0:0:
256,192,18956,1,0,0:0:0:0:
256,192,19114,1,2,0:0:0:0:
256,192,19272,1,0,0:0:0:0:
256,192,19430,1,0,0:0:0:0:
256,192,19509,1,0,0:0:0:0:
256,192,19588,1,2,0:0:0:0:
256,192,19746,1,0,0:0:0:0:
256,192,19903,1,0,0:0:0:0:
256,192,20061,1,2,0:0:0:0:
256,192,20219,1,0,0:0:0:0:
256,192,20298,1,0,0:0:0:0:
256,192,20377,1,0,0:0:0:0:
256,192,20535,1,2,0:0:0:0:
256,192,20851,1,0,0:0:0:0:
256,192,21009,1,0,0:0:0:0:
256,192,21167,1,2,0:0:0:0:
256,192,21325,1,0,0:0:0:0:
256,192,21482,1,6,0:0:0:0:
256,192,21640,1,0,0:0:0:0:
256,192,21798,1,0,0:0:0:0:
256,192,21956,1,2,0:0:0:0:
256,192,22114,1,0,0:0:0:0:
256,192,22193,1,0,0:0:0:0:
256,192,22272,1,0,0:0:0:0:
256,192,22430,1,2,0:0:0:0:
256,192,22746,1,0,0:0:0:0:
256,192,22903,1,2,0:0:0:0:
256,192,23061,1,0,0:0:0:0:
256,192,23219,1,0,0:0:0:0:
256,192,23298,1,0,0:0:0:0:
256,192,23377,1,2,0:0:0:0:
256,192,23535,1,0,0:0:0:0:
256,192,23693,1,0,0:0:0:0:
256,192,23851,1,2,0:0:0:0:
256,192,24009,1,0,0:0:0:0:
256,192,24088,1,0,0:0:0:0:
256,192,24167,1,0,0:0:0:0:
256,192,24325,1,2,0:0:0:0:
256,192,24640,1,2,0:0:0:0:
256,192,24798,1,0,0:0:0:0:
256,192,24956,1,2,0:0:0:0:
256,192,25272,1,2,0:0:0:0:
256,192,25430,1,0,0:0:0:0:
256,192,25588,1,0,0:0:0:0:
256,192,25746,1,2,0:0:0:0:
256,192,25903,1,0,0:0:0:0:
256,192,25982,1,0,0:0:0:0:
256,192,26061,1,0,0:0:0:0:
256,192,26219,1,2,0:0:0:0:
256,192,26535,1,0,0:0:0:0:
256,192,26693,1,2,0:0:0:0:
256,192,26851,1,0,0:0:0:0:
256,192,27009,1,0,0:0:0:0:
256,192,27088,1,0,0:0:0:0:
256,192,27167,1,2,0:0:0:0:
256,192,27325,1,0,0:0:0:0:
256,192,27482,1,0,0:0:0:0:
256,192,27640,1,2,0:0:0:0:
256,192,27798,1,0,0:0:0:0:
256,192,27877,1,0,0:0:0:0:
256,192,27956,1,0,0:0:0:0:
256,192,28114,1,2,0:0:0:0:
256,192,28271,1,0,0:0:0:0:
256,192,28350,1,0,0:0:0:0:
256,192,28430,1,2,0:0:0:0:
256,192,28588,1,0,0:0:0:0:
256,192,28746,1,2,0:0:0:0:
256,192,28824,1,2,0:0:0:0:
256,192,28903,1,0,0:0:0:0:
256,192,29060,1,6,0:0:0:0:
256,192,29534,1,0,0:0:0:0:
256,192,29850,1,2,0:0:0:0:
256,192,30009,1,2,0:0:0:0:
256,192,30324,1,2,0:0:0:0:
256,192,30639,1,2,0:0:0:0:
256,192,30956,1,0,0:0:0:0:
256,192,31271,1,0,0:0:0:0:
256,192,31429,1,2,0:0:0:0:
256,192,31745,1,2,0:0:0:0:
256,192,31903,1,0,0:0:0:0:
256,192,32534,1,0,0:0:0:0:
256,192,32851,1,2,0:0:0:0:
256,192,33324,1,0,0:0:0:0:
256,192,33639,1,2,0:0:0:0:
256,192,33798,1,2,0:0:0:0:
256,192,34113,1,2,0:0:0:0:
256,192,34429,1,2,0:0:0:0:
256,192,34746,1,0,0:0:0:0:
256,192,35061,1,0,0:0:0:0:
256,192,35219,1,2,0:0:0:0:
256,192,35377,1,2,0:0:0:0:
256,192,35693,1,0,0:0:0:0:
256,192,36008,1,2,0:0:0:0:
256,192,36087,1,0,0:0:0:0:
256,192,36166,1,2,0:0:0:0:
256,192,36245,1,0,0:0:0:0:
256,192,36325,1,2,0:0:0:0:
256,192,36482,1,2,0:0:0:0:
256,192,36640,1,4,0:0:0:0:
256,192,36877,1,0,0:0:0:0:
256,192,37114,1,0,0:0:0:0:
256,192,37193,1,0,0:0:0:0:
256,192,37272,1,2,0:0:0:0:
256,192,37588,1,0,0:0:0:0:
256,192,37825,1,2,0:0:0:0:
256,192,38061,1,0,0:0:0:0:
256,192,38140,1,0,0:0:0:0:
256,192,38219,1,2,0:0:0:0:
256,192,38535,1,0,0:0:0:0:
256,192,38772,1,0,0:0:0:0:
256,192,39009,1,2,0:0:0:0:
256,192,39088,1,0,0:0:0:0:
256,192,39167,1,2,0:0:0:0:
256,192,39482,1,0,0:0:0:0:
256,192,39719,1,2,0:0:0:0:
256,192,39956,1,2,0:0:0:0:
256,192,40035,1,0,0:0:0:0:
256,192,40114,1,2,0:0:0:0:
256,192,40430,1,0,0:0:0:0:
256,192,40667,1,0,0:0:0:0:
256,192,40903,1,0,0:0:0:0:
256,192,40982,1,0,0:0:0:0:
256,192,41061,1,2,0:0:0:0:
256,192,41377,1,0,0:0:0:0:
256,192,41614,1,2,0:0:0:0:
256,192,41851,1,0,0:0:0:0:
256,192,41930,1,0,0:0:0:0:
256,192,42009,1,2,0:0:0:0:
256,192,42325,1,0,0:0:0:0:
256,192,42561,1,0,0:0:0:0:
256,192,42798,1,0,0:0:0:0:
256,192,42876,1,2,0:0:0:0:
256,192,42956,1,2,0:0:0:0:
256,192,43272,1,0,0:0:0:0:
256,192,43509,1,2,0:0:0:0:
256,192,43746,1,2,0:0:0:0:
256,192,43825,1,2,0:0:0:0:
256,192,43903,1,0,0:0:0:0:
256,192,44061,1,2,0:0:0:0:
256,192,44219,1,4,0:0:0:0:
256,192,44377,1,0,0:0:0:0:
256,192,44535,1,2,0:0:0:0:
256,192,44693,1,0,0:0:0:0:
256,192,44851,1,2,0:0:0:0:
256,192,45009,1,2,0:0:0:0:
256,192,45088,1,2,0:0:0:0:
256,192,45167,1,0,0:0:0:0:
256,192,45325,1,0,0:0:0:0:
256,192,45482,1,2,0:0:0:0:
256,192,45640,1,0,0:0:0:0:
256,192,45719,1,0,0:0:0:0:
256,192,45798,1,2,0:0:0:0:
256,192,46114,1,0,0:0:0:0:
256,192,46272,1,0,0:0:0:0:
256,192,46351,1,0,0:0:0:0:
256,192,46430,1,2,0:0:0:0:
256,192,46588,1,0,0:0:0:0:
256,192,46746,1,2,0:0:0:0:
256,192,46903,1,2,0:0:0:0:
256,192,47061,1,0,0:0:0:0:
256,192,47219,1,2,0:0:0:0:
256,192,47298,1,0,0:0:0:0:
256,192,47377,1,2,0:0:0:0:
256,192,47535,1,0,0:0:0:0:
256,192,47693,1,2,0:0:0:0:
256,192,48009,1,0,0:0:0:0:
256,192,48167,1,0,0:0:0:0:
256,192,48246,1,2,0:0:0:0:
256,192,48325,1,2,0:0:0:0:
256,192,48482,1,0,0:0:0:0:
256,192,48640,1,2,0:0:0:0:
256,192,48798,1,2,0:0:0:0:
256,192,48877,1,2,0:0:0:0:
256,192,48956,1,0,0:0:0:0:
256,192,49114,1,0,0:0:0:0:
256,192,49272,1,2,0:0:0:0:
256,192,49430,1,0,0:0:0:0:
256,192,49509,1,0,0:0:0:0:
256,192,49588,1,2,0:0:0:0:
256,192,49903,1,0,0:0:0:0:
256,192,50061,1,0,0:0:0:0:
256,192,50140,1,0,0:0:0:0:
256,192,50219,1,2,0:0:0:0:
256,192,50377,1,2,0:0:0:0:
256,192,50456,1,0,0:0:0:0:
256,192,50535,1,2,0:0:0:0:
256,192,50693,1,2,0:0:0:0:
256,192,50851,1,0,0:0:0:0:
256,192,51009,1,0,0:0:0:0:
256,192,51088,1,2,0:0:0:0:
256,192,51167,1,0,0:0:0:0:
256,192,51325,1,0,0:0:0:0:
256,192,51482,1,2,0:0:0:0:
256,192,51640,1,2,0:0:0:0:
256,192,51719,1,2,0:0:0:0:
256,192,51798,1,0,0:0:0:0:
256,192,52114,1,6,0:0:0:0:
256,192,52272,1,0,0:0:0:0:
256,192,52430,1,2,0:0:0:0:
256,192,52588,1,2,0:0:0:0:
256,192,52667,1,2,0:0:0:0:
256,192,52746,1,0,0:0:0:0:
256,192,52903,1,0,0:0:0:0:
256,192,53061,1,2,0:0:0:0:
256,192,53219,1,0,0:0:0:0:
256,192,53298,1,0,0:0:0:0:
256,192,53377,1,2,0:0:0:0:
256,192,53693,1,0,0:0:0:0:
256,192,53851,1,0,0:0:0:0:
256,192,54009,1,2,0:0:0:0:
256,192,54167,1,0,0:0:0:0:
256,192,54246,1,2,0:0:0:0:
256,192,54325,1,2,0:0:0:0:
256,192,54482,1,2,0:0:0:0:
256,192,54640,1,0,0:0:0:0:
256,192,54798,1,2,0:0:0:0:
256,192,54877,1,2,0:0:0:0:
256,192,54956,1,0,0:0:0:0:
256,192,55114,1,0,0:0:0:0:
256,192,55272,1,2,0:0:0:0:
256,192,55588,1,0,0:0:0:0:
256,192,55746,1,2,0:0:0:0:
256,192,55824,1,0,0:0:0:0:
256,192,55903,1,2,0:0:0:0:
256,192,56061,1,2,0:0:0:0:
256,192,56139,1,0,0:0:0:0:
256,192,56219,1,2,0:0:0:0:
256,192,56377,1,2,0:0:0:0:
256,192,56456,1,2,0:0:0:0:
256,192,56535,1,0,0:0:0:0:
256,192,56693,1,0,0:0:0:0:
256,192,56851,1,2,0:0:0:0:
256,192,57009,1,0,0:0:0:0:
256,192,57088,1,0,0:0:0:0:
256,192,57167,1,2,0:0:0:0:
256,192,57482,1,0,0:0:0:0:
256,192,57640,1,2,0:0:0:0:
256,192,57719,1,0,0:0:0:0:
256,192,57798,1,2,0:0:0:0:
256,192,57956,1,2,0:0:0:0:
256,192,58034,1,0,0:0:0:0:
256,192,58114,1,2,0:0:0:0:
256,192,58271,1,2,0:0:0:0:
256,192,58351,1,2,0:0:0:0:
256,192,58429,1,0,0:0:0:0:
256,192,58587,1,0,0:0:0:0:
256,192,58666,1,0,0:0:0:0:
256,192,58746,1,2,0:0:0:0:
256,192,58825,1,0,0:0:0:0:
256,192,58981,1,0,0:0:0:0:
256,192,59061,1,2,0:0:0:0:
256,192,59219,1,2,0:0:0:0:
256,192,59298,1,2,0:0:0:0:
256,192,59377,1,0,0:0:0:0:
256,192,60166,1,2,0:0:0:0:
256,192,60325,1,2,0:0:0:0:
256,192,60640,1,2,0:0:0:0:
256,192,60955,1,0,0:0:0:0:
256,192,61113,1,2,0:0:0:0:
256,192,61272,1,2,0:0:0:0:
256,192,61587,1,2,0:0:0:0:
256,192,62060,1,2,0:0:0:0:
256,192,62139,1,2,0:0:0:0:
256,192,62218,1,2,0:0:0:0:
256,192,62850,1,0,0:0:0:0:
256,192,63008,1,0,0:0:0:0:
256,192,63167,1,2,0:0:0:0:
256,192,63639,1,2,0:0:0:0:
256,192,63955,1,2,0:0:0:0:
256,192,64114,1,0,0:0:0:0:
256,192,64429,1,2,0:0:0:0:
256,192,64745,1,2,0:0:0:0:
256,192,65060,1,0,0:0:0:0:
256,192,65534,1,2,0:0:0:0:
256,192,65850,1,2,0:0:0:0:
256,192,65929,1,2,0:0:0:0:
256,192,66008,1,2,0:0:0:0:
256,192,66325,1,0,0:0:0:0:
256,192,66430,1,0,0:0:0:0:
256,192,66535,1,0,0:0:0:0:
256,192,66640,1,2,0:0:0:0:
256,192,66798,1,2,0:0:0:0:
256,192,66956,1,4,0:0:0:0:
256,192,67272,1,0,0:0:0:0:
256,192,67430,1,0,0:0:0:0:
256,192,67588,1,2,0:0:0:0:
256,192,67903,1,2,0:0:0:0:
256,192,68219,1,0,0:0:0:0:
256,192,68535,1,0,0:0:0:0:
256,192,68693,1,0,0:0:0:0:
256,192,68851,1,2,0:0:0:0:
256,192,69167,1,0,0:0:0:0:
256,192,69325,1,2,0:0:0:0:
256,192,69482,1,2,0:0:0:0:
256,192,69798,1,0,0:0:0:0:
256,192,70114,1,0,0:0:0:0:
256,192,70430,1,2,0:0:0:0:
256,192,70535,1,0,0:0:0:0:
256,192,70640,1,0,0:0:0:0:
256,192,70746,1,2,0:0:0:0:
256,192,71061,1,0,0:0:0:0:
256,192,71219,1,0,0:0:0:0:
256,192,71377,1,2,0:0:0:0:
256,192,71693,1,0,0:0:0:0:
256,192,72009,1,2,0:0:0:0:
256,192,72167,1,2,0:0:0:0:
256,192,72325,1,0,0:0:0:0:
256,192,72640,1,6,0:0:0:0:
256,192,73588,1,2,0:0:0:0:
256,192,74535,2,0,L|192:192,12,35
256,192,75798,1,0,0:0:0:0:
256,192,75956,1,0,0:0:0:0:
256,192,76114,1,2,0:0:0:0:
256,192,76272,1,2,0:0:0:0:
256,192,76430,1,4,0:0:0:0:
256,192,76746,1,0,0:0:0:0:
256,192,76903,1,2,0:0:0:0:
256,192,76982,1,2,0:0:0:0:
256,192,77061,1,0,0:0:0:0:
256,192,77219,1,2,0:0:0:0:
256,192,77377,1,0,0:0:0:0:
256,192,77693,1,0,0:0:0:0:
256,192,78009,1,2,0:0:0:0:
256,192,78325,1,0,0:0:0:0:
256,192,78640,1,0,0:0:0:0:
256,192,78798,1,0,0:0:0:0:
256,192,78956,1,2,0:0:0:0:
256,192,79114,1,0,0:0:0:0:
256,192,79193,1,0,0:0:0:0:
256,192,79272,1,2,0:0:0:0:
256,192,79588,1,0,0:0:0:0:
256,192,79746,1,2,0:0:0:0:
256,192,79903,1,0,0:0:0:0:
256,192,79982,1,0,0:0:0:0:
256,192,80061,1,2,0:0:0:0:
256,192,80140,1,0,0:0:0:0:
256,192,80219,1,2,0:0:0:0:
256,192,80535,1,0,0:0:0:0:
256,192,80693,1,2,0:0:0:0:
256,192,80772,1,2,0:0:0:0:
256,192,80851,1,0,0:0:0:0:
256,192,81009,1,0,0:0:0:0:
256,192,81167,1,2,0:0:0:0:
256,192,81482,1,0,0:0:0:0:
256,192,81798,1,2,0:0:0:0:
256,192,82114,1,0,0:0:0:0:
256,192,82430,1,0,0:0:0:0:
256,192,82588,1,0,0:0:0:0:
256,192,82746,1,2,0:0:0:0:
256,192,82903,1,0,0:0:0:0:
256,192,82982,1,0,0:0:0:0:
256,192,83061,1,2,0:0:0:0:
256,192,83377,1,2,0:0:0:0:
256,192,83535,1,0,0:0:0:0:
256,192,83693,1,2,0:0:0:0:
256,192,83772,1,2,0:0:0:0:
256,192,83851,1,0,0:0:0:0:
256,192,83930,1,0,0:0:0:0:
256,192,84009,1,2,0:0:0:0:
256,192,84325,1,0,0:0:0:0:
256,192,84482,1,0,0:0:0:0:
256,192,84640,1,2,0:0:0:0:
256,192,84798,1,0,0:0:0:0:
256,192,84877,1,0,0:0:0:0:
256,192,84956,1,2,0:0:0:0:
256,192,85272,1,0,0:0:0:0:
256,192,85588,1,2,0:0:0:0:
256,192,85903,1,0,0:0:0:0:
256,192,86219,1,0,0:0:0:0:
256,192,86377,1,0,0:0:0:0:
256,192,86535,1,2,0:0:0:0:
256,192,86693,1,0,0:0:0:0:
256,192,86772,1,0,0:0:0:0:
256,192,86851,1,2,0:0:0:0:
256,192,87167,1,2,0:0:0:0:
256,192,87325,1,2,0:0:0:0:
256,192,87482,1,0,0:0:0:0:
256,192,87561,1,0,0:0:0:0:
256,192,87640,1,2,0:0:0:0:
256,192,87719,1,2,0:0:0:0:
256,192,87798,1,0,0:0:0:0:
256,192,88114,1,0,0:0:0:0:
256,192,88272,1,2,0:0:0:0:
256,192,88430,1,0,0:0:0:0:
256,192,88588,1,0,0:0:0:0:
256,192,88667,1,0,0:0:0:0:
256,192,88746,1,2,0:0:0:0:
256,192,88903,1,0,0:0:0:0:
256,192,89061,1,2,0:0:0:0:
256,192,89140,1,2,0:0:0:0:
256,192,89219,1,0,0:0:0:0:
256,192,89298,1,0,0:0:0:0:
256,192,89377,1,2,0:0:0:0:
256,192,89535,1,0,0:0:0:0:
256,192,89693,1,6,0:0:0:0:
256,192,90167,1,6,0:0:0:0:
256,192,90640,1,6,0:0:0:0:
256,192,91113,1,6,0:0:0:0:
256,192,91588,1,6,0:0:0:0:
256,192,91825,1,0,0:0:0:0:
256,192,92061,1,0,0:0:0:0:
256,192,92219,1,2,0:0:0:0:
256,192,92377,1,0,0:0:0:0:
256,192,92535,1,2,0:0:0:0:
256,192,92772,1,2,0:0:0:0:
256,192,93009,1,2,0:0:0:0:
256,192,93088,1,0,0:0:0:0:
256,192,93167,1,2,0:0:0:0:
256,192,93482,1,0,0:0:0:0:
256,192,93719,1,0,0:0:0:0:
256,192,93956,1,0,0:0:0:0:
256,192,94114,1,2,0:0:0:0:
256,192,94272,1,2,0:0:0:0:
256,192,94429,1,0,0:0:0:0:
256,192,94667,1,0,0:0:0:0:
256,192,94903,1,0,0:0:0:0:
256,192,94982,1,0,0:0:0:0:
256,192,95061,1,2,0:0:0:0:
256,192,95376,1,0,0:0:0:0:
256,192,95614,1,0,0:0:0:0:
256,192,95851,1,0,0:0:0:0:
256,192,96009,1,2,0:0:0:0:
256,192,96167,1,0,0:0:0:0:
256,192,96325,1,2,0:0:0:0:
256,192,96561,1,2,0:0:0:0:
256,192,96798,1,2,0:0:0:0:
256,192,96877,1,0,0:0:0:0:
256,192,96956,1,2,0:0:0:0:
256,192,97272,1,0,0:0:0:0:
256,192,97509,1,0,0:0:0:0:
256,192,97746,1,0,0:0:0:0:
256,192,97903,1,2,0:0:0:0:
256,192,98061,1,2,0:0:0:0:
256,192,98219,1,0,0:0:0:0:
256,192,98456,1,0,0:0:0:0:
256,192,98693,1,0,0:0:0:0:
256,192,98772,1,0,0:0:0:0:
256,192,98851,1,2,0:0:0:0:
256,192,99167,1,0,0:0:0:0:
256,192,99403,1,0,0:0:0:0:
256,192,99640,1,0,0:0:0:0:
256,192,99798,1,2,0:0:0:0:
256,192,99956,1,0,0:0:0:0:
256,192,100114,1,2,0:0:0:0:
256,192,100351,1,2,0:0:0:0:
256,192,100587,1,2,0:0:0:0:
256,192,100667,1,0,0:0:0:0:
256,192,100746,1,2,0:0:0:0:
256,192,101061,1,0,0:0:0:0:
256,192,101298,1,0,0:0:0:0:
256,192,101535,1,0,0:0:0:0:
256,192,101693,1,2,0:0:0:0:
256,192,101851,1,2,0:0:0:0:
256,192,102009,1,0,0:0:0:0:
256,192,102246,1,0,0:0:0:0:
256,192,102482,1,0,0:0:0:0:
256,192,102561,1,0,0:0:0:0:
256,192,102640,1,2,0:0:0:0:
256,192,102956,1,4,0:0:0:0:
256,192,103272,1,2,0:0:0:0:
256,192,103377,1,0,0:0:0:0:
256,192,103482,1,0,0:0:0:0:
256,192,103588,1,2,0:0:0:0:
256,192,103746,1,0,0:0:0:0:
256,192,103903,1,6,0:0:0:0:
256,192,104219,1,2,0:0:0:0:
256,192,104298,1,0,0:0:0:0:
256,192,104377,1,2,0:0:0:0:
256,192,104535,1,4,0:0:0:0:
256,192,104693,1,0,0:0:0:0:
256,192,104851,1,6,0:0:0:0:
256,192,105167,1,2,0:0:0:0:
256,192,105272,1,2,0:0:0:0:
256,192,105377,1,2,0:0:0:0:
256,192,105482,1,0,0:0:0:0:
256,192,105640,1,2,0:0:0:0:
256,192,105798,1,4,0:0:0:0:
256,192,105956,1,0,0:0:0:0:
256,192,106035,1,0,0:0:0:0:
256,192,106114,1,2,0:0:0:0:
256,192,106193,1,2,0:0:0:0:
256,192,106272,1,0,0:0:0:0:
256,192,106430,1,2,0:0:0:0:
256,192,106588,1,2,0:0:0:0:
256,192,106667,1,2,0:0:0:0:
256,192,106746,1,0,0:0:0:0:
256,192,107061,1,0,0:0:0:0:
256,192,107219,1,0,0:0:0:0:
256,192,107377,1,2,0:0:0:0:
256,192,107535,1,0,0:0:0:0:
256,192,107614,1,0,0:0:0:0:
256,192,107693,1,2,0:0:0:0:
256,192,108009,1,2,0:0:0:0:
256,192,108167,1,0,0:0:0:0:
256,192,108325,1,2,0:0:0:0:
256,192,108403,1,2,0:0:0:0:
256,192,108482,1,0,0:0:0:0:
256,192,108561,1,0,0:0:0:0:
256,192,108640,1,2,0:0:0:0:
256,192,108956,1,0,0:0:0:0:
256,192,109114,1,0,0:0:0:0:
256,192,109272,1,2,0:0:0:0:
256,192,109430,1,2,0:0:0:0:
256,192,109509,1,0,0:0:0:0:
256,192,109588,1,2,0:0:0:0:
256,192,109903,1,2,0:0:0:0:
256,192,110061,1,0,0:0:0:0:
256,192,110219,1,2,0:0:0:0:
256,192,110298,1,0,0:0:0:0:
256,192,110377,1,2,0:0:0:0:
256,192,110456,1,2,0:0:0:0:
256,192,110535,1,0,0:0:0:0:
256,192,110851,1,0,0:0:0:0:
256,192,111009,1,0,0:0:0:0:
256,192,111167,1,2,0:0:0:0:
256,192,111325,1,0,0:0:0:0:
256,192,111403,1,0,0:0:0:0:
256,192,111482,1,2,0:0:0:0:
256,192,111798,1,2,0:0:0:0:
256,192,111956,1,0,0:0:0:0:
256,192,112114,1,2,0:0:0:0:
256,192,112193,1,2,0:0:0:0:
256,192,112272,1,0,0:0:0:0:
256,192,112351,1,0,0:0:0:0:
256,192,112430,1,2,0:0:0:0:
256,192,112746,1,0,0:0:0:0:
256,192,112903,1,0,0:0:0:0:
256,192,113061,1,2,0:0:0:0:
256,192,113219,1,2,0:0:0:0:
256,192,113298,1,0,0:0:0:0:
256,192,113377,1,2,0:0:0:0:
256,192,113693,1,2,0:0:0:0:
256,192,113851,1,0,0:0:0:0:
256,192,114009,1,2,0:0:0:0:
256,192,114088,1,2,0:0:0:0:
256,192,114167,1,2,0:0:0:0:
256,192,114325,1,4,0:0:0:0:
256,192,116535,1,2,0:0:0:0:
256,192,116851,1,0,0:0:0:0:
256,192,117167,1,2,0:0:0:0:
256,192,117482,1,0,0:0:0:0:
256,192,117798,1,0,0:0:0:0:
256,192,118114,1,2,0:0:0:0:
256,192,120324,1,2,0:0:0:0:
256,192,120699,1,0,0:0:0:0:
256,192,121087,1,2,0:0:0:0:
256,192,121508,1,0,0:0:0:0:
256,192,122008,1,0,0:0:0:0:
256,192,122850,1,2,0:0:0:0:
256,192,123165,12,0,126639,0:0:0:0:
