osu file format v14

[General]
AudioFilename: audio.mp3
AudioLeadIn: 0
PreviewTime: 75718
Countdown: 0
SampleSet: Normal
StackLeniency: 0.7
Mode: 1
LetterboxInBreaks: 0
WidescreenStoryboard: 1

[Editor]
DistanceSpacing: 1.2
BeatDivisor: 4
GridSize: 32
TimelineZoom: 2

[Metadata]
Title:Reason of being
TitleUnicode:Reason of being
Artist:sak respect for Arata Iiyoshi
ArtistUnicode:sak respect for Arata Iiyoshi
Creator:D o t
Version:Muzukashii
Source:BMS
Tags:Pokémon Nintendo NDS Mystery Dungeon Explorers of the Darkness Time Sky ポケモン不思議のダンジョン 空の探検隊 時の探検隊 闇の探検隊 とざくろ Tozakuro Portable Memories March BMS Edition Optie しろやぎとざくろ Pikachu Chimchar Primal Dialga Final Boss Battle Theme Fight to The Finish Remix Finale tasuke912 yassu-
BeatmapID:1699507
BeatmapSetID:809965

[Difficulty]
HPDrainRate:5.5
CircleSize:5
OverallDifficulty:4.5
ApproachRate:5
SliderMultiplier:1.4
SliderTickRate:1

[Events]
//Background and Video events
0,0,"BG.jpg",0,-120
Video,-100,"BGA.mp4"
//Break Periods
//Storyboard Layer 0 (Background)
//Storyboard Layer 1 (Fail)
//Storyboard Layer 2 (Pass)
//Storyboard Layer 3 (Foreground)
//Storyboard Sound Samples

[TimingPoints]
10,315.789473684211,6,1,0,60,1,0
10,-133.333333333333,6,1,0,60,0,0
3799,315.789473684211,8,1,0,60,1,0
3799,-133.333333333333,8,1,0,60,0,0
6325,315.789473684211,6,1,0,60,1,0
6325,-133.333333333333,6,1,0,60,0,0
13509,-100,6,1,0,90,0,0
13903,315.789473684211,3,1,0,90,1,0
29218,-133.333333333333,3,1,0,70,0,0
36008,-133.333333333333,3,1,0,80,0,0
36639,-100,3,1,0,90,0,0
59456,-100,3,1,0,80,0,0
66956,-100,3,1,0,85,0,0
75797,-100,3,1,0,60,0,0
76350,-100,6,1,0,80,0,0
76429,-100,3,1,0,90,0,1
91587,-100,3,1,0,90,0,0
106745,-100,3,1,0,90,0,1
114324,-100,27,1,0,90,0,0
114482,-100,3,1,0,60,0,0
120008,-119.047619047619,3,1,0,45,0,0
120324,375.93984962406,3,1,0,40,1,8
120699,388.349514563107,3,1,0,40,1,8
120699,-97.0873786407767,3,1,0,40,0,0
121087,421.644413211525,3,1,0,40,1,0
121087,-89.2857142857143,3,1,0,40,0,0
121508,500,3,1,0,40,1,8
121508,-75.187969924812,3,1,0,40,0,0
122008,842.696629213483,3,1,0,40,1,8
122008,-44.6428571428571,3,1,0,40,0,0
122850,1263.15789473684,3,1,0,40,1,0
122850,-29.7619047619048,3,1,0,40,0,0
123165,-29.7619047619048,3,1,0,10,0,0

[HitObjects]
256,192,10,5,2,0:0:0:0:
256,192,957,1,2,0:0:0:0:
256,192,1904,1,2,0:0:0:0:
256,192,3799,1,6,0:0:0:0:
256,192,6325,1,2,0:0:0:0:
256,192,7272,1,2,0:0:0:0:
256,192,8219,1,2,0:0:0:0:
256,192,10114,1,6,0:0:0:0:
256,192,12009,1,2,0:0:0:0:
256,192,13903,1,4,0:0:0:0:
256,192,14218,1,0,0:0:0:0:
256,192,14376,1,2,0:0:0:0:
256,192,14534,1,2,0:0:0:0:
256,192,14693,1,0,0:0:0:0:
256,192,14851,1,0,0:0:0:0:
256,192,15167,1,0,0:0:0:0:
256,192,15481,1,0,0:0:0:0:
256,192,15639,1,0,0:0:0:0:
256,192,15797,1,2,0:0:0:0:
256,192,16113,1,0,0:0:0:0:
256,192,16271,1,2,0:0:0:0:
256,192,16429,1,0,0:0:0:0:
256,192,16588,1,0,0:0:0:0:
256,192,16746,1,2,0:0:0:0:
256,192,17061,1,2,0:0:0:0:
256,192,17218,1,0,0:0:0:0:
256,192,17376,1,2,0:0:0:0:
256,192,17693,1,0,0:0:0:0:
256,192,18008,1,0,0:0:0:0:
256,192,18166,1,2,0:0:0:0:
256,192,18324,1,2,0:0:0:0:
256,192,18481,1,0,0:0:0:0:
256,192,18639,1,0,0:0:0:0:
256,192,18956,1,0,0:0:0:0:
256,192,19271,1,0,0:0:0:0:
256,192,19429,1,0,0:0:0:0:
256,192,19588,1,2,0:0:0:0:
256,192,19903,1,0,0:0:0:0:
256,192,20060,1,2,0:0:0:0:
256,192,20218,1,0,0:0:0:0:
256,192,20376,1,0,0:0:0:0:
256,192,20534,1,2,0:0:0:0:
256,192,20850,1,0,0:0:0:0:
256,192,21166,1,2,0:0:0:0:
256,192,21482,1,4,0:0:0:0:
256,192,21797,1,2,0:0:0:0:
256,192,21956,1,0,0:0:0:0:
256,192,22034,1,0,0:0:0:0:
256,192,22113,1,0,0:0:0:0:
256,192,22272,1,2,0:0:0:0:
256,192,22430,1,0,0:0:0:0:
256,192,22746,1,0,0:0:0:0:
256,192,23060,1,0,0:0:0:0:
256,192,23219,1,2,0:0:0:0:
256,192,23376,1,0,0:0:0:0:
256,192,23692,1,2,0:0:0:0:
256,192,23850,1,0,0:0:0:0:
256,192,23929,1,0,0:0:0:0:
256,192,24008,1,0,0:0:0:0:
256,192,24166,1,2,0:0:0:0:
256,192,24324,1,0,0:0:0:0:
256,192,24639,1,2,0:0:0:0:
256,192,24797,1,0,0:0:0:0:
256,192,24955,1,2,0:0:0:0:
256,192,25271,1,0,0:0:0:0:
256,192,25587,1,2,0:0:0:0:
256,192,25745,1,0,0:0:0:0:
256,192,25824,1,0,0:0:0:0:
256,192,25903,1,0,0:0:0:0:
256,192,26060,1,2,0:0:0:0:
256,192,26219,1,0,0:0:0:0:
256,192,26535,1,0,0:0:0:0:
256,192,26850,1,0,0:0:0:0:
256,192,27009,1,2,0:0:0:0:
256,192,27167,1,0,0:0:0:0:
256,192,27481,1,2,0:0:0:0:
256,192,27639,1,0,0:0:0:0:
256,192,27718,1,0,0:0:0:0:
256,192,27797,1,0,0:0:0:0:
256,192,27955,1,2,0:0:0:0:
256,192,28113,1,0,0:0:0:0:
256,192,28430,1,0,0:0:0:0:
256,192,28587,1,0,0:0:0:0:
256,192,28745,1,2,0:0:0:0:
256,192,29061,1,6,0:0:0:0:
256,192,29534,1,0,0:0:0:0:
256,192,29850,1,2,0:0:0:0:
256,192,30009,1,2,0:0:0:0:
256,192,30639,1,2,0:0:0:0:
256,192,30956,1,0,0:0:0:0:
256,192,31271,1,0,0:0:0:0:
256,192,31429,1,2,0:0:0:0:
256,192,31744,1,2,0:0:0:0:
256,192,31903,1,0,0:0:0:0:
256,192,32534,1,0,0:0:0:0:
256,192,32851,1,2,0:0:0:0:
256,192,33324,1,0,0:0:0:0:
256,192,33639,1,2,0:0:0:0:
256,192,33798,1,2,0:0:0:0:
256,192,34429,1,2,0:0:0:0:
256,192,34745,1,0,0:0:0:0:
256,192,35219,1,2,0:0:0:0:
256,192,35535,1,2,0:0:0:0:
256,192,35693,1,0,0:0:0:0:
256,192,36009,1,2,0:0:0:0:
256,192,36325,1,2,0:0:0:0:
256,192,36640,1,4,0:0:0:0:
256,192,36877,1,0,0:0:0:0:
256,192,37114,1,0,0:0:0:0:
256,192,37272,1,2,0:0:0:0:
256,192,37588,1,0,0:0:0:0:
256,192,37825,1,2,0:0:0:0:
256,192,38061,1,2,0:0:0:0:
256,192,38219,1,0,0:0:0:0:
256,192,38535,1,0,0:0:0:0:
256,192,38772,1,0,0:0:0:0:
256,192,39009,1,0,0:0:0:0:
256,192,39167,1,2,0:0:0:0:
256,192,39482,1,0,0:0:0:0:
256,192,39719,1,0,0:0:0:0:
256,192,39956,1,2,0:0:0:0:
256,192,40114,1,0,0:0:0:0:
256,192,40430,1,0,0:0:0:0:
256,192,40667,1,0,0:0:0:0:
256,192,40903,1,0,0:0:0:0:
256,192,41061,1,2,0:0:0:0:
256,192,41377,1,0,0:0:0:0:
256,192,41614,1,2,0:0:0:0:
256,192,41851,1,2,0:0:0:0:
256,192,42009,1,0,0:0:0:0:
256,192,42325,1,0,0:0:0:0:
256,192,42561,1,0,0:0:0:0:
256,192,42798,1,2,0:0:0:0:
256,192,42956,1,2,0:0:0:0:
256,192,43272,1,2,0:0:0:0:
256,192,43746,1,0,0:0:0:0:
256,192,43903,1,2,0:0:0:0:
256,192,44061,1,2,0:0:0:0:
256,192,44219,1,4,0:0:0:0:
256,192,44535,1,2,0:0:0:0:
256,192,44693,1,0,0:0:0:0:
256,192,44851,1,2,0:0:0:0:
256,192,45008,1,0,0:0:0:0:
256,192,45087,1,0,0:0:0:0:
256,192,45166,1,0,0:0:0:0:
256,192,45325,1,0,0:0:0:0:
256,192,45482,1,2,0:0:0:0:
256,192,45640,1,0,0:0:0:0:
256,192,45798,1,2,0:0:0:0:
256,192,46114,1,0,0:0:0:0:
256,192,46430,1,2,0:0:0:0:
256,192,46588,1,2,0:0:0:0:
256,192,46746,1,2,0:0:0:0:
256,192,47061,1,0,0:0:0:0:
256,192,47218,1,2,0:0:0:0:
256,192,47297,1,2,0:0:0:0:
256,192,47376,1,2,0:0:0:0:
256,192,47535,1,0,0:0:0:0:
256,192,47693,1,2,0:0:0:0:
256,192,48009,1,0,0:0:0:0:
256,192,48325,1,2,0:0:0:0:
256,192,48482,1,0,0:0:0:0:
256,192,48640,1,2,0:0:0:0:
256,192,48797,1,0,0:0:0:0:
256,192,48876,1,0,0:0:0:0:
256,192,48956,1,0,0:0:0:0:
256,192,49114,1,0,0:0:0:0:
256,192,49272,1,2,0:0:0:0:
256,192,49430,1,0,0:0:0:0:
256,192,49588,1,2,0:0:0:0:
256,192,49903,1,0,0:0:0:0:
256,192,50219,1,2,0:0:0:0:
256,192,50377,1,0,0:0:0:0:
256,192,50535,1,2,0:0:0:0:
256,192,50693,1,2,0:0:0:0:
256,192,50851,1,0,0:0:0:0:
256,192,51167,1,0,0:0:0:0:
256,192,51482,1,2,0:0:0:0:
256,192,52113,1,6,0:0:0:0:
256,192,52430,1,2,0:0:0:0:
256,192,52746,1,0,0:0:0:0:
256,192,52903,1,0,0:0:0:0:
256,192,53061,1,2,0:0:0:0:
256,192,53219,1,0,0:0:0:0:
256,192,53377,1,2,0:0:0:0:
256,192,53693,1,0,0:0:0:0:
256,192,53851,1,2,0:0:0:0:
256,192,54009,1,0,0:0:0:0:
256,192,54167,1,2,0:0:0:0:
256,192,54325,1,2,0:0:0:0:
256,192,54640,1,2,0:0:0:0:
256,192,54798,1,0,0:0:0:0:
256,192,54956,1,0,0:0:0:0:
256,192,55114,1,0,0:0:0:0:
256,192,55272,1,2,0:0:0:0:
256,192,55588,1,0,0:0:0:0:
256,192,55746,1,2,0:0:0:0:
256,192,55825,1,2,0:0:0:0:
256,192,55903,1,2,0:0:0:0:
256,192,56061,1,2,0:0:0:0:
256,192,56219,1,0,0:0:0:0:
256,192,56377,1,2,0:0:0:0:
256,192,56535,1,0,0:0:0:0:
256,192,56851,1,0,0:0:0:0:
256,192,57008,1,0,0:0:0:0:
256,192,57167,1,2,0:0:0:0:
256,192,57482,1,0,0:0:0:0:
256,192,57640,1,2,0:0:0:0:
256,192,57719,1,2,0:0:0:0:
256,192,57798,1,2,0:0:0:0:
256,192,57956,1,2,0:0:0:0:
256,192,58114,1,0,0:0:0:0:
256,192,58272,1,2,0:0:0:0:
256,192,58430,1,0,0:0:0:0:
256,192,58745,1,2,0:0:0:0:
256,192,58903,1,2,0:0:0:0:
256,192,59061,1,2,0:0:0:0:
256,192,59377,1,4,0:0:0:0:
256,192,60166,1,2,0:0:0:0:
256,192,60325,1,2,0:0:0:0:
256,192,61113,1,2,0:0:0:0:
256,192,61271,1,2,0:0:0:0:
256,192,62060,1,2,0:0:0:0:
256,192,62139,1,2,0:0:0:0:
256,192,62218,1,2,0:0:0:0:
256,192,63008,1,2,0:0:0:0:
256,192,63167,1,2,0:0:0:0:
256,192,63639,1,2,0:0:0:0:
256,192,63955,1,2,0:0:0:0:
256,192,64113,1,2,0:0:0:0:
256,192,64903,1,2,0:0:0:0:
256,192,65060,1,2,0:0:0:0:
256,192,65534,1,2,0:0:0:0:
256,192,65850,1,2,0:0:0:0:
256,192,65929,1,2,0:0:0:0:
256,192,66009,1,2,0:0:0:0:
256,192,66325,1,0,0:0:0:0:
256,192,66640,1,2,0:0:0:0:
256,192,66956,1,4,0:0:0:0:
256,192,67430,1,0,0:0:0:0:
256,192,67588,1,2,0:0:0:0:
256,192,67903,1,0,0:0:0:0:
256,192,68219,1,0,0:0:0:0:
256,192,68377,1,0,0:0:0:0:
256,192,68535,1,2,0:0:0:0:
256,192,68851,1,2,0:0:0:0:
256,192,69325,1,0,0:0:0:0:
256,192,69482,1,2,0:0:0:0:
256,192,69798,1,2,0:0:0:0:
256,192,70114,1,0,0:0:0:0:
256,192,70272,1,2,0:0:0:0:
256,192,70430,1,2,0:0:0:0:
256,192,70746,1,0,0:0:0:0:
256,192,71377,1,2,0:0:0:0:
256,192,71693,1,2,0:0:0:0:
256,192,72009,1,0,0:0:0:0:
256,192,72325,1,0,0:0:0:0:
256,192,72640,1,6,0:0:0:0:
256,192,73588,1,2,0:0:0:0:
256,192,74535,2,0,L|192:192,12,35
256,192,75798,1,0,0:0:0:0:
256,192,75956,1,0,0:0:0:0:
256,192,76114,1,2,0:0:0:0:
256,192,76272,1,2,0:0:0:0:
256,192,76430,1,4,0:0:0:0:
256,192,76746,1,0,0:0:0:0:
256,192,77061,1,2,0:0:0:0:
256,192,77219,1,2,0:0:0:0:
256,192,77377,1,0,0:0:0:0:
256,192,77693,1,0,0:0:0:0:
256,192,78009,1,2,0:0:0:0:
256,192,78325,1,0,0:0:0:0:
256,192,78956,1,0,0:0:0:0:
256,192,79272,1,2,0:0:0:0:
256,192,79588,1,0,0:0:0:0:
256,192,79903,1,0,0:0:0:0:
256,192,80061,1,0,0:0:0:0:
256,192,80219,1,2,0:0:0:0:
256,192,80535,1,0,0:0:0:0:
256,192,80851,1,2,0:0:0:0:
256,192,81009,1,2,0:0:0:0:
256,192,81167,1,0,0:0:0:0:
256,192,81482,1,0,0:0:0:0:
256,192,81798,1,2,0:0:0:0:
256,192,82114,1,2,0:0:0:0:
256,192,82746,1,0,0:0:0:0:
256,192,83061,1,2,0:0:0:0:
256,192,83377,1,0,0:0:0:0:
256,192,83693,1,0,0:0:0:0:
256,192,84009,1,2,0:0:0:0:
256,192,84325,1,2,0:0:0:0:
256,192,84482,1,0,0:0:0:0:
256,192,84640,1,2,0:0:0:0:
256,192,84798,1,2,0:0:0:0:
256,192,84956,1,0,0:0:0:0:
256,192,85272,1,0,0:0:0:0:
256,192,85588,1,2,0:0:0:0:
256,192,85903,1,0,0:0:0:0:
256,192,86535,1,0,0:0:0:0:
256,192,86851,1,2,0:0:0:0:
256,192,87167,1,0,0:0:0:0:
256,192,87482,1,0,0:0:0:0:
256,192,87640,1,0,0:0:0:0:
256,192,87798,1,2,0:0:0:0:
256,192,88114,1,0,0:0:0:0:
256,192,88430,1,0,0:0:0:0:
256,192,88588,1,2,0:0:0:0:
256,192,88746,1,0,0:0:0:0:
256,192,89061,1,0,0:0:0:0:
256,192,89377,1,2,0:0:0:0:
256,192,89693,1,6,0:0:0:0:
256,192,90167,1,6,0:0:0:0:
256,192,90640,1,6,0:0:0:0:
256,192,91113,1,6,0:0:0:0:
256,192,91588,1,6,0:0:0:0:
256,192,92061,1,0,0:0:0:0:
256,192,92219,1,2,0:0:0:0:
256,192,92377,1,2,0:0:0:0:
256,192,92535,1,0,0:0:0:0:
256,192,92851,1,0,0:0:0:0:
256,192,93167,1,2,0:0:0:0:
256,192,93482,1,0,0:0:0:0:
256,192,93956,1,0,0:0:0:0:
256,192,94114,1,2,0:0:0:0:
256,192,94272,1,0,0:0:0:0:
256,192,94430,1,2,0:0:0:0:
256,192,94746,1,2,0:0:0:0:
256,192,95061,1,0,0:0:0:0:
256,192,95377,1,2,0:0:0:0:
256,192,95851,1,2,0:0:0:0:
256,192,96009,1,0,0:0:0:0:
256,192,96167,1,0,0:0:0:0:
256,192,96325,1,2,0:0:0:0:
256,192,96640,1,0,0:0:0:0:
256,192,96956,1,2,0:0:0:0:
256,192,97272,1,2,0:0:0:0:
256,192,97588,1,0,0:0:0:0:
256,192,97746,1,0,0:0:0:0:
256,192,97903,1,2,0:0:0:0:
256,192,98061,1,0,0:0:0:0:
256,192,98219,1,2,0:0:0:0:
256,192,98535,1,0,0:0:0:0:
256,192,98851,1,0,0:0:0:0:
256,192,99167,1,2,0:0:0:0:
256,192,99640,1,0,0:0:0:0:
256,192,99798,1,2,0:0:0:0:
256,192,99956,1,2,0:0:0:0:
256,192,100114,1,0,0:0:0:0:
256,192,100430,1,0,0:0:0:0:
256,192,100746,1,2,0:0:0:0:
256,192,101061,1,2,0:0:0:0:
256,192,101535,1,0,0:0:0:0:
256,192,101693,1,2,0:0:0:0:
256,192,101851,1,0,0:0:0:0:
256,192,102009,1,2,0:0:0:0:
256,192,102325,1,0,0:0:0:0:
256,192,102640,1,0,0:0:0:0:
256,192,102956,1,6,0:0:0:0:
256,192,103272,1,2,0:0:0:0:
256,192,103377,1,2,0:0:0:0:
256,192,103482,1,2,0:0:0:0:
256,192,103588,1,2,0:0:0:0:
256,192,103903,1,4,0:0:0:0:
256,192,104218,1,2,0:0:0:0:
256,192,104376,1,2,0:0:0:0:
256,192,104535,1,0,0:0:0:0:
256,192,104851,1,6,0:0:0:0:
256,192,105167,1,2,0:0:0:0:
256,192,105272,1,2,0:0:0:0:
256,192,105377,1,2,0:0:0:0:
256,192,105482,1,2,0:0:0:0:
256,192,105797,1,4,0:0:0:0:
256,192,106113,1,2,0:0:0:0:
256,192,106192,1,2,0:0:0:0:
256,192,106271,1,2,0:0:0:0:
256,192,106430,1,0,0:0:0:0:
256,192,106746,1,6,0:0:0:0:
256,192,107376,1,0,0:0:0:0:
256,192,107693,1,2,0:0:0:0:
256,192,108008,1,2,0:0:0:0:
256,192,108166,1,0,0:0:0:0:
256,192,108325,1,2,0:0:0:0:
256,192,108640,1,0,0:0:0:0:
256,192,108955,1,0,0:0:0:0:
256,192,109113,1,0,0:0:0:0:
256,192,109271,1,2,0:0:0:0:
256,192,109588,1,2,0:0:0:0:
256,192,109903,1,0,0:0:0:0:
256,192,110218,1,0,0:0:0:0:
256,192,110535,1,2,0:0:0:0:
256,192,111166,1,0,0:0:0:0:
256,192,111482,1,2,0:0:0:0:
256,192,111798,1,2,0:0:0:0:
256,192,111955,1,0,0:0:0:0:
256,192,112114,1,2,0:0:0:0:
256,192,112430,1,0,0:0:0:0:
256,192,112746,1,2,0:0:0:0:
256,192,112903,1,2,0:0:0:0:
256,192,113061,1,0,0:0:0:0:
256,192,113377,1,2,0:0:0:0:
256,192,113693,1,0,0:0:0:0:
256,192,114008,1,0,0:0:0:0:
256,192,114325,1,6,0:0:0:0:
256,192,116535,1,2,0:0:0:0:
256,192,116851,1,0,0:0:0:0:
256,192,117167,1,2,0:0:0:0:
256,192,117482,1,0,0:0:0:0:
256,192,117798,1,0,0:0:0:0:
256,192,118114,1,2,0:0:0:0:
256,192,120324,1,2,0:0:0:0:
256,192,120699,1,0,0:0:0:0:
256,192,121087,1,2,0:0:0:0:
256,192,121508,1,0,0:0:0:0:
256,192,122008,1,0,0:0:0:0:
256,192,122850,1,2,0:0:0:0:
256,192,123165,12,0,126639,0:0:0:0:
