osu file format v14

[General]
AudioFilename: audio.mp3
AudioLeadIn: 0
PreviewTime: 75482
Countdown: 0
SampleSet: Soft
StackLeniency: 0.7
Mode: 0
LetterboxInBreaks: 0
WidescreenStoryboard: 0

[Editor]
DistanceSpacing: 1.3
BeatDivisor: 4
GridSize: 4
TimelineZoom: 3.099999

[Metadata]
Title:Reason of being
TitleUnicode:Reason of being
Artist:sak respect for Arata Iiyoshi
ArtistUnicode:sak respect for Arata Iiyoshi
Creator:CookieBite
Version:Kenterz's ANOTHER
Source:BMS
Tags:Pokémon Pokemon Nintendo NDS Mystery Dungeon Explorers of Darkness Time Sky PMD ポケモン不思議のダンジョン 空の探検隊 時の探検隊 闇の探検隊 とざくろ Tozakuro Portable Memories March -BMS Edition- Optie しろやぎとざくろ Gear Pikachu Chimchar Primal Dialga Final Boss Battle Theme Fight to The Finish Remix Arrange けっせん!ディアルガ! A_r_M_i_N Kenterz Shiroi Hiroshi SyraxAxoJaxco KittyAdventure
BeatmapID:1359787
BeatmapSetID:640558

[Difficulty]
HPDrainRate:6
CircleSize:4
OverallDifficulty:7
ApproachRate:9
SliderMultiplier:1.7
SliderTickRate:1

[Events]
//Background and Video events
0,0,"BG.jpg",0,0
Video,-110,"Reason of being.flv"
//Break Periods
//Storyboard Layer 0 (Background)
//Storyboard Layer 1 (Fail)
//Storyboard Layer 2 (Pass)
//Storyboard Layer 3 (Foreground)
//Storyboard Sound Samples

[TimingPoints]
10,315.789473684211,3,2,0,40,1,0
10,-200,3,2,0,40,0,0
3799,315.789473684211,4,2,0,60,1,0
4114,-100,4,2,0,50,0,0
4430,-100,4,2,0,40,0,0
4746,-100,4,2,0,20,0,0
5062,-100,4,2,0,10,0,0
6325,315.789473684211,3,2,0,40,1,0
6325,-200,3,2,0,40,0,0
10114,-100,4,2,0,60,0,0
10430,-100,4,2,0,50,0,0
10746,-100,4,2,0,40,0,0
11061,-100,4,2,0,20,0,0
11377,-100,4,2,0,10,0,0
12009,-100,4,2,0,60,0,0
12325,-100,4,2,0,30,0,0
12640,-200,4,2,0,10,0,0
13588,-100,3,3,0,60,0,0
29085,315.789473684211,3,2,0,40,1,0
29085,-133.333333333333,3,2,0,40,0,0
34746,315.789473684211,3,3,0,60,1,0
34746,-133.333333333333,3,3,0,60,0,0
36640,-100,3,3,0,60,0,0
59377,-133.333333333333,3,2,0,50,0,0
66956,-133.333333333333,3,3,0,60,0,0
72324,-200,3,3,0,60,0,0
72640,326.086956521739,3,2,0,40,1,0
72640,-200,3,2,0,40,0,0
73618,305.966343702193,3,2,0,40,1,0
74535,315.789473684211,3,3,0,50,1,0
75482,-100,3,3,0,40,0,0
75798,-100,3,3,0,50,0,0
76429,-80,3,3,0,70,0,1
89692,-100,3,3,0,60,0,0
91587,-80,3,3,0,60,0,0
102956,-80,3,3,0,70,0,1
103824,-80,3,3,0,70,0,0
103903,-80,3,3,0,70,0,1
104771,-80,3,3,0,70,0,0
104773,-100,3,3,0,70,0,0
104850,-80,3,3,0,70,0,1
105719,-80,3,3,0,70,0,0
105721,-100,3,3,0,70,0,0
105798,-80,3,3,0,70,0,1
106666,-80,3,3,0,70,0,0
106668,-100,3,3,0,70,0,0
106745,-100,3,3,0,60,0,1
111166,-100,3,3,0,50,0,1
112429,-100,3,3,0,60,0,1
114324,-200,3,2,0,60,0,0
114640,-200,3,2,0,55,0,0
114956,-200,3,2,0,50,0,0
115271,-200,3,2,0,40,0,0
115587,-200,3,2,0,30,0,0
115903,-200,3,2,0,20,0,0
116219,-200,3,2,0,10,0,0
116535,-200,3,2,0,60,0,0
118429,-200,3,2,0,55,0,0
118745,-200,3,2,0,50,0,0
119061,-200,3,2,0,40,0,0
119377,-200,3,2,0,30,0,0
119692,-200,3,2,0,20,0,0
120010,-100,3,2,0,10,0,0
120324,377.358490566038,3,2,0,60,1,0
120701,387.096774193548,3,2,0,50,1,0
121088,419.58041958042,3,2,0,40,1,0
121507,500,3,2,0,30,1,0
122007,841.514726507714,3,2,0,20,1,0
122848,1256.5445026178,3,2,0,30,1,0
123005,-100,3,2,0,10,0,0
126617,-100,3,2,0,5,0,0

[Colours]
Combo1 : 189,87,215
Combo2 : 83,175,251
Combo3 : 106,215,152
Combo4 : 189,232,79
Combo5 : 235,73,39

[HitObjects]
148,56,10,6,0,L|144:156,1,85,2|0,0:0|0:0,0:0:0:0:
140,248,641,1,0,0:0:0:0:
84,96,957,6,0,L|130:184,1,85,0|0,0:0|0:0,0:0:0:0:
173,266,1588,1,0,0:0:0:0:
52,164,1904,6,0,L|136:217,1,85,2|0,0:0|0:0,0:0:0:0:
384,172,3799,85,2,0:0:0:0:
320,84,4114,1,2,0:0:0:0:
300,184,4430,5,2,0:0:0:0:
256,128,4746,1,2,0:0:0:0:
244,196,5062,5,2,0:0:0:0:
216,160,6325,86,0,P|178:140|149:96,1,85,2|0,0:0|0:0,0:0:0:0:
240,68,6956,1,0,0:0:0:0:
307,136,7272,86,0,P|308:178|285:226,1,85,0|0,0:0|0:0,0:0:0:0:
216,160,7903,1,0,0:0:0:0:
240,68,8219,86,0,P|276:45|328:41,1,85,2|0,0:0|0:0,0:0:0:0:
448,156,10114,85,2,0:0:0:0:
340,208,10430,1,2,0:0:0:0:
248,252,10746,5,2,0:0:0:0:
172,292,11061,1,2,0:0:0:0:
112,324,11377,5,2,0:0:0:0:
88,152,12009,85,2,0:0:0:0:
204,176,12325,1,0,0:0:0:0:
304,196,12640,6,0,L|520:160,1,212.5,0|0,0:0|0:0,0:0:0:0:
412,96,13588,5,12,0:0:0:0:
392,77,13667,1,0,0:0:0:0:
370,64,13746,1,8,0:0:0:0:
344,56,13825,1,0,0:0:0:0:
316,56,13904,86,0,L|224:72,1,85,12|0,0:0|0:0,0:0:0:0:
124,32,14220,1,0,0:0:0:0:
192,168,14378,2,0,P|192:212|164:276,1,85,10|0,0:0|0:0,0:0:0:0:
84,136,14693,1,0,0:0:0:0:
304,200,14851,2,0,L|392:208,1,85,10|0,0:0|0:0,0:0:0:0:
480,152,15167,1,8,0:0:0:0:
468,280,15325,1,0,0:0:0:0:
447,283,15404,1,0,0:0:0:0:
426,286,15482,1,8,0:0:0:0:
405,290,15561,1,0,0:0:0:0:
384,293,15640,2,0,P|357:292|337:285,1,42.5,0|0,0:0|0:0,0:0:0:0:
304,217,15798,6,0,L|320:121,1,85,8|0,0:0|0:0,0:0:0:0:
236,277,16114,1,0,0:0:0:0:
149,151,16272,2,0,L|133:247,1,85,10|0,0:0|0:0,0:0:0:0:
79,112,16588,1,0,0:0:0:0:
220,24,16746,2,0,P|276:28|328:56,1,85,8|0,0:0|0:0,0:0:0:0:
484,112,17061,2,0,P|443:125|401:126,1,85,8|0,0:0|0:0,0:0:0:0:
236,128,17377,2,0,P|292:164|276:248,1,127.5,8|0,0:0|0:0,0:0:0:0:
272,232,17693,6,0,L|160:216,1,85,8|0,0:0|0:0,0:0:0:0:
96,272,18009,1,0,0:0:0:0:
283,147,18167,2,0,L|272:233,1,85,10|0,0:0|0:0,0:0:0:0:
308,332,18483,1,0,0:0:0:0:
199,135,18641,2,0,L|284:148,1,85,8|0,0:0|0:0,0:0:0:0:
412,72,18957,1,8,0:0:0:0:
416,204,19115,1,0,0:0:0:0:
418,225,19194,1,0,0:0:0:0:
417,246,19272,1,8,0:0:0:0:
412,266,19351,1,0,0:0:0:0:
404,286,19430,2,0,P|392:309|379:320,1,42.5,0|0,0:0|0:0,0:0:0:0:
304,359,19588,86,0,P|248:339|204:339,1,85,8|0,0:0|0:0,0:0:0:0:
136,280,19903,1,0,0:0:0:0:
170,147,20061,2,0,P|226:127|270:127,1,85,10|0,0:0|0:0,0:0:0:0:
354,195,20377,1,0,0:0:0:0:
450,99,20535,5,8,0:0:0:0:
455,141,20614,1,0,0:0:0:0:
460,183,20693,1,0,0:0:0:0:
466,225,20772,1,0,0:0:0:0:
471,267,20851,2,0,P|454:287|402:307,3,42.5,8|0|0|0,0:0|0:0|0:0|0:0,0:0:0:0:
402,315,21167,1,8,0:0:0:0:
374,299,21246,1,0,0:0:0:0:
344,289,21325,1,0,0:0:0:0:
312,286,21403,1,0,0:0:0:0:
280,290,21483,6,0,L|290:195,2,85,12|0|0,0:0|0:0|0:0,0:0:0:0:
221,113,21956,2,0,L|213:53,1,42.5,10|0,0:0|0:0,0:0:0:0:
145,133,22114,2,0,L|154:228,1,85,0|0,0:0|0:0,0:0:0:0:
194,375,22430,1,8,0:0:0:0:
89,276,22588,1,0,0:0:0:0:
254,287,22746,2,0,P|318:287|358:255,1,85,8|0,0:0|0:0,0:0:0:0:
487,162,23061,2,0,P|445:157|405:172,1,85,8|0,0:0|0:0,0:0:0:0:
295,78,23377,6,0,L|407:102,2,85,8|0|0,0:0|0:0|0:0,0:0:0:0:
126,151,23851,2,0,L|168:144,1,42.5,10|0,0:0|0:0,0:0:0:0:
152,224,24009,2,0,L|40:248,1,85,0|0,0:0|0:0,0:0:0:0:
249,304,24325,1,8,0:0:0:0:
304,165,24483,1,0,0:0:0:0:
396,282,24640,1,8,0:0:0:0:
403,100,24798,1,0,0:0:0:0:
218,221,24956,2,0,P|203:151|232:95,1,127.5,8|0,0:0|0:0,0:0:0:0:
260,64,25272,86,0,P|208:64|156:28,2,85,8|0|0,0:0|0:0|0:0,0:0:0:0:
381,146,25746,2,0,P|369:174|329:206,1,42.5,10|0,0:0|0:0,0:0:0:0:
303,245,25904,2,0,P|281:208|284:149,1,85,0|0,0:0|0:0,0:0:0:0:
257,361,26220,1,8,0:0:0:0:
179,246,26378,1,0,0:0:0:0:
119,372,26536,2,0,L|34:362,1,85,8|0,0:0|0:0,0:0:0:0:
8,175,26851,2,0,L|112:187,1,85,8|0,0:0|0:0,0:0:0:0:
299,103,27167,5,8,0:0:0:0:
242,253,27325,1,0,0:0:0:0:
141,128,27482,1,0,0:0:0:0:
378,98,27640,2,0,L|436:106,1,42.5,10|0,0:0|0:0,0:0:0:0:
476,170,27798,2,0,L|393:184,1,85,0|0,0:0|0:0,0:0:0:0:
337,334,28114,5,8,0:0:0:0:
295,325,28193,1,0,0:0:0:0:
253,328,28272,1,0,0:0:0:0:
212,342,28351,1,0,0:0:0:0:
177,365,28430,2,0,L|165:290,3,42.5,8|0|0|0,0:0|0:0|0:0|0:0,0:0:0:0:
85,266,28746,2,0,L|77:307,3,42.5,8|0|0|0,0:0|0:0|0:0|0:0,0:0:0:0:
22,178,29085,86,0,P|112:160|184:221,1,191.250007295609,2|0,0:0|0:0,0:0:0:0:
283,352,29874,1,0,0:0:0:0:
351,312,30032,2,0,L|479:324,2,127.500004863739,2|0|0,0:0|0:0|0:0,0:0:0:0:
400,96,30979,6,0,L|264:112,1,127.500004863739,2|0,0:0|0:0,0:0:0:0:
200,72,31453,1,0,0:0:0:0:
128,108,31611,2,0,L|56:96,1,63.7500024318696,0|0,0:0|0:0,0:0:0:0:
160,180,31927,2,0,P|164:228|88:360,1,191.250007295609,2|0,0:0|0:0,0:0:0:0:
24,332,32558,1,0,0:0:0:0:
196,280,32874,102,0,P|264:268|376:340,1,191.250007295609,2|0,0:0|0:0,0:0:0:0:
460,184,33663,1,0,0:0:0:0:
424,112,33821,2,0,P|368:103|299:139,2,127.500004863739,2|0|0,0:0|0:0|0:0,0:0:0:0:
328,224,34746,6,0,L|252:244,1,63.7500024318696,4|0,0:0|0:0,0:0:0:0:
196,288,35061,1,8,0:0:0:0:
224,364,35219,1,2,0:0:0:0:
196,370,35297,1,0,0:0:0:0:
168,366,35376,1,0,0:0:0:0:
143,352,35455,1,2,0:0:0:0:
121,333,35535,2,0,L|79:337,1,31.8750012159348,0|0,0:0|0:0,0:0:0:0:
31,274,35693,102,0,P|11:230|7:194,1,63.7500024318696,10|0,0:0|0:0,0:0:0:0:
103,98,36009,1,10,0:0:0:0:
145,99,36088,1,0,0:0:0:0:
184,114,36167,1,0,0:0:0:0:
217,141,36246,1,0,0:0:0:0:
240,177,36324,2,0,P|265:174|288:160,3,31.8750012159348,10|0|0|0,0:0|0:0|0:0|0:0,0:0:0:0:
345,123,36640,6,0,L|477:151,1,127.5,12|0,0:0|0:0,0:0:0:0:
469,149,36956,1,0,0:0:0:0:
453,291,37113,1,10,0:0:0:0:
325,271,37272,2,0,L|229:283,1,85,0|0,0:0|0:0,0:0:0:0:
119,339,37588,6,0,P|79:287|83:211,1,127.5,8|0,0:0|0:0,0:0:0:0:
135,176,37903,2,0,P|151:136|139:76,1,85,8|0,0:0|0:0,0:0:0:0:
119,72,38140,1,0,0:0:0:0:
87,48,38219,2,0,L|-13:64,1,85,8|0,0:0|0:0,0:0:0:0:
135,176,38535,6,0,B|195:164|195:164|259:92,1,127.5,8|0,0:0|0:0,0:0:0:0:
239,114,38851,1,0,0:0:0:0:
266,236,39009,1,10,0:0:0:0:
387,200,39167,2,0,L|476:209,1,85,0|0,0:0|0:0,0:0:0:0:
409,62,39483,86,0,L|405:2,3,42.5,8|0|0|0,0:0|0:0|0:0|0:0,0:0:0:0:
313,105,39798,2,0,L|310:147,3,42.5,8|0|0|0,0:0|0:0|0:0|0:0,0:0:0:0:
233,35,40114,2,0,L|121:47,1,85,8|0,0:0|0:0,0:0:0:0:
86,150,40430,6,0,P|86:198|42:282,1,127.5,8|0,0:0|0:0,0:0:0:0:
53,269,40746,1,8,0:0:0:0:
172,200,40904,1,0,0:0:0:0:
271,282,41062,2,0,P|263:321|233:374,1,85,10|0,0:0|0:0,0:0:0:0:
388,308,41377,6,0,L|372:156,1,127.5,8|0,0:0|0:0,0:0:0:0:
374,181,41693,1,8,0:0:0:0:
392,40,41851,2,0,L|336:28,1,42.5,0|0,0:0|0:0,0:0:0:0:
264,72,42009,2,0,L|280:180,1,85,8|0,0:0|0:0,0:0:0:0:
184,236,42324,86,0,B|108:224|108:224|72:152,1,127.5,8|0,0:0|0:0,0:0:0:0:
85,178,42640,1,0,0:0:0:0:
32,300,42798,2,0,L|68:348,1,42.5,10|0,0:0|0:0,0:0:0:0:
148,352,42956,2,0,B|168:340|168:340|252:336,1,85,0|0,0:0|0:0,0:0:0:0:
336,268,43272,6,0,L|392:276,3,42.5,8|0|0|0,0:0|0:0|0:0|0:0,0:0:0:0:
278,186,43588,2,0,L|334:170,3,42.5,8|0|0|0,0:0|0:0|0:0|0:0,0:0:0:0:
251,170,43903,1,8,0:0:0:0:
225,152,43982,1,0,0:0:0:0:
199,134,44061,1,0,0:0:0:0:
172,117,44140,1,0,0:0:0:0:
146,100,44219,22,0,L|122:204,1,85,12|0,0:0|0:0,0:0:0:0:
280,85,44535,1,8,0:0:0:0:
183,243,44693,1,0,0:0:0:0:
221,28,44851,1,8,0:0:0:0:
275,219,45009,2,0,L|283:183,3,28.3333333333333,0|0|0|8,0:0|0:0|0:0|0:0,0:0:0:0:
301,335,45325,5,0,0:0:0:0:
442,365,45483,2,0,L|486:353,5,28.3333333333333,2|0|0|2|0|0,0:0|0:0|0:0|0:0|0:0|0:0,0:0:0:0:
456,311,45798,2,0,L|468:211,1,85,8|0,0:0|0:0,0:0:0:0:
346,58,46114,6,0,P|344:102|382:166,1,85,8|0,0:0|0:0,0:0:0:0:
450,82,46430,1,8,0:0:0:0:
250,130,46588,1,0,0:0:0:0:
292,316,46746,2,0,B|302:258|302:258|294:234,1,85,8|0,0:0|0:0,0:0:0:0:
250,130,47062,5,8,0:0:0:0:
188,253,47219,2,0,L|190:281,3,28.3333333333333,0|0|0|2,0:0|0:0|0:0|0:0,0:0:0:0:
84,176,47535,1,0,0:0:0:0:
100,148,47614,1,0,0:0:0:0:
112,120,47693,2,0,L|104:24,1,85,2|0,0:0|0:0,0:0:0:0:
296,140,48009,6,0,P|252:136|200:100,1,85,8|0,0:0|0:0,0:0:0:0:
372,80,48325,1,8,0:0:0:0:
268,232,48483,1,0,0:0:0:0:
280,48,48641,1,8,0:0:0:0:
388,176,48798,2,0,L|420:168,2,28.3333333333333,0|0|0,0:0|0:0|0:0,0:0:0:0:
384,200,48956,6,0,L|496:220,1,85,0|0,0:0|0:0,0:0:0:0:
400,320,49272,2,0,L|408:356,5,28.3333333333333,2|0|0|2|0|0,0:0|0:0|0:0|0:0|0:0|0:0,0:0:0:0:
381,305,49588,2,0,L|281:321,1,85,8|0,0:0|0:0,0:0:0:0:
265,327,49825,1,0,0:0:0:0:
233,335,49904,5,8,0:0:0:0:
120,284,50062,2,0,L|104:220,1,42.5,0|0,0:0|0:0,0:0:0:0:
76,164,50219,2,0,P|126:159|176:192,1,85,8|0,0:0|0:0,0:0:0:0:
208,184,50456,1,0,0:0:0:0:
248,152,50535,2,0,P|264:100|252:40,1,85,8|0,0:0|0:0,0:0:0:0:
300,32,50772,1,0,0:0:0:0:
352,24,50851,6,0,L|468:32,1,85,8|0,0:0|0:0,0:0:0:0:
476,160,51167,2,0,B|463:164|452:171|452:171|425:165|425:165|381:182,1,85,0|0,0:0|0:0,0:0:0:0:
291,264,51482,2,0,L|251:252,5,28.3333333333333,2|0|0|2|0|0,0:0|0:0|0:0|0:0|0:0|0:0,0:0:0:0:
320,283,51798,6,0,B|305:289|305:289|291:288|291:288|276:294|276:294|260:292|260:292|246:299|246:299|232:297|232:297|216:303|216:303|196:301,1,127.5,8|0,0:0|0:0,0:0:0:0:
123,279,52114,6,0,P|91:231|91:175,1,85,8|0,0:0|0:0,0:0:0:0:
113,160,52351,1,0,0:0:0:0:
150,124,52430,1,8,0:0:0:0:
267,192,52588,2,0,L|263:223,2,28.3333333333333,0|0|0,0:0|0:0|0:0,0:0:0:0:
302,163,52746,6,0,P|350:135|374:91,1,85,8|0,0:0|0:0,0:0:0:0:
482,181,53061,2,0,L|530:189,5,28.3333333333333,2|0|0|2|0|0,0:0|0:0|0:0|0:0|0:0|0:0,0:0:0:0:
458,202,53377,2,0,L|474:290,1,85,8|0,0:0|0:0,0:0:0:0:
364,344,53693,5,8,0:0:0:0:
288,240,53851,1,0,0:0:0:0:
164,320,54009,1,8,0:0:0:0:
208,184,54167,1,0,0:0:0:0:
164,320,54325,2,0,L|140:204,1,85,8|0,0:0|0:0,0:0:0:0:
48,152,54641,5,0,0:0:0:0:
156,64,54798,2,0,L|144:28,3,28.3333333333333,0|0|0|2,0:0|0:0|0:0|0:0,0:0:0:0:
280,116,55114,2,0,L|336:124,1,42.5,0|0,0:0|0:0,0:0:0:0:
412,96,55272,2,0,P|412:144|376:200,1,85,2|0,0:0|0:0,0:0:0:0:
320,280,55588,5,2,0:0:0:0:
278,272,55667,1,0,0:0:0:0:
236,265,55746,1,0,0:0:0:0:
185,175,55903,1,2,0:0:0:0:
143,182,55982,1,0,0:0:0:0:
101,189,56061,1,0,0:0:0:0:
26,252,56219,2,0,P|74:284|117:286,1,85,2|0,0:0|0:0,0:0:0:0:
169,252,56456,1,0,0:0:0:0:
169,252,56535,6,0,L|253:264,1,85,8|0,0:0|0:0,0:0:0:0:
270,88,56851,2,0,L|267:121,3,28.3333333333333,2|0|0|2,0:0|0:0|0:0|0:0,0:0:0:0:
398,72,57167,2,0,L|385:156,1,85,8|0,0:0|0:0,0:0:0:0:
308,200,57483,5,2,0:0:0:0:
344,232,57562,1,0,0:0:0:0:
392,244,57641,1,0,0:0:0:0:
276,336,57798,1,2,0:0:0:0:
240,304,57877,1,0,0:0:0:0:
192,292,57956,1,0,0:0:0:0:
96,224,58114,2,0,L|80:128,1,85,2|0,0:0|0:0,0:0:0:0:
200,168,58430,5,8,0:0:0:0:
242,170,58509,1,0,0:0:0:0:
284,173,58588,1,0,0:0:0:0:
327,176,58667,1,0,0:0:0:0:
369,179,58746,1,8,0:0:0:0:
407,183,58825,2,0,L|402:84,1,85,0|0,0:0|0:0,0:0:0:0:
348,49,59062,2,0,P|309:33|267:36,1,85,8|0,0:0|0:0,0:0:0:0:
202,69,59298,1,0,0:0:0:0:
182,113,59377,6,0,L|170:245,1,127.500004863739,6|0,0:0|0:0,0:0:0:0:
192,313,59851,1,0,0:0:0:0:
250,362,60009,2,0,L|322:350,1,63.7500024318696,0|0,0:0|0:0,0:0:0:0:
355,287,60324,2,0,P|363:235|411:151,2,127.500004863739,2|0|0,0:0|0:0|0:0,0:0:0:0:
331,215,61114,1,0,0:0:0:0:
271,163,61272,6,0,P|215:151|139:155,2,127.500004863739,2|0|0,0:0|0:0|0:0,0:0:0:0:
211,107,62061,1,0,0:0:0:0:
280,74,62219,2,0,L|364:70,1,63.7500024318696,2|0,0:0|0:0,0:0:0:0:
440,166,62535,2,0,L|376:162,1,63.7500024318696,0|0,0:0|0:0,0:0:0:0:
326,220,62851,1,0,0:0:0:0:
361,287,63009,1,0,0:0:0:0:
284,292,63167,6,0,P|240:300|156:348,1,127.500004863739,2|0,0:0|0:0,0:0:0:0:
96,312,63640,2,0,P|76:280|76:228,1,63.7500024318696,0|0,0:0|0:0,0:0:0:0:
96,180,63955,1,0,0:0:0:0:
168,144,64114,2,0,L|300:128,1,127.500004863739,2|0,0:0|0:0,0:0:0:0:
356,176,64588,1,0,0:0:0:0:
436,160,64746,2,0,P|448:116|440:72,1,63.7500024318696,0|0,0:0|0:0,0:0:0:0:
377,55,65061,6,0,P|351:113|356:176,1,127.500004863739,2|0,0:0|0:0,0:0:0:0:
412,236,65534,1,0,0:0:0:0:
360,296,65693,2,0,L|284:284,1,63.7500024318696,0|0,0:0|0:0,0:0:0:0:
260,288,65930,1,0,0:0:0:0:
224,272,66009,2,0,P|176:280|92:336,1,127.500004863739,2|0,0:0|0:0,0:0:0:0:
56,292,66429,2,0,L|46:226,1,42.5000016212464,2|2,0:0|0:0,0:0:0:0:
72,199,66640,2,0,L|80:111,1,63.7500024318696,2|0,0:0|0:0,0:0:0:0:
184,56,66956,6,0,L|196:192,1,127.500004863739,12|0,0:0|0:0,0:0:0:0:
276,240,67430,1,0,0:0:0:0:
340,168,67588,2,0,L|344:136,5,21.2500008106232,8|0|0|0|0|0,0:0|0:0|0:0|0:0|0:0|0:0,0:0:0:0:
371,121,67903,6,0,P|419:177|415:245,1,127.500004863739,10|10,0:0|0:0,0:0:0:0:
280,328,68535,2,0,L|244:316,5,21.2500008106232,8|0|0|0|0|0,0:0|0:0|0:0|0:0|0:0|0:0,0:0:0:0:
240,288,68851,6,0,L|108:304,1,127.500004863739,12|0,0:0|0:0,0:0:0:0:
40,240,69324,1,0,0:0:0:0:
72,148,69482,2,0,L|76:116,5,21.2500008106232,8|0|0|0|0|0,0:0|0:0|0:0|0:0|0:0|0:0,0:0:0:0:
96,104,69798,6,0,P|156:112|216:76,1,127.500004863739,10|10,0:0|0:0,0:0:0:0:
308,52,70272,1,0,0:0:0:0:
368,128,70430,2,0,L|428:120,2,42.5000016212464,0|0|0,0:0|0:0|0:0,0:0:0:0:
336,160,70746,6,0,B|316:220|316:220|344:296,1,127.500004863739,12|0,0:0|0:0,0:0:0:0:
280,352,71219,1,0,0:0:0:0:
188,312,71377,2,0,L|196:276,5,21.2500008106232,8|0|0|0|0|0,0:0|0:0|0:0|0:0|0:0|0:0,0:0:0:0:
152,328,71693,6,0,L|140:184,1,127.500004863739,10|10,0:0|0:0,0:0:0:0:
84,120,72167,1,0,0:0:0:0:
189,46,72324,5,10,0:0:0:0:
189,46,72403,1,0,0:0:0:0:
189,46,72482,1,10,0:0:0:0:
189,46,72561,1,0,0:0:0:0:
189,46,72640,38,0,L|450:46,1,255,4|0,0:0|0:0,0:0:0:0:
444,46,74535,2,0,L|435:97,3,42.5,8|0|0|0,0:0|0:0|0:0|0:0,0:0:0:0:
355,109,74850,2,0,L|371:165,3,42.5,8|0|0|0,0:0|0:0|0:0|0:0,0:0:0:0:
452,183,75166,1,8,0:0:0:0:
427,217,75245,1,0,0:0:0:0:
390,237,75324,1,0,0:0:0:0:
348,239,75403,1,0,0:0:0:0:
309,222,75482,6,0,L|175:213,1,127.5,12|0,0:0|0:0,0:0:0:0:
109,168,75798,5,12,0:0:0:0:
141,64,75956,1,0,0:0:0:0:
237,136,76113,1,12,0:0:0:0:
269,32,76271,1,0,0:0:0:0:
389,56,76429,6,0,L|397:168,1,106.25,4|0,1:0|0:0,0:0:0:0:
292,344,76745,2,0,L|299:238,1,106.25,0|10,0:0|0:0,0:0:0:0:
299,238,76982,1,0,0:0:0:0:
299,238,77061,2,0,P|240:240|172:260,1,106.25,0|0,0:0|0:0,0:0:0:0:
44,156,77377,6,0,P|103:154|171:134,1,106.25,8|0,0:0|0:0,0:0:0:0:
232,36,77692,1,8,0:0:0:0:
340,124,77850,1,0,0:0:0:0:
484,80,78008,2,0,L|464:220,1,106.25,8|0,0:0|0:0,0:0:0:0:
460,236,78245,1,0,0:0:0:0:
448,284,78324,6,0,P|388:312|320:320,1,106.25,8|0,0:0|0:0,0:0:0:0:
220,260,78640,1,0,0:0:0:0:
260,136,78798,1,10,0:0:0:0:
260,136,78877,1,0,0:0:0:0:
260,136,78956,2,0,L|116:152,1,106.25,0|0,0:0|0:0,0:0:0:0:
24,328,79271,6,0,L|168:344,1,106.25,8|0,0:0|0:0,0:0:0:0:
348,319,79587,1,8,0:0:0:0:
340,280,79666,1,0,0:0:0:0:
332,236,79745,1,0,0:0:0:0:
472,240,79903,1,8,0:0:0:0:
448,120,80061,1,0,0:0:0:0:
296,96,80219,54,0,P|244:84|168:36,1,106.25,8|0,0:0|0:0,0:0:0:0:
32,184,80535,2,0,P|79:159|130:147,1,106.25,0|10,0:0|0:0,0:0:0:0:
160,192,80771,1,0,0:0:0:0:
188,240,80850,1,0,0:0:0:0:
120,352,81008,1,0,0:0:0:0:
256,304,81166,6,0,L|368:312,1,106.25,8|0,0:0|0:0,0:0:0:0:
428,140,81482,2,0,L|316:148,1,106.25,8|0,0:0|0:0,0:0:0:0:
272,144,81719,1,0,0:0:0:0:
232,112,81798,2,0,P|208:56|208:-8,1,106.25,8|0,0:0|0:0,0:0:0:0:
108,132,82113,6,0,L|92:244,1,106.25,8|0,0:0|0:0,0:0:0:0:
104,276,82350,1,0,0:0:0:0:
120,308,82429,2,0,P|176:304|244:252,1,106.25,0|10,0:0|0:0,0:0:0:0:
219,280,82666,1,0,0:0:0:0:
219,280,82745,1,0,0:0:0:0:
345,348,82903,1,0,0:0:0:0:
368,212,83061,5,8,0:0:0:0:
480,120,83219,1,0,0:0:0:0:
480,120,83298,1,0,0:0:0:0:
480,120,83377,2,0,L|468:44,2,53.125,8|0|0,0:0|0:0|0:0,0:0:0:0:
340,104,83692,2,0,L|192:88,1,106.25,8|0,0:0|0:0,0:0:0:0:
96,164,84008,6,0,P|76:84|76:32,1,106.25,8|0,0:0|0:0,0:0:0:0:
168,224,84324,2,0,P|162:276|146:327,1,106.25,0|10,0:0|0:0,0:0:0:0:
146,327,84561,1,0,0:0:0:0:
146,327,84640,1,0,0:0:0:0:
32,228,84798,1,0,0:0:0:0:
180,140,84956,6,0,L|292:152,1,106.25,8|0,0:0|0:0,0:0:0:0:
400,92,85271,1,8,0:0:0:0:
448,204,85429,1,0,0:0:0:0:
440,224,85508,1,0,0:0:0:0:
432,244,85587,1,8,0:0:0:0:
332,320,85745,1,0,0:0:0:0:
203,271,85903,6,0,P|156:286|107:328,1,106.25,8|0,0:0|0:0,0:0:0:0:
0,202,86219,2,0,L|16:326,1,106.25,0|10,0:0|0:0,0:0:0:0:
13,307,86456,1,0,0:0:0:0:
13,307,86535,1,0,0:0:0:0:
46,121,86692,1,0,0:0:0:0:
210,173,86850,5,0,0:0:0:0:
158,29,87008,2,0,L|226:37,1,53.125,8|0,0:0|0:0,0:0:0:0:
294,77,87166,2,0,L|406:61,1,106.25,8|0,0:0|0:0,0:0:0:0:
463,185,87482,1,8,0:0:0:0:
339,154,87640,1,0,0:0:0:0:
385,303,87798,6,0,L|280:288,1,106.25,8|0,0:0|0:0,0:0:0:0:
160,196,88113,2,0,L|48:212,1,106.25,0|10,0:0|0:0,0:0:0:0:
40,168,88350,1,0,0:0:0:0:
28,120,88429,2,0,P|72:72|136:56,1,106.25,0|0,0:0|0:0,0:0:0:0:
240,116,88745,6,0,P|280:118|346:82,1,106.25,8|0,0:0|0:0,0:0:0:0:
416,44,89061,1,8,0:0:0:0:
270,22,89219,1,0,0:0:0:0:
344,200,89377,2,0,L|424:216,3,53.125,8|0|0|0,0:0|0:0|0:0|0:0,0:0:0:0:
356,288,89692,6,0,L|252:300,1,85,12|0,0:0|0:0,0:0:0:0:
328,120,90008,1,0,0:0:0:0:
248,168,90166,2,0,L|144:180,1,85,12|0,0:0|0:0,0:0:0:0:
220,0,90482,1,0,0:0:0:0:
140,48,90640,6,0,L|36:60,1,85,12|0,0:0|0:0,0:0:0:0:
44,88,90877,1,0,0:0:0:0:
36,116,90956,2,0,L|52:172,3,42.5,0|0|12|0,0:0|0:0|0:0|0:0,0:0:0:0:
140,172,91271,2,0,L|128:232,3,42.5,0|0|0|0,0:0|0:0|0:0|0:0,0:0:0:0:
72,272,91587,6,0,P|144:320|256:312,1,159.375,12|0,0:0|0:0,0:0:0:0:
294,277,91903,2,0,L|418:293,1,106.25,10|2,0:0|0:0,0:0:0:0:
452,216,92140,1,0,0:0:0:0:
452,216,92219,2,0,P|452:168|416:80,1,106.25,8|0,0:0|0:0,0:0:0:0:
288,40,92535,5,10,0:0:0:0:
254,80,92613,1,0,0:0:0:0:
208,106,92692,1,0,0:0:0:0:
156,115,92771,1,0,0:0:0:0:
104,105,92850,2,0,L|80:216,1,106.25,10|0,0:0|0:0,0:0:0:0:
108,288,93087,1,0,0:0:0:0:
108,288,93166,2,0,P|172:304|240:348,1,106.25,10|0,0:0|0:0,0:0:0:0:
260,312,93403,1,0,0:0:0:0:
296,268,93482,6,0,B|360:252|360:252|376:232|376:232|460:212,1,159.375,8|0,0:0|0:0,0:0:0:0:
441,216,93798,1,10,0:0:0:0:
296,144,93956,2,0,L|304:80,1,53.125,2|0,0:0|0:0,0:0:0:0:
188,24,94113,2,0,L|208:172,1,106.25,8|0,0:0|0:0,0:0:0:0:
128,232,94429,5,10,0:0:0:0:
109,266,94508,1,0,0:0:0:0:
110,306,94587,1,0,0:0:0:0:
129,340,94666,1,0,0:0:0:0:
163,360,94745,2,0,L|244:344,3,53.125,10|0|0|0,0:0|0:0|0:0|0:0,0:0:0:0:
280,300,95061,2,0,P|360:312|432:356,1,159.375,10|0,0:0|0:0,0:0:0:0:
392,236,95377,6,0,L|380:116,1,106.25,8|0,0:0|0:0,0:0:0:0:
320,80,95613,1,0,0:0:0:0:
320,80,95692,2,0,P|272:48|200:48,1,106.25,10|2,0:0|0:0,0:0:0:0:
204,92,95929,1,0,0:0:0:0:
164,126,96008,1,8,0:0:0:0:
112,138,96087,1,0,0:0:0:0:
61,128,96166,1,0,0:0:0:0:
96,256,96324,6,0,L|88:332,3,53.125,10|0|0|0,0:0|0:0|0:0|0:0,0:0:0:0:
192,216,96640,2,0,L|200:292,3,53.125,10|0|0|0,0:0|0:0|0:0|0:0,0:0:0:0:
264,320,96956,2,0,L|380:336,1,106.25,10|0,0:0|0:0,0:0:0:0:
420,176,97271,6,0,B|300:196|300:196|324:152,1,159.375,8|0,0:0|0:0,0:0:0:0:
356,104,97587,2,0,P|356:52|308:-12,1,106.25,10|2,0:0|0:0,0:0:0:0:
276,20,97824,1,0,0:0:0:0:
236,56,97903,2,0,L|92:32,1,106.25,8|0,0:0|0:0,0:0:0:0:
53,166,98219,6,0,P|117:166|189:210,1,106.25,10|0,0:0|0:0,0:0:0:0:
190,244,98456,2,0,L|166:348,1,106.25,0|0,0:0|0:0,0:0:0:0:
238,376,98692,1,0,0:0:0:0:
238,376,98771,1,0,0:0:0:0:
238,376,98850,2,0,P|290:378|340:360,1,106.25,10|0,0:0|0:0,0:0:0:0:
424,252,99166,6,0,L|400:72,1,159.375,8|0,0:0|0:0,0:0:0:0:
380,164,99482,1,10,0:0:0:0:
264,260,99640,1,2,0:0:0:0:
216,232,99719,1,0,0:0:0:0:
188,184,99798,2,0,P|196:128|252:48,1,106.25,8|0,0:0|0:0,0:0:0:0:
64,120,100113,5,10,0:0:0:0:
68,172,100192,1,0,0:0:0:0:
72,225,100271,1,0,0:0:0:0:
77,278,100350,1,0,0:0:0:0:
81,331,100429,2,0,L|192:344,1,106.25,10|0,0:0|0:0,0:0:0:0:
256,300,100666,1,0,0:0:0:0:
256,300,100745,2,0,L|361:288,1,106.25,10|0,0:0|0:0,0:0:0:0:
396,248,100982,1,0,0:0:0:0:
428,208,101061,6,0,P|436:144|376:48,1,159.375,8|0,0:0|0:0,0:0:0:0:
320,36,101377,1,10,0:0:0:0:
252,172,101535,2,0,L|192:160,1,53.125,2|0,0:0|0:0,0:0:0:0:
136,120,101692,2,0,L|64:132,2,53.125,8|0|0,0:0|0:0|0:0,0:0:0:0:
336,133,102008,5,10,0:0:0:0:
342,158,102087,1,0,0:0:0:0:
342,185,102166,1,0,0:0:0:0:
335,210,102245,1,0,0:0:0:0:
322,233,102324,5,10,0:0:0:0:
359,247,102403,1,0,0:0:0:0:
399,247,102482,1,0,0:0:0:0:
436,233,102561,1,0,0:0:0:0:
468,209,102640,2,0,L|476:137,3,53.125,10|0|0|0,0:0|0:0|0:0|0:0,0:0:0:0:
393,113,102956,6,0,L|281:97,1,106.25,4|0,1:0|0:0,0:0:0:0:
131,174,103271,2,0,L|119:98,2,70.8333333333333,2|2|2,0:0|0:0|0:0,0:0:0:0:
191,234,103587,2,0,P|179:278|195:358,1,106.25,8|0,0:0|0:0,0:0:0:0:
252,373,103824,1,0,0:0:0:0:
252,373,103903,6,0,L|372:357,1,106.25,4|0,1:0|0:0,0:0:0:0:
460,222,104219,2,0,L|515:230,2,53.125,2|2|2,0:0|0:0|0:0,0:0:0:0:
329,111,104535,2,0,P|261:87|229:47,1,106.25,8|0,0:0|0:0,0:0:0:0:
209,19,104771,1,0,0:0:0:0:
157,19,104850,6,0,L|145:139,1,106.25,4|0,1:0|0:0,0:0:0:0:
50,266,105166,2,0,L|42:194,2,70.8333333333333,2|2|2,0:0|0:0|0:0,0:0:0:0:
127,317,105482,2,0,L|136:194,1,106.25,8|0,0:0|0:0,0:0:0:0:
174,174,105719,1,0,0:0:0:0:
215,140,105798,6,0,L|287:148,3,53.125,4|0|0|0,1:0|0:0|0:0|0:0,0:0:0:0:
350,93,106113,2,0,L|410:85,3,53.125,10|0|0|0,0:0|0:0|0:0|0:0,0:0:0:0:
476,144,106429,1,10,0:0:0:0:
481,196,106508,1,0,0:0:0:0:
469,248,106587,1,0,0:0:0:0:
441,292,106666,1,0,0:0:0:0:
400,325,106745,6,0,P|336:300|288:304,1,85,4|0,1:0|0:0,0:0:0:0:
128,256,107061,2,0,P|169:249|207:229,1,85,10|0,0:0|0:0,0:0:0:0:
244,192,107298,1,0,0:0:0:0:
252,136,107377,2,0,L|240:20,1,85,2|8,0:0|0:0,0:0:0:0:
100,116,107692,2,0,L|96:172,2,42.5,10|0|0,0:0|0:0|0:0,0:0:0:0:
164,204,108008,1,10,0:0:0:0:
96,300,108166,2,0,L|48:296,2,42.5,0|0|10,0:0|0:0|0:0,0:0:0:0:
212,344,108482,1,0,0:0:0:0:
260,328,108561,1,0,0:0:0:0:
308,312,108640,6,0,B|328:280|328:252|328:252|308:208|312:160,1,127.5,8|0,0:0|0:0,0:0:0:0:
364,132,108956,2,0,P|432:148|476:176,1,85,10|0,0:0|0:0,0:0:0:0:
276,64,109271,2,0,P|236:80|194:86,1,85,8|8,0:0|0:0,0:0:0:0:
60,144,109587,2,0,L|48:40,1,85,10|0,0:0|0:0,0:0:0:0:
160,204,109903,1,10,0:0:0:0:
100,316,110061,2,0,L|152:328,1,42.5,0|0,0:0|0:0,0:0:0:0:
216,320,110219,1,10,0:0:0:0:
247,316,110298,1,0,0:0:0:0:
277,305,110377,1,0,0:0:0:0:
303,287,110456,1,0,0:0:0:0:
324,263,110535,6,0,L|332:196,3,42.5,2|0|0|0,0:0|0:0|0:0|0:0,0:0:0:0:
412,192,110850,2,0,L|416:234,3,42.5,2|0|0|0,0:0|0:0|0:0|0:0,0:0:0:0:
344,140,111166,2,0,L|244:132,1,85,2|0,0:0|0:0,0:0:0:0:
128,196,111482,2,0,L|120:263,3,42.5,2|0|0|0,0:0|0:0|0:0|0:0,0:0:0:0:
40,267,111798,2,0,L|35:224,3,42.5,2|0|0|0,0:0|0:0|0:0|0:0,0:0:0:0:
108,320,112113,2,0,P|160:313|200:257,1,85,2|0,0:0|0:0,0:0:0:0:
208,248,112350,1,0,0:0:0:0:
256,220,112429,6,0,P|312:240|388:304,1,127.5,8|0,0:0|0:0,0:0:0:0:
452,228,112745,2,0,L|436:112,1,85,10|0,0:0|0:0,0:0:0:0:
404,68,112982,1,0,0:0:0:0:
352,84,113061,2,0,L|340:168,1,85,8|8,0:0|0:0,0:0:0:0:
240,268,113377,5,10,0:0:0:0:
218,271,113456,1,0,0:0:0:0:
197,274,113535,1,0,0:0:0:0:
176,277,113613,1,0,0:0:0:0:
155,280,113692,1,10,0:0:0:0:
129,264,113771,1,0,0:0:0:0:
109,239,113850,1,0,0:0:0:0:
99,209,113929,1,0,0:0:0:0:
99,177,114008,1,10,0:0:0:0:
139,162,114087,1,0,0:0:0:0:
168,132,114166,1,0,0:0:0:0:
182,92,114245,1,0,0:0:0:0:
180,48,114324,5,2,0:0:0:0:
256,192,114403,12,0,116219,0:0:0:0:
188,92,116535,53,2,0:0:0:0:
168,216,116850,1,0,0:0:0:0:
288,168,117166,1,2,0:0:0:0:
140,148,117482,1,0,0:0:0:0:
240,224,117798,1,2,0:0:0:0:
260,100,118113,5,2,0:0:0:0:
256,192,118192,12,0,120008,0:0:0:0:
324,92,120324,5,2,0:0:0:0:
344,216,120701,5,2,0:0:0:0:
224,168,121088,5,2,0:0:0:0:
372,148,121507,5,2,0:0:0:0:
272,224,122007,5,2,0:0:0:0:
252,100,122848,5,2,0:0:0:0:
256,192,123005,12,0,126617,0:0:0:0:
