osu file format v14

[General]
AudioFilename: audio.mp3
AudioLeadIn: 0
PreviewTime: 75482
Countdown: 0
SampleSet: Soft
StackLeniency: 0.5
Mode: 0
LetterboxInBreaks: 0
WidescreenStoryboard: 1

[Editor]
Bookmarks: 13903,21475,29050,36633,44208,51791,59366,66949,72636,76425,84004,91583,99162,106741,114320
DistanceSpacing: 1.2
BeatDivisor: 4
GridSize: 4
TimelineZoom: 2.7

[Metadata]
Title:Reason of being
TitleUnicode:Reason of being
Artist:sak respect for Arata Iiyoshi
ArtistUnicode:sak respect for Arata Iiyoshi
Creator:CookieBite
Version:FINAL DESTINATION
Source:BMS
Tags:Pokémon Pokemon Nintendo NDS Mystery Dungeon Explorers of Darkness Time Sky PMD ポケモン不思議のダンジョン 空の探検隊 時の探検隊 闇の探検隊 とざくろ Tozakuro Portable Memories March -BMS Edition- Optie しろやぎとざくろ Gear Pikachu Chimchar Primal Dialga Final Boss Battle Theme Fight to The Finish Remix Arrange けっせん!ディアルガ! A_r_M_i_N Kenterz Shiroi Hiroshi SyraxAxoJaxco KittyAdventure
BeatmapID:1358482
BeatmapSetID:640558

[Difficulty]
HPDrainRate:5
CircleSize:4
OverallDifficulty:8.5
ApproachRate:9.2
SliderMultiplier:1.79999995708466
SliderTickRate:1

[Events]
//Background and Video events
0,0,"BG.jpg",0,0
Video,-110,"Reason of being.flv"
//Break Periods
//Storyboard Layer 0 (Background)
//Storyboard Layer 1 (Fail)
//Storyboard Layer 2 (Pass)
//Storyboard Layer 3 (Foreground)
//Storyboard Sound Samples

[TimingPoints]
10,315.789473684211,3,2,0,40,1,0
10,-400,3,2,0,40,0,0
3799,315.789473684211,4,2,0,60,1,0
4114,-100,4,2,0,50,0,0
4430,-100,4,2,0,40,0,0
4746,-100,4,2,0,20,0,0
5062,-100,4,2,0,10,0,0
6325,315.789473684211,3,2,0,40,1,0
6325,-400,3,2,0,40,0,0
10114,-100,4,2,0,60,0,0
10430,-100,4,2,0,50,0,0
10746,-100,4,2,0,40,0,0
11061,-100,4,2,0,20,0,0
11377,-100,4,2,0,10,0,0
12009,-100,4,2,0,60,0,0
13588,-100,3,3,0,60,0,0
29085,315.789473684211,3,2,0,40,1,0
29085,-200,3,2,0,40,0,0
34746,315.789473684211,3,3,0,60,1,0
44219,-125,3,3,0,60,0,0
44535,-83.3333333333333,3,3,0,60,0,0
45167,-125,3,3,0,60,0,0
46430,-83.3333333333333,3,3,0,60,0,0
49904,-100,3,3,0,60,0,0
50219,-83.3333333333333,3,3,0,60,0,0
51483,-66.6666666666667,3,3,0,60,0,0
51798,-200,3,3,0,60,0,0
52114,-83.3333333333333,3,3,0,60,0,0
53693,-100,3,3,0,60,0,0
54009,-83.3333333333333,3,3,0,60,0,0
54641,-100,3,3,0,60,0,0
55588,-83.3333333333333,3,3,0,60,0,0
57325,-166.666666666667,3,3,0,60,0,0
57483,-100,3,3,0,60,0,0
59377,-222.222222222222,3,2,0,50,0,0
66956,-181.818181818182,3,3,0,60,0,0
72640,326.086956521739,3,2,0,40,1,0
73618,305.966343702193,3,2,0,40,1,0
74535,315.789473684211,3,3,0,50,1,0
75482,-500,3,3,0,40,0,0
75798,-333.333333333333,3,3,0,50,0,0
76429,-71.4285714285714,3,3,0,70,0,1
89692,-100,3,3,0,60,0,0
102956,-66.6666666666667,3,3,0,70,0,1
103271,-90.9090909090909,3,3,0,70,0,1
103824,-90.9090909090909,3,3,0,70,0,0
103903,-66.6666666666667,3,3,0,70,0,1
104219,-90.9090909090909,3,3,0,70,0,1
104771,-90.9090909090909,3,3,0,70,0,0
104850,-66.6666666666667,3,3,0,70,0,1
105166,-90.9090909090909,3,3,0,70,0,1
105719,-90.9090909090909,3,3,0,70,0,0
105798,-66.6666666666667,3,3,0,70,0,1
106666,-90.9090909090909,3,3,0,70,0,0
106745,-90.9090909090909,3,3,0,60,0,1
111166,-111.111111111111,3,3,0,50,0,1
112429,-90.9090909090909,3,3,0,60,0,1
114324,-333.333333333334,3,2,0,60,0,0
114640,-333.333333333334,3,2,0,55,0,0
114956,-333.333333333334,3,2,0,50,0,0
115271,-333.333333333334,3,2,0,40,0,0
115587,-333.333333333334,3,2,0,30,0,0
115903,-333.333333333334,3,2,0,20,0,0
116219,-333.333333333334,3,2,0,10,0,0
116535,-333.333333333334,3,2,0,60,0,0
118429,-333.333333333334,3,2,0,55,0,0
118745,-333.333333333334,3,2,0,50,0,0
119061,-333.333333333334,3,2,0,40,0,0
119377,-333.333333333334,3,2,0,30,0,0
119692,-333.333333333334,3,2,0,20,0,0
120008,-333.333333333334,3,2,0,10,0,0
120324,377.358490566038,3,2,0,60,1,0
120701,387.096774193548,3,2,0,50,1,0
121088,419.58041958042,3,2,0,40,1,0
121507,500,3,2,0,30,1,0
122007,841.514726507714,3,2,0,20,1,0
122848,1256.5445026178,3,2,0,30,1,0
123005,-100,3,2,0,10,0,0
126617,-100,3,2,0,5,0,0

[Colours]
Combo1 : 189,87,215
Combo2 : 83,175,251
Combo3 : 106,215,152
Combo4 : 189,232,79
Combo5 : 235,73,39

[HitObjects]
184,88,10,6,0,P|172:140|186:177,1,90,2|0,0:0|0:0,0:0:0:0:
331,176,957,2,0,P|291:139|252:133,1,90,0|0,0:0|0:0,0:0:0:0:
165,239,1904,2,0,B|289:205|259:312|381:273,1,224.999994635583,2|0,0:0|0:0,0:0:0:0:
430,206,3799,5,2,0:0:0:0:
413,183,4114,1,2,0:0:0:0:
440,192,4430,1,2,0:0:0:0:
413,201,4746,1,2,0:0:0:0:
430,177,5062,1,2,0:0:0:0:
328,88,6325,6,0,P|340:140|326:177,1,89.999997854233,2|0,0:0|0:0,0:0:0:0:
181,176,7272,2,0,P|220:139|259:133,1,89.999997854233,0|0,0:0|0:0,0:0:0:0:
357,244,8219,2,0,B|233:210|263:317|141:278,1,224.999994635583,2|0,0:0|0:0,0:0:0:0:
82,206,10114,5,2,0:0:0:0:
99,183,10430,1,2,0:0:0:0:
72,192,10746,1,2,0:0:0:0:
99,201,11061,1,2,0:0:0:0:
82,177,11377,1,2,0:0:0:0:
82,177,12009,5,2,0:0:0:0:
429,71,13588,5,12,0:0:0:0:
455,117,13667,1,0,0:0:0:0:
454,170,13746,1,8,0:0:0:0:
424,214,13825,1,0,0:0:0:0:
375,236,13903,6,0,L|281:221,1,90,12|0,0:0|0:0,0:0:0:0:
236,115,14219,1,0,0:0:0:0:
429,71,14377,2,0,P|454:120|454:161,1,89.999997854233,10|0,0:0|0:0,0:0:0:0:
375,236,14693,1,0,0:0:0:0:
269,24,14851,5,10,0:0:0:0:
353,139,15009,1,0,0:0:0:0:
211,154,15167,1,8,0:0:0:0:
424,77,15325,1,0,0:0:0:0:
439,119,15403,1,0,0:0:0:0:
444,163,15482,1,8,0:0:0:0:
430,206,15561,1,0,0:0:0:0:
414,248,15640,1,0,0:0:0:0:
413,293,15719,1,0,0:0:0:0:
426,345,15798,6,0,L|329:335,1,90,8|0,0:0|0:0,0:0:0:0:
244,193,16114,1,0,0:0:0:0:
444,163,16272,2,0,L|434:260,1,90,10|0,0:0|0:0,0:0:0:0:
336,335,16588,1,0,0:0:0:0:
244,193,16746,5,8,0:0:0:0:
396,240,16903,1,0,0:0:0:0:
361,85,17061,1,8,0:0:0:0:
495,187,17219,1,0,0:0:0:0:
495,187,17298,1,0,0:0:0:0:
495,187,17377,2,0,P|514:262|481:313,1,135,8|0,0:0|0:0,0:0:0:0:
441,339,17693,6,0,L|342:332,1,90,8|0,0:0|0:0,0:0:0:0:
404,188,18009,1,0,0:0:0:0:
251,223,18167,2,0,P|219:185|214:145,1,90,10|0,0:0|0:0,0:0:0:0:
316,20,18482,1,0,0:0:0:0:
474,171,18640,5,8,0:0:0:0:
335,249,18798,1,0,0:0:0:0:
512,287,18956,1,8,0:0:0:0:
365,347,19114,1,0,0:0:0:0:
320,347,19193,1,0,0:0:0:0:
279,328,19272,1,8,0:0:0:0:
250,294,19351,1,0,0:0:0:0:
239,251,19430,1,0,0:0:0:0:
246,207,19509,1,0,0:0:0:0:
277,163,19588,6,0,L|375:168,1,90,8|0,0:0|0:0,0:0:0:0:
512,287,19903,1,0,0:0:0:0:
195,204,20061,2,0,P|182:162|198:117,1,90,10|0,0:0|0:0,0:0:0:0:
364,67,20377,1,0,0:0:0:0:
316,245,20535,5,8,0:0:0:0:
284,261,20614,1,0,0:0:0:0:
248,267,20693,1,0,0:0:0:0:
213,261,20772,1,0,0:0:0:0:
180,246,20851,5,8,0:0:0:0:
150,227,20930,1,0,0:0:0:0:
117,213,21009,1,0,0:0:0:0:
81,208,21088,1,0,0:0:0:0:
46,216,21167,5,8,0:0:0:0:
18,237,21246,1,0,0:0:0:0:
2,269,21325,1,0,0:0:0:0:
4,305,21403,1,0,0:0:0:0:
35,348,21482,6,0,P|75:325|128:333,1,90,12|0,0:0|0:0,0:0:0:0:
248,376,21798,1,0,0:0:0:0:
322,242,21956,1,10,0:0:0:0:
300,192,22035,1,0,0:0:0:0:
252,166,22114,2,0,P|224:162|203:162,1,45,0|0,0:0|0:0,0:0:0:0:
105,264,22272,2,0,P|127:263|149:259,1,45,0|0,0:0|0:0,0:0:0:0:
322,83,22430,5,8,0:0:0:0:
371,227,22588,1,0,0:0:0:0:
371,227,22667,1,0,0:0:0:0:
371,227,22746,2,0,L|364:173,1,45,8|0,0:0|0:0,0:0:0:0:
207,161,22903,1,0,0:0:0:0:
189,211,22982,1,0,0:0:0:0:
199,264,23061,2,0,P|222:283|246:294,1,45,8|0,0:0|0:0,0:0:0:0:
322,83,23219,2,0,P|302:94|285:108,1,45,0|0,0:0|0:0,0:0:0:0:
446,280,23377,6,0,P|468:228|458:185,1,90,8|0,0:0|0:0,0:0:0:0:
368,57,23693,1,0,0:0:0:0:
247,193,23851,1,10,0:0:0:0:
247,193,23930,1,0,0:0:0:0:
247,193,24009,2,0,P|244:213|249:238,1,45,0|0,0:0|0:0,0:0:0:0:
441,112,24167,2,0,P|445:90|442:67,1,45,0|0,0:0|0:0,0:0:0:0:
196,124,24325,5,8,0:0:0:0:
278,317,24482,1,0,0:0:0:0:
278,317,24561,1,0,0:0:0:0:
278,317,24640,2,0,L|333:310,1,45,8|0,0:0|0:0,0:0:0:0:
362,157,24798,1,0,0:0:0:0:
311,137,24877,1,0,0:0:0:0:
258,149,24956,2,0,P|249:177|245:200,1,45,8|0,0:0|0:0,0:0:0:0:
404,314,25114,2,0,P|399:292|392:270,1,45,0|0,0:0|0:0,0:0:0:0:
197,295,25272,6,0,P|235:320|284:313,1,90,8|0,0:0|0:0,0:0:0:0:
401,197,25588,1,0,0:0:0:0:
227,114,25746,1,10,0:0:0:0:
178,137,25825,1,0,0:0:0:0:
154,185,25903,2,0,P|149:214|153:239,1,45,0|0,0:0|0:0,0:0:0:0:
264,330,26061,2,0,P|265:307|260:285,1,45,0|0,0:0|0:0,0:0:0:0:
63,152,26219,5,8,0:0:0:0:
119,338,26377,1,0,0:0:0:0:
119,338,26456,1,0,0:0:0:0:
119,338,26535,2,0,P|148:329|169:312,1,45,8|0,0:0|0:0,0:0:0:0:
190,100,26693,1,0,0:0:0:0:
149,136,26772,1,0,0:0:0:0:
133,188,26851,2,0,P|142:217|159:238,1,45,8|0,0:0|0:0,0:0:0:0:
302,377,27009,2,0,P|308:348|304:321,1,45,0|0,0:0|0:0,0:0:0:0:
184,149,27167,6,0,P|156:184|150:228,1,90,8|0,0:0|0:0,0:0:0:0:
223,347,27482,1,0,0:0:0:0:
346,257,27640,1,10,0:0:0:0:
338,202,27719,1,0,0:0:0:0:
298,164,27798,2,0,P|273:155|236:158,1,45,0|0,0:0|0:0,0:0:0:0:
346,348,27956,2,0,P|368:346|389:338,1,45,0|0,0:0|0:0,0:0:0:0:
327,91,28114,5,8,0:0:0:0:
294,76,28193,1,0,0:0:0:0:
258,73,28272,1,0,0:0:0:0:
223,81,28351,1,0,0:0:0:0:
195,118,28430,5,8,0:0:0:0:
160,126,28509,1,0,0:0:0:0:
124,123,28588,1,0,0:0:0:0:
92,108,28667,1,0,0:0:0:0:
59,76,28746,5,8,0:0:0:0:
48,110,28825,1,0,0:0:0:0:
45,146,28903,2,0,P|48:168|56:189,1,44.9999989271165,0|0,0:0|0:0,0:0:0:0:
100,250,29085,6,0,B|181:226|163:284|240:257,1,135,2|0,0:0|0:0,0:0:0:0:
340,117,29874,1,0,0:0:0:0:
340,117,30032,2,0,P|387:115|428:140,2,90,2|0|0,0:0|0:0|0:0,0:0:0:0:
136,171,30979,6,0,P|121:135|130:82,1,90,2|0,0:0|0:0,0:0:0:0:
185,41,31453,1,0,0:0:0:0:
231,96,31611,2,0,L|284:89,1,45,0|0,0:0|0:0,0:0:0:0:
339,55,31927,2,0,P|326:120|343:191,1,135,2|0,0:0|0:0,0:0:0:0:
386,247,32558,2,0,L|382:299,1,45,0|0,0:0|0:0,0:0:0:0:
307,339,32874,6,0,B|234:315|252:382|170:358,1,135,2|0,0:0|0:0,0:0:0:0:
105,187,33663,1,0,0:0:0:0:
105,187,33821,2,0,P|146:181|195:208,2,90,2|0|0,0:0|0:0|0:0,0:0:0:0:
313,326,34746,5,4,0:0:0:0:
364,181,34903,1,0,0:0:0:0:
445,370,35061,1,8,0:0:0:0:
364,181,35219,1,2,0:0:0:0:
320,170,35298,1,0,0:0:0:0:
276,179,35377,1,0,0:0:0:0:
240,205,35456,1,2,0:0:0:0:
202,229,35535,1,0,0:0:0:0:
157,233,35614,1,0,0:0:0:0:
114,220,35693,6,0,P|99:172|113:130,1,90,10|0,0:0|0:0,0:0:0:0:
236,37,36009,5,10,0:0:0:0:
260,74,36088,1,0,0:0:0:0:
265,118,36167,1,0,0:0:0:0:
249,160,36246,1,0,0:0:0:0:
224,198,36324,5,10,0:0:0:0:
261,174,36403,1,0,0:0:0:0:
305,169,36482,1,0,0:0:0:0:
347,184,36561,1,0,0:0:0:0:
390,244,36640,6,0,P|379:173|386:105,1,135,12|0,0:0|0:0,0:0:0:0:
236,37,36956,2,0,P|240:62|237:86,1,45,0|0,0:0|0:0,0:0:0:0:
190,241,37114,1,10,0:0:0:0:
239,219,37193,1,0,0:0:0:0:
287,241,37272,2,0,P|295:263|294:284,1,45,0|0,0:0|0:0,0:0:0:0:
147,362,37430,2,0,P|139:340|140:319,1,45,0|0,0:0|0:0,0:0:0:0:
371,136,37588,5,8,0:0:0:0:
340,154,37667,1,0,0:0:0:0:
305,158,37746,1,0,0:0:0:0:
271,147,37824,1,0,0:0:0:0:
240,101,37903,5,8,0:0:0:0:
206,90,37982,1,0,0:0:0:0:
171,94,38061,1,0,0:0:0:0:
140,112,38140,1,0,0:0:0:0:
112,157,38219,5,8,0:0:0:0:
129,188,38298,1,0,0:0:0:0:
138,223,38377,1,0,0:0:0:0:
136,258,38456,1,0,0:0:0:0:
117,310,38535,6,0,P|156:292|204:302,1,90,8|0,0:0|0:0,0:0:0:0:
322,215,38772,1,0,0:0:0:0:
322,215,38851,2,0,P|293:209|273:197,1,45,0|0,0:0|0:0,0:0:0:0:
420,104,39009,2,0,P|429:132|428:155,1,45,10|0,0:0|0:0,0:0:0:0:
279,201,39167,2,0,P|260:177|253:155,1,45,0|0,0:0|0:0,0:0:0:0:
429,147,39324,2,0,P|417:174|401:191,1,45,0|0,0:0|0:0,0:0:0:0:
251,68,39482,5,8,0:0:0:0:
281,49,39561,1,0,0:0:0:0:
316,43,39640,1,0,0:0:0:0:
351,53,39719,1,0,0:0:0:0:
386,93,39798,1,8,0:0:0:0:
420,104,39877,1,0,0:0:0:0:
456,102,39956,1,0,0:0:0:0:
487,85,40035,1,0,0:0:0:0:
508,35,40114,5,8,0:0:0:0:
502,70,40193,1,0,0:0:0:0:
497,106,40272,1,0,0:0:0:0:
492,142,40351,1,0,0:0:0:0:
499,196,40430,6,0,P|454:192|417:215,1,90,8|0,0:0|0:0,0:0:0:0:
507,362,40667,1,0,0:0:0:0:
507,362,40746,2,0,P|513:335|509:311,1,45,8|0,0:0|0:0,0:0:0:0:
361,271,40903,1,0,0:0:0:0:
352,324,40982,1,0,0:0:0:0:
378,369,41061,2,0,P|443:383|506:362,1,134.999996781349,10|0,0:0|0:0,0:0:0:0:
296,210,41377,6,0,P|277:250|275:295,1,89.999997854233,8|0,0:0|0:0,0:0:0:0:
421,259,41614,1,0,0:0:0:0:
420,259,41693,2,0,P|421:236|416:214,1,44.9999989271165,8|0,0:0|0:0,0:0:0:0:
274,117,41851,1,0,0:0:0:0:
327,126,41930,1,0,0:0:0:0:
379,115,42009,2,0,P|436:84|461:18,1,134.999996781349,8|0,0:0|0:0,0:0:0:0:
267,27,42324,6,0,L|273:116,1,89.999997854233,8|0,0:0|0:0,0:0:0:0:
406,232,42561,1,0,0:0:0:0:
406,232,42640,2,0,P|407:210|401:189,1,45,0|0,0:0|0:0,0:0:0:0:
267,27,42798,1,10,0:0:0:0:
208,61,42877,1,0,0:0:0:0:
185,125,42956,2,0,B|180:203|229:168|223:251,1,135,0|0,0:0|0:0,0:0:0:0:
87,297,43272,5,8,0:0:0:0:
69,267,43351,1,0,0:0:0:0:
64,231,43430,1,0,0:0:0:0:
73,197,43509,1,0,0:0:0:0:
109,156,43588,5,8,0:0:0:0:
118,121,43667,1,0,0:0:0:0:
113,86,43746,1,0,0:0:0:0:
95,55,43824,1,0,0:0:0:0:
48,23,43903,5,8,0:0:0:0:
57,81,43982,1,0,0:0:0:0:
65,139,44061,1,0,0:0:0:0:
73,197,44140,1,0,0:0:0:0:
82,255,44219,6,0,L|70:325,1,72,12|0,0:0|0:0,0:0:0:0:
264,169,44535,6,0,L|210:178,1,53.9999970645907,8|0,0:0|0:0,0:0:0:0:
29,246,44693,2,0,L|82:255,1,53.9999970645907,0|0,0:0|0:0,0:0:0:0:
228,318,44851,2,0,L|174:326,1,53.9999983520508,8|0,0:0|0:0,0:0:0:0:
3,371,45009,2,0,L|-1:335,2,35.9999989013672,0|0|0,0:0|0:0|0:0,0:0:0:0:
88,384,45167,5,8,0:0:0:0:
174,326,45324,1,0,0:0:0:0:
267,380,45482,2,0,L|295:376,5,24,2|0|0|2|0|0,0:0|0:0|0:0|0:0|0:0|0:0,0:0:0:0:
329,369,45798,1,8,0:0:0:0:
438,279,45956,1,0,0:0:0:0:
491,362,46114,5,8,0:0:0:0:
334,291,46272,1,0,0:0:0:0:
473,190,46430,2,0,L|466:134,1,53.9999983520508,8|0,0:0|0:0,0:0:0:0:
379,30,46588,2,0,L|385:83,1,53.9999983520508,0|0,0:0|0:0,0:0:0:0:
305,185,46746,2,0,L|298:131,1,53.9999983520508,8|0,0:0|0:0,0:0:0:0:
203,17,46903,2,0,L|209:70,1,53.9999983520508,0|0,0:0|0:0,0:0:0:0:
123,155,47061,5,8,0:0:0:0:
227,258,47219,2,0,L|231:215,3,35.9999989013672,0|0|0|2,0:0|0:0|0:0|0:0,0:0:0:0:
209,70,47535,2,0,L|213:106,3,35.9999989013672,0|0|0|2,0:0|0:0|0:0|0:0,0:0:0:0:
350,51,47851,1,0,0:0:0:0:
305,185,48009,5,8,0:0:0:0:
366,29,48167,1,0,0:0:0:0:
412,230,48325,2,0,L|419:177,1,53.9999983520508,8|0,0:0|0:0,0:0:0:0:
366,29,48483,2,0,L|373:82,1,53.9999983520508,0|0,0:0|0:0,0:0:0:0:
303,249,48641,2,0,L|310:196,1,53.9999983520508,8|0,0:0|0:0,0:0:0:0:
264,22,48798,6,0,L|270:66,3,35.9999989013672,0|0|0|0,0:0|0:0|0:0|0:0,0:0:0:0:
179,164,49114,1,0,0:0:0:0:
113,64,49272,6,0,L|107:111,5,35.9999989013672,2|0|0|2|0|0,0:0|0:0|0:0|0:0|0:0|0:0,0:0:0:0:
104,143,49588,1,8,0:0:0:0:
251,248,49746,1,0,0:0:0:0:
251,248,49825,1,0,0:0:0:0:
251,248,49904,6,0,L|160:239,1,90,8|0,0:0|0:0,0:0:0:0:
302,114,50141,1,0,0:0:0:0:
302,114,50219,2,0,L|296:174,1,53.9999983520508,8|0,0:0|0:0,0:0:0:0:
135,119,50377,1,0,0:0:0:0:
135,119,50456,1,0,0:0:0:0:
135,119,50535,2,0,L|140:65,1,53.9999983520508,8|0,0:0|0:0,0:0:0:0:
384,31,50693,1,0,0:0:0:0:
384,31,50772,1,0,0:0:0:0:
384,31,50851,5,8,0:0:0:0:
296,167,51009,6,0,L|291:123,3,35.9999989013672,0|0|0|0,0:0|0:0|0:0|0:0,0:0:0:0:
139,227,51324,6,0,L|143:191,2,35.9999989013672,0|0|0,0:0|0:0|0:0,0:0:0:0:
190,279,51482,6,0,L|234:273,2,35.9999980430605,2|0|0,0:0|0:0|0:0,0:0:0:0:
139,330,51640,6,0,L|94:324,2,45.0000006437303,2|0|0,0:0|0:0|0:0,0:0:0:0:
57,264,51798,6,0,L|45:266,6,11.2499997317791,8|0|0|0|0|0|0,0:0|0:0|0:0|0:0|0:0|0:0|0:0,0:0:0:0:
130,163,52114,6,0,L|241:174,1,107.999996704102,8|0,0:0|0:0,0:0:0:0:
323,49,52351,1,0,0:0:0:0:
323,49,52430,2,0,L|268:43,1,53.9999983520508,8|0,0:0|0:0,0:0:0:0:
357,173,52588,2,0,L|394:170,2,35.9999989013672,0|0|0,0:0|0:0|0:0,0:0:0:0:
304,229,52746,5,8,0:0:0:0:
202,93,52903,1,0,0:0:0:0:
408,30,53061,6,0,L|412:78,5,35.9999989013672,2|0|0|2|0|0,0:0|0:0|0:0|0:0|0:0|0:0,0:0:0:0:
415,108,53377,1,8,0:0:0:0:
230,237,53535,1,0,0:0:0:0:
230,237,53614,1,0,0:0:0:0:
230,237,53693,5,8,0:0:0:0:
313,91,53851,1,0,0:0:0:0:
140,268,54009,6,0,L|148:195,1,53.9999983520508,8|0,0:0|0:0,0:0:0:0:
229,46,54167,2,0,L|223:99,1,53.9999983520508,0|0,0:0|0:0,0:0:0:0:
50,287,54324,2,0,L|55:233,1,53.9999983520508,8|0,0:0|0:0,0:0:0:0:
146,19,54482,2,0,L|140:72,1,53.9999983520508,0|0,0:0|0:0,0:0:0:0:
9,142,54640,5,0,0:0:0:0:
140,268,54798,2,0,L|105:273,3,30,0|0|0|2,0:0|0:0|0:0|0:0,0:0:0:0:
222,99,55114,2,0,L|192:94,3,30,0|0|0|2,0:0|0:0|0:0|0:0,0:0:0:0:
336,39,55430,1,0,0:0:0:0:
408,148,55588,5,2,0:0:0:0:
408,148,55667,1,0,0:0:0:0:
408,148,55746,2,0,L|438:150,2,26.9999985322953,0|0|0,0:0|0:0|0:0,0:0:0:0:
336,39,55903,5,2,0:0:0:0:
336,39,55982,1,0,0:0:0:0:
336,39,56061,2,0,L|334:69,2,26.9999985322953,0|0|0,0:0|0:0|0:0,0:0:0:0:
245,162,56219,5,2,0:0:0:0:
245,162,56298,1,0,0:0:0:0:
245,162,56377,2,0,L|246:193,2,26.9999985322953,0|0|0,0:0|0:0|0:0,0:0:0:0:
174,27,56535,5,8,0:0:0:0:
101,152,56693,1,0,0:0:0:0:
272,85,56851,6,0,L|267:47,5,35.9999989013672,2|0|0|2|0|0,0:0|0:0|0:0|0:0|0:0|0:0,0:0:0:0:
261,6,57167,1,8,0:0:0:0:
345,176,57324,2,0,L|340:135,2,35.9999980430605,0|0|0,0:0|0:0|0:0,0:0:0:0:
308,240,57482,5,2,0:0:0:0:
308,240,57561,1,0,0:0:0:0:
308,240,57640,2,0,L|303:273,2,22.4999994635583,0|0|0,0:0|0:0|0:0,0:0:0:0:
252,147,57798,5,2,0:0:0:0:
252,147,57877,1,0,0:0:0:0:
252,147,57956,2,0,L|247:114,2,22.4999994635583,0|0|0,0:0|0:0|0:0,0:0:0:0:
189,250,58114,5,2,0:0:0:0:
189,250,58193,1,0,0:0:0:0:
189,250,58272,2,0,L|184:279,2,22.4999994635583,0|0|0,0:0|0:0|0:0,0:0:0:0:
113,118,58430,6,0,L|106:169,1,45,8|0,0:0|0:0,0:0:0:0:
199,26,58588,1,0,0:0:0:0:
199,26,58667,1,0,0:0:0:0:
199,26,58746,1,8,0:0:0:0:
199,26,58824,2,0,L|209:115,1,89.999997854233,0|0,0:0|0:0,0:0:0:0:
318,42,59061,5,8,0:0:0:0:
311,91,59140,1,0,0:0:0:0:
304,140,59219,1,0,0:0:0:0:
297,189,59298,1,0,0:0:0:0:
228,229,59377,6,0,L|217:149,1,80.9999975280763,6|0,0:0|0:0,0:0:0:0:
109,186,59851,2,0,P|129:185|149:182,1,40.4999987640381,0|0,0:0|0:0,0:0:0:0:
217,149,60167,1,0,0:0:0:0:
291,165,60324,6,0,P|333:164|381:148,2,80.999995596886,2|0|0,0:0|0:0|0:0,0:0:0:0:
217,149,61114,1,0,0:0:0:0:
163,93,61272,6,0,L|169:47,2,40.4999987640381,2|0|0,0:0|0:0|0:0,0:0:0:0:
104,144,61746,1,0,0:0:0:0:
157,198,61903,2,0,P|159:220|155:237,1,40.499997798443,0|0,0:0|0:0,0:0:0:0:
205,296,62219,6,0,P|242:281|282:280,1,80.9999975280763,2|0,0:0|0:0,0:0:0:0:
355,308,62693,1,0,0:0:0:0:
411,255,62851,2,0,L|407:214,1,40.4999987640381,0|0,0:0|0:0,0:0:0:0:
377,142,63167,6,0,P|344:154|290:151,1,80.9999975280763,2|0,0:0|0:0,0:0:0:0:
235,109,63640,1,0,0:0:0:0:
182,165,63798,2,0,L|184:205,1,40.4999987640381,0|0,0:0|0:0,0:0:0:0:
236,262,64114,6,0,P|277:263|316:243,2,80.999995596886,2|0|0,0:0|0:0|0:0,0:0:0:0:
184,205,64903,1,0,0:0:0:0:
257,181,65061,6,0,L|265:135,1,40.4999987640381,2|0,0:0|0:0,0:0:0:0:
357,63,65377,2,0,L|314:79,1,40.4999987640381,0|0,0:0|0:0,0:0:0:0:
208,41,65693,2,0,L|244:70,1,40.4999987640381,0|0,0:0|0:0,0:0:0:0:
229,179,66009,6,0,L|254:134,1,40.4999987640381,2|0,0:0|0:0,0:0:0:0:
218,27,66324,2,0,L|211:-7,2,26.9999991760254,0|2|2,0:0|0:0|0:0,0:0:0:0:
195,50,66640,6,0,L|243:66,1,40.4999987640381,2|0,0:0|0:0,0:0:0:0:
355,261,66956,6,0,P|309:254|269:287,1,99.0000030212403,12|0,0:0|0:0,0:0:0:0:
226,368,67430,1,0,0:0:0:0:
155,306,67588,2,0,L|156:282,5,16.5000005035401,8|0|0|0|0|0,0:0|0:0|0:0|0:0|0:0|0:0,0:0:0:0:
133,267,67903,5,10,0:0:0:0:
158,81,68219,1,10,0:0:0:0:
133,267,68535,6,0,L|135:251,5,16.5000001101494,8|0|0|0|0|0,0:0|0:0|0:0|0:0|0:0|0:0,0:0:0:0:
128,313,68851,6,0,P|168:286|220:292,1,99.0000030212403,12|0,0:0|0:0,0:0:0:0:
291,350,69324,1,0,0:0:0:0:
368,295,69482,2,0,L|367:271,5,16.5000005035401,8|0|0|0|0|0,0:0|0:0|0:0|0:0|0:0|0:0,0:0:0:0:
390,256,69798,5,10,0:0:0:0:
346,73,70114,1,10,0:0:0:0:
390,256,70430,6,0,L|395:212,2,33.0000010070801,0|0|0,0:0|0:0|0:0,0:0:0:0:
410,316,70746,6,0,P|362:284|300:291,1,99.0000030212403,12|0,0:0|0:0,0:0:0:0:
248,341,71219,1,0,0:0:0:0:
154,295,71377,2,0,L|129:297,3,24.7500001652241,8|0|0|0,0:0|0:0|0:0|0:0,0:0:0:0:
179,313,71693,2,0,L|191:202,1,99.0000030212403,10|10,0:0|0:0,0:0:0:0:
223,21,72324,5,10,0:0:0:0:
187,24,72403,1,0,0:0:0:0:
150,28,72482,1,10,0:0:0:0:
113,32,72561,1,0,0:0:0:0:
76,36,72640,5,4,0:0:0:0:
76,36,73618,5,0,0:0:0:0:
76,36,74535,5,8,0:0:0:0:
77,62,74613,1,0,0:0:0:0:
78,89,74692,1,0,0:0:0:0:
79,116,74771,1,0,0:0:0:0:
80,143,74850,1,8,0:0:0:0:
81,170,74929,1,0,0:0:0:0:
83,197,75008,1,0,0:0:0:0:
84,224,75087,1,0,0:0:0:0:
85,251,75166,1,8,0:0:0:0:
86,278,75245,1,0,0:0:0:0:
87,305,75324,1,0,0:0:0:0:
88,332,75403,1,0,0:0:0:0:
90,356,75482,6,0,P|106:356|118:361,1,27,12|0,0:0|0:0,0:0:0:0:
194,319,75798,6,0,L|192:290,3,26.9999985322953,12|0|12|0,0:0|0:0|0:0|0:0,0:0:0:0:
194,319,76429,6,0,L|205:186,1,125.999996154785,4|0,1:0|0:0,0:0:0:0:
115,38,76746,1,0,0:0:0:0:
274,146,76904,1,10,0:0:0:0:
321,162,76983,1,0,0:0:0:0:
369,147,77062,2,0,P|388:124|396:92,1,62.9999980773926,0|0,0:0|0:0,0:0:0:0:
208,74,77219,2,0,P|189:97|181:129,1,62.9999980773926,0|0,0:0|0:0,0:0:0:0:
241,278,77377,5,8,0:0:0:0:
85,194,77535,1,8,0:0:0:0:
174,360,77693,1,0,0:0:0:0:
245,198,77851,1,8,0:0:0:0:
86,301,78009,1,0,0:0:0:0:
252,358,78167,1,0,0:0:0:0:
114,81,78325,6,0,P|80:132|85:194,1,125.999993150712,8|0,0:0|0:0,0:0:0:0:
241,278,78641,1,0,0:0:0:0:
160,101,78798,1,10,0:0:0:0:
114,81,78877,1,0,0:0:0:0:
66,98,78956,2,0,P|51:120|45:161,1,62.9999965753558,0|0,0:0|0:0,0:0:0:0:
241,278,79113,2,0,P|236:247|219:220,1,62.9999965753558,0|0,0:0|0:0,0:0:0:0:
59,238,79272,1,8,0:0:0:0:
183,380,79430,1,0,0:0:0:0:
135,197,79588,6,0,L|141:135,1,62.9999965753558,8|0,0:0|0:0,0:0:0:0:
233,11,79746,2,0,L|239:74,1,62.9999980773926,0|0,0:0|0:0,0:0:0:0:
247,245,79904,2,0,L|254:183,1,62.9999980773926,8|0,0:0|0:0,0:0:0:0:
340,57,80061,2,0,L|346:120,1,62.9999980773926,0|0,0:0|0:0,0:0:0:0:
363,255,80219,6,0,P|429:261|479:218,1,125.999993150712,8|0,0:0|0:0,0:0:0:0:
340,57,80534,1,0,0:0:0:0:
238,218,80693,1,10,0:0:0:0:
229,267,80772,1,0,0:0:0:0:
247,313,80850,2,0,P|272:329|311:333,1,62.9999980773926,0|0,0:0|0:0,0:0:0:0:
398,182,81008,2,0,P|367:186|340:202,1,62.9999980773926,0|0,0:0|0:0,0:0:0:0:
197,380,81167,5,8,0:0:0:0:
379,307,81325,1,0,0:0:0:0:
271,151,81483,1,8,0:0:0:0:
304,333,81641,1,0,0:0:0:0:
488,299,81798,1,8,0:0:0:0:
340,201,81956,1,0,0:0:0:0:
384,384,82114,6,0,P|416:330|413:268,1,125.999993150712,8|0,0:0|0:0,0:0:0:0:
287,120,82430,1,0,0:0:0:0:
221,297,82588,1,10,0:0:0:0:
268,312,82667,1,0,0:0:0:0:
317,313,82745,2,0,P|328:283|332:252,1,62.9999965753558,0|0,0:0|0:0,0:0:0:0:
203,113,82904,2,0,P|207:145|218:173,1,62.9999965753558,0|0,0:0|0:0,0:0:0:0:
413,268,83062,5,8,0:0:0:0:
482,106,83219,1,0,0:0:0:0:
293,118,83377,1,8,0:0:0:0:
451,195,83535,1,0,0:0:0:0:
350,34,83693,1,8,0:0:0:0:
302,204,83851,1,0,0:0:0:0:
453,363,84009,6,0,P|497:319|500:258,1,125.999993150712,8|0,0:0|0:0,0:0:0:0:
369,138,84324,1,0,0:0:0:0:
273,337,84483,1,10,0:0:0:0:
320,353,84562,1,0,0:0:0:0:
368,339,84641,2,0,P|384:308|384:277,1,62.9999980773926,0|0,0:0|0:0,0:0:0:0:
256,145,84798,2,0,P|257:177|272:204,1,62.9999980773926,0|0,0:0|0:0,0:0:0:0:
500,258,84956,5,8,0:0:0:0:
424,98,85114,1,0,0:0:0:0:
271,203,85272,1,8,0:0:0:0:
441,184,85430,1,0,0:0:0:0:
300,57,85588,1,8,0:0:0:0:
358,223,85746,1,0,0:0:0:0:
409,23,85904,6,0,P|348:18|300:57,1,125.999996154785,8|0,0:0|0:0,0:0:0:0:
358,223,86219,1,0,0:0:0:0:
446,56,86377,1,10,0:0:0:0:
409,23,86456,1,0,0:0:0:0:
358,17,86535,2,0,P|348:51|352:81,1,62.9999980773926,0|0,0:0|0:0,0:0:0:0:
461,225,86692,2,0,P|470:195|467:164,1,62.9999980773926,0|0,0:0|0:0,0:0:0:0:
269,60,86850,5,0,0:0:0:0:
358,223,87008,1,8,0:0:0:0:
446,56,87166,1,8,0:0:0:0:
293,145,87324,1,0,0:0:0:0:
419,294,87482,2,0,P|436:267|446:237,1,62.9999965753558,8|0,0:0|0:0,0:0:0:0:
460,116,87640,2,0,P|456:85|445:55,1,62.9999965753558,0|0,0:0|0:0,0:0:0:0:
338,201,87798,6,0,P|385:241|446:238,1,125.999993150712,8|0,0:0|0:0,0:0:0:0:
351,77,88114,1,0,0:0:0:0:
262,317,88272,1,10,0:0:0:0:
310,303,88351,1,0,0:0:0:0:
339,262,88430,2,0,P|344:231|338:201,1,62.9999980773926,0|0,0:0|0:0,0:0:0:0:
216,20,88588,2,0,P|208:50|214:81,1,62.9999980773926,0|0,0:0|0:0,0:0:0:0:
411,156,88746,5,8,0:0:0:0:
320,4,88904,1,0,0:0:0:0:
243,176,89062,1,8,0:0:0:0:
379,66,89219,1,0,0:0:0:0:
153,196,89377,1,8,0:0:0:0:
196,257,89455,1,0,0:0:0:0:
270,264,89534,1,0,0:0:0:0:
325,216,89614,1,0,0:0:0:0:
335,142,89692,6,0,L|325:99,5,44.9999989271165,12|0|0|0|0|0,0:0|0:0|0:0|0:0|0:0|0:0,0:0:0:0:
367,28,90166,6,0,L|324:18,5,44.9999989271165,12|0|0|0|0|0,0:0|0:0|0:0|0:0|0:0|0:0,0:0:0:0:
241,14,90640,5,12,0:0:0:0:
209,45,90719,1,0,0:0:0:0:
201,87,90798,1,0,0:0:0:0:
220,126,90877,1,0,0:0:0:0:
258,147,90956,1,0,0:0:0:0:
301,141,91035,1,0,0:0:0:0:
330,100,91114,5,12,0:0:0:0:
377,94,91193,1,0,0:0:0:0:
419,117,91272,1,0,0:0:0:0:
439,160,91351,1,0,0:0:0:0:
431,207,91430,1,0,0:0:0:0:
396,237,91508,1,0,0:0:0:0:
344,257,91588,6,0,P|301:247|270:215,1,89.999997854233,12|0,0:0|0:0,0:0:0:0:
309,97,91824,1,0,0:0:0:0:
309,97,91903,2,0,P|307:119|300:140,1,45,10|0,0:0|0:0,0:0:0:0:
184,258,92061,2,0,P|177:236|175:214,1,45,2|0,0:0|0:0,0:0:0:0:
255,345,92219,2,0,P|218:366|168:366,1,90,8|0,0:0|0:0,0:0:0:0:
105,151,92535,5,10,0:0:0:0:
126,135,92613,1,0,0:0:0:0:
151,126,92692,1,0,0:0:0:0:
178,124,92771,1,0,0:0:0:0:
204,130,92850,1,10,0:0:0:0:
228,143,92929,1,0,0:0:0:0:
247,162,93008,1,0,0:0:0:0:
259,185,93087,1,0,0:0:0:0:
264,212,93166,1,10,0:0:0:0:
262,239,93245,1,0,0:0:0:0:
252,264,93324,1,0,0:0:0:0:
236,285,93403,1,0,0:0:0:0:
214,300,93482,6,0,P|171:309|123:282,1,90,8|0,0:0|0:0,0:0:0:0:
47,161,93719,1,0,0:0:0:0:
47,161,93798,2,0,P|73:158|98:166,1,45,10|0,0:0|0:0,0:0:0:0:
264,212,93956,2,0,P|243:216|220:213,1,45,2|0,0:0|0:0,0:0:0:0:
6,94,94113,2,0,P|67:78|147:104,1,135,8|0,0:0|0:0,0:0:0:0:
290,207,94429,5,10,0:0:0:0:
264,212,94508,1,0,0:0:0:0:
237,212,94587,1,0,0:0:0:0:
211,207,94666,1,0,0:0:0:0:
186,197,94745,1,10,0:0:0:0:
162,183,94824,1,0,0:0:0:0:
141,166,94903,1,0,0:0:0:0:
122,147,94982,1,0,0:0:0:0:
101,130,95061,1,10,0:0:0:0:
78,117,95140,1,0,0:0:0:0:
52,109,95219,1,0,0:0:0:0:
25,108,95298,1,0,0:0:0:0:
2,122,95377,6,0,P|-7:163|6:209,1,89.999997854233,8|0,0:0|0:0,0:0:0:0:
152,259,95613,1,0,0:0:0:0:
152,259,95692,2,0,P|157:237|151:209,1,45,10|0,0:0|0:0,0:0:0:0:
39,313,95850,2,0,P|36:335|41:356,1,45,2|0,0:0|0:0,0:0:0:0:
202,137,96008,2,0,P|156:121|109:133,1,90,8|0,0:0|0:0,0:0:0:0:
112,335,96324,5,10,0:0:0:0:
133,351,96403,1,0,0:0:0:0:
159,358,96482,1,0,0:0:0:0:
186,355,96561,1,0,0:0:0:0:
209,343,96640,1,10,0:0:0:0:
227,322,96719,1,0,0:0:0:0:
236,297,96798,1,0,0:0:0:0:
234,270,96877,1,0,0:0:0:0:
224,246,96956,1,10,0:0:0:0:
205,227,97035,1,0,0:0:0:0:
180,216,97113,1,0,0:0:0:0:
153,215,97192,1,0,0:0:0:0:
128,224,97271,6,0,P|102:258|101:310,1,90,8|0,0:0|0:0,0:0:0:0:
234,378,97508,1,0,0:0:0:0:
234,378,97587,2,0,P|238:356|234:333,1,45,10|0,0:0|0:0,0:0:0:0:
128,179,97745,2,0,P|123:200|127:223,1,45,2|0,0:0|0:0,0:0:0:0:
325,361,97903,2,0,P|325:316|307:275,1,90,8|0,0:0|0:0,0:0:0:0:
128,179,98219,5,10,0:0:0:0:
149,196,98297,1,0,0:0:0:0:
172,209,98376,1,0,0:0:0:0:
199,215,98455,1,0,0:0:0:0:
225,211,98534,1,10,0:0:0:0:
250,200,98613,1,0,0:0:0:0:
272,184,98692,1,0,0:0:0:0:
291,165,98771,1,0,0:0:0:0:
313,149,98850,1,10,0:0:0:0:
337,137,98929,1,0,0:0:0:0:
364,133,99008,1,0,0:0:0:0:
390,138,99087,1,0,0:0:0:0:
414,149,99166,6,0,P|428:195|411:238,1,89.999997854233,8|0,0:0|0:0,0:0:0:0:
282,325,99403,1,0,0:0:0:0:
282,325,99482,2,0,P|277:302|280:280,1,45,10|0,0:0|0:0,0:0:0:0:
415,104,99640,2,0,P|418:126|414:149,1,45,2|0,0:0|0:0,0:0:0:0:
359,307,99798,1,8,0:0:0:0:
255,142,99956,1,0,0:0:0:0:
282,325,100113,5,10,0:0:0:0:
295,347,100192,1,0,0:0:0:0:
314,366,100271,1,0,0:0:0:0:
338,377,100350,1,0,0:0:0:0:
366,380,100429,1,10,0:0:0:0:
391,375,100508,1,0,0:0:0:0:
415,363,100587,1,0,0:0:0:0:
434,343,100666,1,0,0:0:0:0:
446,319,100745,1,10,0:0:0:0:
450,293,100824,1,0,0:0:0:0:
446,266,100903,1,0,0:0:0:0:
434,242,100982,1,0,0:0:0:0:
415,222,101061,6,0,P|362:222|333:249,1,90,8|0,0:0|0:0,0:0:0:0:
232,359,101298,1,0,0:0:0:0:
232,359,101377,2,0,P|254:360|275:353,1,45,10|0,0:0|0:0,0:0:0:0:
143,233,101535,2,0,P|120:231|99:238,1,45,2|0,0:0|0:0,0:0:0:0:
0,356,101692,2,0,B|76:334|56:398|133:376,1,135,8|0,0:0|0:0,0:0:0:0:
267,196,102008,5,10,0:0:0:0:
245,181,102087,1,0,0:0:0:0:
219,176,102166,1,0,0:0:0:0:
193,183,102245,1,0,0:0:0:0:
172,200,102324,5,10,0:0:0:0:
143,233,102403,1,0,0:0:0:0:
101,248,102482,1,0,0:0:0:0:
57,241,102561,1,0,0:0:0:0:
22,214,102640,5,10,0:0:0:0:
42,244,102719,1,0,0:0:0:0:
48,279,102798,1,0,0:0:0:0:
37,313,102877,1,0,0:0:0:0:
21,350,102956,6,0,P|111:367|162:270,1,202.500007724762,4|0,1:0|0:0,0:0:0:0:
65,159,103271,2,0,L|-2:166,2,66.0000020141602,2|2|2,0:0|0:0|0:0,0:0:0:0:
182,97,103587,1,8,0:0:0:0:
76,295,103745,1,0,0:0:0:0:
254,124,103903,6,0,B|143:97|184:187|61:158,1,202.500007724762,4|0,1:0|0:0,0:0:0:0:
228,30,104219,2,0,L|303:38,2,49.5000015106202,2|2|2,0:0|0:0|0:0,0:0:0:0:
114,279,104535,1,8,0:0:0:0:
82,83,104692,1,0,0:0:0:0:
266,153,104850,6,0,P|360:180|415:84,1,202.500007724762,4|0,1:0|0:0,0:0:0:0:
355,28,105166,5,2,0:0:0:0:
285,45,105271,1,2,0:0:0:0:
334,98,105377,1,2,0:0:0:0:
438,26,105482,5,8,0:0:0:0:
398,247,105640,1,0,0:0:0:0:
226,94,105798,5,4,1:0:0:0:
181,65,105876,1,0,0:0:0:0:
127,61,105955,1,0,0:0:0:0:
79,83,106034,1,0,0:0:0:0:
46,126,106113,5,10,0:0:0:0:
103,110,106191,1,0,0:0:0:0:
158,134,106270,1,0,0:0:0:0:
185,187,106349,1,0,0:0:0:0:
173,245,106429,5,10,0:0:0:0:
164,173,106507,1,0,0:0:0:0:
209,117,106586,1,0,0:0:0:0:
281,110,106665,1,0,0:0:0:0:
336,157,106745,6,0,P|350:198|335:251,1,99.0000030212403,4|0,1:0|0:0,0:0:0:0:
173,338,107061,2,0,P|158:291|172:244,1,99.0000030212403,10|0,0:0|0:0,0:0:0:0:
353,358,107298,1,0,0:0:0:0:
353,358,107377,2,0,P|325:369|299:369,1,49.5000015106202,2|0,0:0|0:0,0:0:0:0:
169,149,107535,2,0,P|193:151|216:160,1,49.5000015106202,8|0,0:0|0:0,0:0:0:0:
88,215,107692,5,10,0:0:0:0:
74,194,107770,1,0,0:0:0:0:
65,171,107849,1,0,0:0:0:0:
62,146,107928,1,0,0:0:0:0:
65,122,108007,1,10,0:0:0:0:
73,99,108086,1,0,0:0:0:0:
87,78,108165,1,0,0:0:0:0:
105,61,108244,1,0,0:0:0:0:
126,48,108323,1,10,0:0:0:0:
150,41,108402,1,0,0:0:0:0:
174,40,108481,1,0,0:0:0:0:
199,44,108560,1,0,0:0:0:0:
221,53,108640,6,0,P|245:89|237:144,1,99.0000030212403,8|0,0:0|0:0,0:0:0:0:
147,249,108877,1,0,0:0:0:0:
147,249,108956,2,0,P|182:243|209:246,1,49.5000015106202,10|0,0:0|0:0,0:0:0:0:
312,317,109113,1,0,0:0:0:0:
309,331,109192,1,0,0:0:0:0:
301,343,109271,2,0,P|266:349|239:346,1,49.5000015106202,8|0,0:0|0:0,0:0:0:0:
272,162,109429,2,0,P|277:196|274:223,1,49.5000015106202,8|0,0:0|0:0,0:0:0:0:
145,161,109587,6,0,L|148:109,3,49.5000015106202,10|0|0|0,0:0|0:0|0:0|0:0,0:0:0:0:
210,69,109903,2,0,L|207:17,3,49.5000015106202,10|0|0|0,0:0|0:0|0:0|0:0,0:0:0:0:
260,125,110219,2,0,P|289:130|316:125,1,49.5000015106202,10|0,0:0|0:0,0:0:0:0:
387,47,110377,2,0,P|362:44|338:49,1,49.5000015106202,0|0,0:0|0:0,0:0:0:0:
239,208,110535,5,2,0:0:0:0:
261,217,110613,1,0,0:0:0:0:
285,222,110692,1,0,0:0:0:0:
310,221,110771,1,0,0:0:0:0:
334,215,110850,1,2,0:0:0:0:
356,204,110929,1,0,0:0:0:0:
375,188,111008,1,0,0:0:0:0:
390,169,111087,1,0,0:0:0:0:
401,147,111166,2,0,L|399:104,3,40.4999987640381,2|0|0|0,0:0|0:0|0:0|0:0,0:0:0:0:
468,263,111482,5,2,0:0:0:0:
448,259,111561,1,0,0:0:0:0:
427,260,111640,1,0,0:0:0:0:
408,267,111719,1,0,0:0:0:0:
392,278,111798,1,2,0:0:0:0:
375,289,111877,1,0,0:0:0:0:
355,295,111956,1,0,0:0:0:0:
335,295,112035,1,0,0:0:0:0:
315,291,112113,1,2,0:0:0:0:
317,258,112191,1,0,0:0:0:0:
320,226,112270,1,0,0:0:0:0:
322,194,112350,1,0,0:0:0:0:
328,144,112429,6,0,P|290:168|234:160,1,99.0000030212403,8|0,0:0|0:0,0:0:0:0:
140,43,112666,1,0,0:0:0:0:
140,43,112745,2,0,P|135:73|141:101,1,49.5000015106202,10|0,0:0|0:0,0:0:0:0:
211,235,112903,1,0,0:0:0:0:
228,225,112982,1,0,0:0:0:0:
240,210,113061,2,0,P|242:186|238:162,1,49.5000015106202,8|0,0:0|0:0,0:0:0:0:
133,303,113219,2,0,P|150:320|179:336,1,49.5000003304483,8|0,0:0|0:0,0:0:0:0:
363,181,113377,5,10,0:0:0:0:
328,146,113455,1,0,0:0:0:0:
280,139,113534,1,0,0:0:0:0:
238,162,113613,1,0,0:0:0:0:
218,206,113692,5,10,0:0:0:0:
179,162,113770,1,0,0:0:0:0:
121,152,113849,1,0,0:0:0:0:
71,181,113928,1,0,0:0:0:0:
49,235,114008,5,10,0:0:0:0:
114,215,114086,1,0,0:0:0:0:
177,242,114165,1,0,0:0:0:0:
208,302,114244,1,0,0:0:0:0:
200,369,114324,6,0,B|226:337|263:323|310:332|334:351|350:377|350:377|359:343|389:312|435:312|474:339,1,323.999990112305,2|0,0:0|0:0,0:0:0:0:
476,94,116535,5,2,0:0:0:0:
400,234,116850,1,0,0:0:0:0:
378,76,117166,1,2,0:0:0:0:
490,191,117482,1,0,0:0:0:0:
332,162,117798,1,2,0:0:0:0:
476,94,118113,6,0,P|505:178|395:106,1,323.999990112305,2|0,0:0|0:0,0:0:0:0:
256,32,120324,5,2,0:0:0:0:
196,178,120701,5,2,0:0:0:0:
348,117,121088,5,2,0:0:0:0:
256,252,121507,5,2,0:0:0:0:
356,376,122007,5,2,0:0:0:0:
256,328,122848,5,2,0:0:0:0:
256,192,123005,12,0,126617,0:0:0:0:
