osu file format v14

[General]
AudioFilename: audio.mp3
AudioLeadIn: 0
PreviewTime: 75482
Countdown: 0
SampleSet: Soft
StackLeniency: 0.6
Mode: 0
LetterboxInBreaks: 0
WidescreenStoryboard: 1

[Editor]
Bookmarks: 13578,21475,29050,36633,44208,51791,59366,66949,72636,76425,84004,91583,99162,106741,114320
DistanceSpacing: 1
BeatDivisor: 2
GridSize: 4
TimelineZoom: 1.7

[Metadata]
Title:Reason of being
TitleUnicode:Reason of being
Artist:sak respect for Arata Iiyoshi
ArtistUnicode:sak respect for Arata Iiyoshi
Creator:CookieBite
Version:BEGINNER
Source:BMS
Tags:Pokémon Pokemon Nintendo NDS Mystery Dungeon Explorers of Darkness Time Sky PMD ポケモン不思議のダンジョン 空の探検隊 時の探検隊 闇の探検隊 とざくろ Tozakuro Portable Memories March -BMS Edition- Optie しろやぎとざくろ Gear Pikachu Chimchar Primal Dialga Final Boss Battle Theme Fight to The Finish Remix Arrange けっせん!ディアルガ! A_r_M_i_N Kenterz Shiroi Hiroshi SyraxAxoJaxco KittyAdventure
BeatmapID:1358945
BeatmapSetID:640558

[Difficulty]
HPDrainRate:2
CircleSize:2
OverallDifficulty:3
ApproachRate:4
SliderMultiplier:1
SliderTickRate:1

[Events]
//Background and Video events
0,0,"BG.jpg",0,0
Video,-110,"Reason of being.flv"
//Break Periods
//Storyboard Layer 0 (Background)
//Storyboard Layer 1 (Fail)
//Storyboard Layer 2 (Pass)
//Storyboard Layer 3 (Foreground)
//Storyboard Sound Samples

[TimingPoints]
10,315.789473684211,3,2,0,40,1,0
10,-200,3,2,0,40,0,0
3799,315.789473684211,4,2,0,60,1,0
3799,-200,4,2,0,60,0,0
4114,-200,4,2,0,50,0,0
4430,-200,4,2,0,40,0,0
4746,-200,4,2,0,20,0,0
6325,315.789473684211,3,2,0,40,1,0
6325,-200,3,2,0,40,0,0
10114,-200,4,2,0,60,0,0
10430,-200,4,2,0,50,0,0
10746,-200,4,2,0,40,0,0
11061,-200,4,2,0,20,0,0
12009,-200,4,2,0,60,0,0
13588,-100,3,3,0,60,0,0
29085,315.789473684211,3,2,0,40,1,0
34746,315.789473684211,3,3,0,60,1,0
59377,-100,3,2,0,50,0,0
66956,-100,3,3,0,60,0,0
72640,326.086956521739,3,2,0,40,1,0
73618,305.966343702193,3,2,0,40,1,0
74535,315.789473684211,3,3,0,50,1,0
75482,-100,3,3,0,40,0,0
76429,-100,3,3,0,70,0,1
89692,-100,3,3,0,60,0,0
102956,-100,3,3,0,70,0,1
103824,-100,3,3,0,70,0,0
103903,-100,3,3,0,70,0,1
104771,-100,3,3,0,70,0,0
104850,-100,3,3,0,70,0,1
105719,-100,3,3,0,70,0,0
105798,-100,3,3,0,70,0,1
106666,-100,3,3,0,70,0,0
106745,-100,3,3,0,60,0,1
111166,-100,3,3,0,50,0,1
112429,-100,3,3,0,60,0,1
114324,-100,3,2,0,60,0,0
114640,-100,3,2,0,55,0,0
114956,-100,3,2,0,50,0,0
115271,-100,3,2,0,40,0,0
115587,-100,3,2,0,30,0,0
115903,-100,3,2,0,20,0,0
116219,-100,3,2,0,10,0,0
116535,-100,3,2,0,60,0,0
118429,-100,3,2,0,55,0,0
118745,-100,3,2,0,50,0,0
119061,-100,3,2,0,40,0,0
119377,-100,3,2,0,30,0,0
119692,-100,3,2,0,20,0,0
120008,-100,3,2,0,10,0,0
120324,377.358490566038,3,2,0,60,1,0
120701,387.096774193548,3,2,0,50,1,0
121088,419.58041958042,3,2,0,40,1,0
121507,500,3,2,0,30,1,0
122007,841.514726507714,3,2,0,20,1,0
122848,1256.5445026178,3,2,0,30,1,0
123005,-100,3,2,0,10,0,0
126617,-100,3,2,0,5,0,0

[Colours]
Combo1 : 189,87,215
Combo2 : 83,175,251
Combo3 : 106,215,152
Combo4 : 189,232,79
Combo5 : 235,73,39

[HitObjects]
212,125,10,6,0,P|141:117|72:161,2,150,2|0|2,0:0|0:0|0:0,0:0:0:0:
212,125,3799,6,0,P|206:193|206:329,1,200,2|2,0:0|0:0,0:0:0:0:
205,324,6325,6,0,P|265:311|341:362,2,150,2|0|2,0:0|0:0|0:0,0:0:0:0:
205,324,10114,6,0,P|203:224|211:124,1,200,2|2,0:0|0:0,0:0:0:0:
278,49,12009,5,2,0:0:0:0:
278,49,13588,1,12,0:0:0:0:
337,128,13903,6,0,L|492:116,1,150,12|10,0:0|0:0,0:0:0:0:
427,254,14851,2,0,L|418:359,2,99.9999999999999,10|8|8,0:0|0:0|0:0,0:0:0:0:
349,190,15798,6,0,P|293:235|210:218,1,150,8|10,0:0|0:0,0:0:0:0:
179,79,16746,2,0,L|283:70,1,99.9999999999999,8|8,0:0|0:0,0:0:0:0:
378,59,17377,1,8,0:0:0:0:
452,125,17693,6,0,B|452:185|452:185|440:209|440:209|440:277,1,150,8|10,0:0|0:0,0:0:0:0:
296,227,18640,2,0,L|295:119,2,99.9999999999999,8|8|8,0:0|0:0|0:0,0:0:0:0:
221,293,19588,6,0,P|174:257|85:271,1,150,8|10,0:0|0:0,0:0:0:0:
52,122,20535,2,0,L|155:110,1,99.9999999999999,8|8,0:0|0:0,0:0:0:0:
250,93,21167,1,8,0:0:0:0:
334,145,21482,6,0,P|410:125|454:57,2,150,12|10|8,0:0|0:0|0:0,0:0:0:0:
250,93,22746,1,8,0:0:0:0:
175,158,23061,1,8,0:0:0:0:
259,211,23377,6,0,L|262:366,2,150,8|10|8,0:0|0:0|0:0,0:0:0:0:
334,145,24640,2,0,P|383:139|432:160,1,100,8|8,0:0|0:0,0:0:0:0:
371,240,25272,6,0,P|365:317|400:380,2,150,8|10|8,0:0|0:0|0:0,0:0:0:0:
428,157,26535,1,8,0:0:0:0:
375,72,26851,1,8,0:0:0:0:
297,135,27167,6,0,P|233:145|166:95,1,150,8|10,0:0|0:0,0:0:0:0:
102,232,28114,2,0,L|2:222,2,99.9999999999999,8|8|8,0:0|0:0|0:0,0:0:0:0:
150,337,29085,6,0,P|226:321|285:379,1,150,2|0,0:0|0:0,0:0:0:0:
398,273,30032,2,0,L|392:169,1,99.9999999999999,2|0,0:0|0:0,0:0:0:0:
317,106,30663,1,0,0:0:0:0:
233,50,30979,6,0,P|151:38|77:118,1,200,2|0,0:0|0:0,0:0:0:0:
72,218,31927,2,0,B|187:248|159:164|269:196,1,200,2|0,0:0|0:0,0:0:0:0:
357,228,32874,6,0,L|347:387,1,150,2|0,0:0|0:0,0:0:0:0:
479,314,33821,2,0,L|470:206,1,100,2|0,0:0|0:0,0:0:0:0:
403,140,34453,1,0,0:0:0:0:
314,91,34746,6,0,P|244:81|178:131,1,150,4|2,0:0|0:0,0:0:0:0:
238,245,35693,2,0,L|352:237,1,100,10|10,0:0|0:0,0:0:0:0:
392,154,36324,1,10,0:0:0:0:
314,91,36640,6,0,L|160:74,2,150,12|10|8,0:0|0:0|0:0,0:0:0:0:
393,155,37903,2,0,L|498:144,1,99.9999999999999,8|8,0:0|0:0,0:0:0:0:
505,45,38535,1,8,0:0:0:0:
410,11,38851,2,0,L|310:21,1,99.9999999999999,0|0,0:0|0:0,0:0:0:0:
233,85,39482,2,0,P|222:158|239:288,1,200,8|8,0:0|0:0,0:0:0:0:
301,359,40430,6,0,L|416:350,2,99.9999999999999,8|8|10,0:0|0:0|0:0,0:0:0:0:
237,282,41377,2,0,L|137:274,1,99.9999999999999,8|8,0:0|0:0,0:0:0:0:
69,199,42009,1,8,0:0:0:0:
139,128,42324,2,0,P|236:122|293:207,1,200,8|0,0:0|0:0,0:0:0:0:
237,282,43272,2,0,L|241:390,2,99.9999999999999,8|8|8,0:0|0:0|0:0,0:0:0:0:
292,198,44219,6,0,B|342:210|342:210|385:188,1,99.9999999999999,12|8,0:0|0:0,0:0:0:0:
428,97,44851,1,8,0:0:0:0:
498,168,45167,2,0,L|488:371,1,200,8|8,0:0|0:0,0:0:0:0:
398,323,46114,6,0,B|347:311|347:311|305:338,1,99.9999999999999,8|8,0:0|0:0,0:0:0:0:
215,378,46746,1,8,0:0:0:0:
138,314,47061,2,0,L|131:212,2,99.9999999999999,8|2|2,0:0|0:0|0:0,0:0:0:0:
215,378,48009,5,8,0:0:0:0:
282,304,48324,2,0,B|330:291|330:291|375:314,1,99.9999999999999,8|8,0:0|0:0,0:0:0:0:
445,243,48956,2,0,L|437:141,2,99.9999999999999,0|2|8,0:0|0:0|0:0,0:0:0:0:
472,339,49903,5,8,0:0:0:0:
374,313,50219,2,0,L|272:305,1,99.9999999999999,8|8,0:0|0:0,0:0:0:0:
197,240,50851,1,8,0:0:0:0:
263,165,51167,2,0,B|281:119|281:119|264:72,1,99.9999999999999,0|2,0:0|0:0,0:0:0:0:
176,22,51798,1,8,0:0:0:0:
109,96,52114,6,0,L|115:196,1,99.9999999999999,8|8,0:0|0:0,0:0:0:0:
203,244,52746,1,8,0:0:0:0:
263,165,53061,2,0,L|363:171,1,99.9999999999999,2|8,0:0|0:0,0:0:0:0:
441,109,53693,6,0,L|435:9,2,99.9999999999999,8|8|8,0:0|0:0|0:0,0:0:0:0:
362,170,54640,1,0,0:0:0:0:
285,106,54956,2,0,B|238:91|238:91|195:117,1,99.9999999999999,2|2,0:0|0:0,0:0:0:0:
137,200,55588,6,0,L|36:193,2,99.9999999999999,2|2|2,0:0|0:0|0:0,0:0:0:0:
228,242,56535,2,0,L|329:235,2,99.9999999999999,8|2|8,0:0|0:0|0:0,0:0:0:0:
153,309,57482,5,2,0:0:0:0:
242,354,57798,2,0,L|341:360,1,99.9999999999999,2|2,0:0|0:0,0:0:0:0:
415,293,58430,1,8,0:0:0:0:
346,220,58746,2,0,B|331:173|331:173|347:124,1,99.9999999999999,8|8,0:0|0:0,0:0:0:0:
278,51,59377,6,0,P|235:110|115:69,1,200,6|0,0:0|0:0,0:0:0:0:
47,149,60324,2,0,L|53:257,1,99.9999999999999,2|0,0:0|0:0,0:0:0:0:
124,318,60956,1,0,0:0:0:0:
198,250,61272,2,0,L|306:256,2,99.9999999999999,2|0|0,0:0|0:0|0:0,0:0:0:0:
163,156,62219,2,0,P|262:151|355:105,1,200,2|0,0:0|0:0,0:0:0:0:
437,56,63167,6,0,P|422:157|426:256,1,200,2|0,0:0|0:0,0:0:0:0:
361,331,64114,2,0,L|253:326,1,99.9999999999999,2|0,0:0|0:0,0:0:0:0:
181,264,64746,1,0,0:0:0:0:
249,190,65061,6,0,L|244:90,2,99.9999999999999,2|0|0,0:0|0:0|0:0,0:0:0:0:
321,259,66009,2,0,L|316:358,2,99.9999999999999,2|0|2,0:0|0:0|0:0,0:0:0:0:
388,185,66956,6,0,P|422:129|333:38,1,200,12|8,0:0|0:0,0:0:0:0:
263,94,67903,1,10,0:0:0:0:
179,39,68219,2,0,L|71:49,1,99.9999999999999,10|8,0:0|0:0,0:0:0:0:
24,132,68851,6,0,P|11:240|21:351,1,200,12|8,0:0|0:0,0:0:0:0:
109,371,69798,1,10,0:0:0:0:
182,302,70114,2,0,L|288:308,1,100,10|0,0:0|0:0,0:0:0:0:
377,339,70746,6,0,P|455:332|471:221,1,200,12|8,0:0|0:0,0:0:0:0:
405,154,71693,2,0,L|305:159,2,99.9999999999999,10|10|10,0:0|0:0|0:0,0:0:0:0:
465,79,72640,5,4,0:0:0:0:
146,48,73618,1,0,0:0:0:0:
465,79,74535,6,0,P|366:59|446:158,1,300,8|12,0:0|0:0,0:0:0:0:
435,164,76429,6,0,B|321:145|357:236|246:208,1,200,4|0,1:0|0:0,0:0:0:0:
179,137,77377,2,0,L|185:35,2,99.9999999999999,8|8|8,0:0|0:0|0:0,0:0:0:0:
104,204,78324,6,0,L|109:303,1,99.9999999999999,8|0,0:0|0:0,0:0:0:0:
191,360,78956,1,0,0:0:0:0:
250,279,79271,2,0,P|297:273|346:306,1,100,8|8,0:0|0:0,0:0:0:0:
414,366,79903,1,8,0:0:0:0:
472,284,80219,6,0,L|459:74,1,200,8|0,0:0|0:0,0:0:0:0:
387,14,81166,1,8,0:0:0:0:
319,86,81482,2,0,P|267:94|218:69,1,99.9999999999999,8|8,0:0|0:0,0:0:0:0:
146,14,82113,6,0,L|36:20,2,99.9999999999999,8|0|0,0:0|0:0|0:0,0:0:0:0:
225,76,83061,1,8,0:0:0:0:
160,152,83377,2,0,L|166:262,1,99.9999999999999,8|8,0:0|0:0,0:0:0:0:
236,321,84008,6,0,P|164:290|67:363,1,200,8|0,0:0|0:0,0:0:0:0:
11,271,84956,2,0,L|7:171,1,99.9999999999999,8|8,0:0|0:0,0:0:0:0:
76,99,85587,1,8,0:0:0:0:
148,168,85903,6,0,L|248:164,1,99.9999999999999,8|0,0:0|0:0,0:0:0:0:
311,86,86535,1,0,0:0:0:0:
391,145,86850,2,0,P|407:197|399:252,1,100,0|8,0:0|0:0,0:0:0:0:
349,326,87482,1,8,0:0:0:0:
258,367,87798,6,0,L|52:353,1,200,8|0,0:0|0:0,0:0:0:0:
84,256,88745,2,0,L|183:248,1,99.9999999999999,8|8,0:0|0:0,0:0:0:0:
242,166,89377,1,8,0:0:0:0:
314,234,89692,6,0,P|340:173|310:92,2,150,12|12|12,0:0|0:0|0:0,0:0:0:0:
191,320,91113,1,12,0:0:0:0:
72,228,91587,6,0,P|45:138|102:56,1,200,12|8,0:0|0:0,0:0:0:0:
198,83,92535,2,0,L|200:185,1,99.9999999999999,10|10,0:0|0:0,0:0:0:0:
264,258,93166,1,10,0:0:0:0:
200,335,93482,2,0,L|98:333,2,99.9999999999999,8|10|8,0:0|0:0|0:0,0:0:0:0:
264,258,94429,2,0,B|375:224|340:317|455:282,1,200,10|10,0:0|0:0,0:0:0:0:
502,195,95377,6,0,P|454:107|366:140,1,200,8|8,0:0|0:0,0:0:0:0:
312,210,96324,1,10,0:0:0:0:
232,149,96640,2,0,L|126:159,1,99.9999999999999,10|10,0:0|0:0,0:0:0:0:
99,63,97271,2,0,B|215:81|180:0|288:21,1,200,8|8,0:0|0:0,0:0:0:0:
374,68,98219,2,0,P|390:117|380:170,1,99.9999999999999,10|10,0:0|0:0,0:0:0:0:
329,248,98850,1,10,0:0:0:0:
266,169,99166,6,0,P|197:141|111:226,1,200,8|8,0:0|0:0,0:0:0:0:
152,308,100113,2,0,L|256:300,1,99.9999999999999,10|10,0:0|0:0,0:0:0:0:
341,344,100745,1,10,0:0:0:0:
420,283,101061,2,0,L|428:179,2,99.9999999999999,8|10|8,0:0|0:0|0:0,0:0:0:0:
341,344,102008,2,0,P|254:291|158:320,1,200,10|10,0:0|0:0,0:0:0:0:
85,252,102956,6,0,B|48:159|48:159|108:72,1,200,4|8,1:0|0:0,0:0:0:0:
203,89,103903,2,0,B|240:182|240:182|180:269,1,200,4|8,1:0|0:0,0:0:0:0:
242,344,104850,2,0,B|335:307|335:307|422:367,1,200,4|8,1:0|0:0,0:0:0:0:
488,292,105798,2,0,L|494:191,2,99.9999999999999,4|10|10,1:0|0:0|0:0,0:0:0:0:
417,363,106745,6,0,P|368:337|316:348,1,99.9999999999999,4|10,1:0|0:0,0:0:0:0:
252,273,107377,1,2,0:0:0:0:
317,198,107692,2,0,L|308:98,1,99.9999999999999,10|10,0:0|0:0,0:0:0:0:
226,39,108324,1,10,0:0:0:0:
153,108,108640,6,0,L|53:99,2,99.9999999999999,8|10|8,0:0|0:0|0:0,0:0:0:0:
216,185,109587,2,0,L|316:176,2,99.9999999999999,10|10|10,0:0|0:0|0:0,0:0:0:0:
126,230,110535,2,0,P|128:331|208:377,1,200,2|2,0:0|0:0,0:0:0:0:
214,277,111482,2,0,B|335:252|284:342|408:321,1,200,2|2,0:0|0:0,0:0:0:0:
470,252,112429,6,0,L|463:142,2,99.9999999999999,8|10|8,0:0|0:0|0:0,0:0:0:0:
371,272,113377,2,0,L|364:382,2,99.9999999999999,10|10|10,0:0|0:0|0:0,0:0:0:0:
358,172,114324,6,2,B|255:157|296:243|173:217|173:217|211:203|234:173|252:137|242:65|196:25|112:29|75:67|41:116|79:185,1,600,2|0,0:0|0:0,0:0:0:0:
83,280,116535,6,0,L|72:380,1,99.9999999999999,2|0,0:0|0:0,0:0:0:0:
170,360,117166,2,0,L|270:349,1,99.9999999999999,2|0,0:0|0:0,0:0:0:0:
304,254,117798,1,2,0:0:0:0:
383,314,118113,6,0,B|436:330|496:304|499:239|499:239|478:207|478:207|522:183|551:135|538:40|460:15|374:32|357:92|340:141|386:193,1,600,2|0,0:0|0:0,0:0:0:0:
305,253,120324,6,0,P|260:254|192:224,1,100,2|2,0:0|0:0,0:0:0:0:
127,137,121088,2,0,P|82:136|16:160,1,100,2|2,0:0|0:0,0:0:0:0:
19,314,122007,5,2,0:0:0:0:
256,192,122848,12,0,126617,0:0:0:0:
