osu file format v14

[General]
AudioFilename: audio.mp3
AudioLeadIn: 0
PreviewTime: 75482
Countdown: 0
SampleSet: Soft
StackLeniency: 0.5
Mode: 0
LetterboxInBreaks: 0
WidescreenStoryboard: 1

[Editor]
Bookmarks: 13578,21475,29050,36633,44208,51791,59366,66949,72636,76425,84004,91583,99162,106741,114320
DistanceSpacing: 1.4
BeatDivisor: 4
GridSize: 4
TimelineZoom: 1.7

[Metadata]
Title:Reason of being
TitleUnicode:Reason of being
Artist:sak respect for Arata Iiyoshi
ArtistUnicode:sak respect for Arata Iiyoshi
Creator:CookieBite
Version:ADVANCED
Source:BMS
Tags:Pokémon Pokemon Nintendo NDS Mystery Dungeon Explorers of Darkness Time Sky PMD ポケモン不思議のダンジョン 空の探検隊 時の探検隊 闇の探検隊 とざくろ Tozakuro Portable Memories March -BMS Edition- Optie しろやぎとざくろ Gear Pikachu Chimchar Primal Dialga Final Boss Battle Theme Fight to The Finish Remix Arrange けっせん!ディアルガ! A_r_M_i_N Kenterz Shiroi Hiroshi SyraxAxoJaxco KittyAdventure
BeatmapID:1359788
BeatmapSetID:640558

[Difficulty]
HPDrainRate:4
CircleSize:3
OverallDifficulty:6
ApproachRate:7
SliderMultiplier:1.2
SliderTickRate:1

[Events]
//Background and Video events
0,0,"BG.jpg",0,0
Video,-110,"Reason of being.flv"
//Break Periods
//Storyboard Layer 0 (Background)
//Storyboard Layer 1 (Fail)
//Storyboard Layer 2 (Pass)
//Storyboard Layer 3 (Foreground)
//Storyboard Sound Samples

[TimingPoints]
10,315.789473684211,3,2,0,40,1,0
10,-200,3,2,0,40,0,0
3799,315.789473684211,4,2,0,60,1,0
3799,-200,4,2,0,60,0,0
4114,-200,4,2,0,50,0,0
4430,-200,4,2,0,40,0,0
4746,-200,4,2,0,20,0,0
6325,315.789473684211,3,2,0,40,1,0
6325,-200,3,2,0,40,0,0
10114,-200,4,2,0,60,0,0
10430,-200,4,2,0,50,0,0
10746,-200,4,2,0,40,0,0
11061,-200,4,2,0,20,0,0
12009,-200,4,2,0,60,0,0
13588,-100,3,3,0,60,0,0
29085,315.789473684211,3,2,0,40,1,0
34746,315.789473684211,3,3,0,60,1,0
59377,-100,3,2,0,50,0,0
66956,-100,3,3,0,60,0,0
72640,326.086956521739,3,2,0,40,1,0
73618,305.966343702193,3,2,0,40,1,0
74535,315.789473684211,3,3,0,50,1,0
75482,-100,3,3,0,40,0,0
75798,-100,3,3,0,50,0,0
76429,-100,3,3,0,70,0,1
89692,-100,3,3,0,60,0,0
102956,-100,3,3,0,70,0,1
103824,-100,3,3,0,70,0,0
103903,-100,3,3,0,70,0,1
104771,-100,3,3,0,70,0,0
104850,-100,3,3,0,70,0,1
105719,-100,3,3,0,70,0,0
105798,-100,3,3,0,70,0,1
106666,-100,3,3,0,70,0,0
106745,-100,3,3,0,60,0,1
111166,-100,3,3,0,50,0,1
112429,-100,3,3,0,60,0,1
114324,-100,3,2,0,60,0,0
114640,-100,3,2,0,55,0,0
114956,-100,3,2,0,50,0,0
115271,-100,3,2,0,40,0,0
115587,-100,3,2,0,30,0,0
115903,-100,3,2,0,20,0,0
116219,-100,3,2,0,10,0,0
116535,-100,3,2,0,60,0,0
118429,-100,3,2,0,55,0,0
118745,-100,3,2,0,50,0,0
119061,-100,3,2,0,40,0,0
119377,-100,3,2,0,30,0,0
119692,-100,3,2,0,20,0,0
120008,-100,3,2,0,10,0,0
120324,377.358490566038,3,2,0,60,1,0
120701,387.096774193548,3,2,0,50,1,0
121088,419.58041958042,3,2,0,40,1,0
121507,500,3,2,0,30,1,0
122007,841.514726507714,3,2,0,20,1,0
122848,1256.5445026178,3,2,0,30,1,0
123005,-100,3,2,0,10,0,0
126617,-100,3,2,0,5,0,0

[Colours]
Combo1 : 189,87,215
Combo2 : 83,175,251
Combo3 : 106,215,152
Combo4 : 189,232,79
Combo5 : 235,73,39

[HitObjects]
321,122,10,6,0,P|405:101|472:157,2,180,2|0|2,0:0|0:0|0:0,0:0:0:0:
321,122,3799,2,0,P|314:165|317:204,1,60,2|2,0:0|0:0,0:0:0:0:
376,237,4430,2,0,P|383:280|380:319,1,60,2|2,0:0|0:0,0:0:0:0:
382,296,6325,6,0,B|279:280|319:357|212:338,2,180,2|0|2,0:0|0:0|0:0,0:0:0:0:
382,296,10114,2,0,P|383:263|376:228,1,60,2|2,0:0|0:0,0:0:0:0:
314,181,10746,2,0,P|313:148|320:113,1,60,2|2,0:0|0:0,0:0:0:0:
317,121,12009,5,2,0:0:0:0:
317,121,13588,2,0,P|277:117|254:110,1,60,12|8,0:0|0:0,0:0:0:0:
196,54,13903,6,0,L|203:180,1,120,12|0,0:0|0:0,0:0:0:0:
155,243,14377,2,0,L|35:236,1,120,10|0,0:0|0:0,0:0:0:0:
25,152,14851,2,0,L|84:149,1,60,10|0,0:0|0:0,0:0:0:0:
142,87,15167,2,0,L|199:105,1,60,8|0,0:0|0:0,0:0:0:0:
257,45,15482,2,0,L|297:89,1,60,8|0,0:0|0:0,0:0:0:0:
371,130,15798,6,0,P|352:190|357:254,1,120,8|0,0:0|0:0,0:0:0:0:
314,320,16272,2,0,B|250:304|261:353|194:339,1,120,10|0,0:0|0:0,0:0:0:0:
144,276,16746,2,0,L|146:211,1,60,8|0,0:0|0:0,0:0:0:0:
69,180,17061,2,0,L|103:124,1,60,8|0,0:0|0:0,0:0:0:0:
51,59,17377,1,8,0:0:0:0:
51,59,17693,6,0,P|118:45|167:76,1,120,8|0,0:0|0:0,0:0:0:0:
199,143,18167,2,0,P|266:157|315:126,1,120,10|0,0:0|0:0,0:0:0:0:
363,69,18640,2,0,L|426:63,1,60,8|0,0:0|0:0,0:0:0:0:
422,147,18956,2,0,L|479:173,1,60,8|0,0:0|0:0,0:0:0:0:
433,244,19272,2,0,L|469:295,1,60,8|0,0:0|0:0,0:0:0:0:
404,349,19588,6,0,P|346:314|291:326,1,120,8|0,0:0|0:0,0:0:0:0:
224,364,20061,2,0,P|165:370|117:337,1,120,10|0,0:0|0:0,0:0:0:0:
186,288,20535,2,0,L|190:227,1,60,8|0,0:0|0:0,0:0:0:0:
116,185,20851,2,0,L|149:134,1,60,8|0,0:0|0:0,0:0:0:0:
96,68,21167,2,0,L|150:40,1,60,8|0,0:0|0:0,0:0:0:0:
225,74,21482,6,0,P|278:64|334:95,1,120,12|0,0:0|0:0,0:0:0:0:
370,170,21956,2,0,P|363:234|370:297,1,120,10|0,0:0|0:0,0:0:0:0:
316,355,22430,2,0,L|250:343,1,60,8|0,0:0|0:0,0:0:0:0:
176,370,22746,2,0,L|124:326,1,60,8|0,0:0|0:0,0:0:0:0:
50,357,23061,2,0,L|27:293,1,60,8|0,0:0|0:0,0:0:0:0:
68,225,23377,6,0,P|127:235|176:200,1,120,8|0,0:0|0:0,0:0:0:0:
224,134,23851,2,0,P|283:124|332:159,1,120,10|0,0:0|0:0,0:0:0:0:
377,226,24325,2,0,L|371:293,1,60,8|0,0:0|0:0,0:0:0:0:
289,303,24640,2,0,L|250:358,1,60,8|0,0:0|0:0,0:0:0:0:
176,319,24956,1,8,0:0:0:0:
176,319,25272,6,0,P|160:262|165:198,1,120,8|0,0:0|0:0,0:0:0:0:
222,140,25746,2,0,L|343:146,1,120,10|0,0:0|0:0,0:0:0:0:
404,202,26219,2,0,P|407:243|403:271,1,60,8|0,0:0|0:0,0:0:0:0:
328,297,26535,2,0,P|310:334|292:356,1,60,8|0,0:0|0:0,0:0:0:0:
221,314,26851,2,0,P|186:337|160:347,1,60,8|0,0:0|0:0,0:0:0:0:
94,306,27167,6,0,P|75:237|83:184,1,120,8|0,0:0|0:0,0:0:0:0:
135,126,27640,2,0,B|202:112|186:156|252:139,1,120,10|0,0:0|0:0,0:0:0:0:
321,185,28114,2,0,L|385:178,1,60,8|0,0:0|0:0,0:0:0:0:
423,105,28430,2,0,L|481:130,1,60,8|0,0:0|0:0,0:0:0:0:
472,213,28746,2,0,L|490:274,1,60,8|0,0:0|0:0,0:0:0:0:
408,349,29085,6,0,P|348:297|251:324,1,180,2|0,0:0|0:0,0:0:0:0:
104,247,29874,1,0,0:0:0:0:
157,182,30032,2,0,P|165:127|152:50,2,120,2|0|0,0:0|0:0|0:0,0:0:0:0:
48,310,30979,6,0,P|96:296|156:330,1,120,2|0,0:0|0:0,0:0:0:0:
223,376,31453,1,0,0:0:0:0:
292,328,31611,2,0,P|290:294|283:261,1,60,0|0,0:0|0:0,0:0:0:0:
236,199,31927,2,0,B|364:242|343:122|471:167,1,240,2|0,0:0|0:0,0:0:0:0:
445,331,32874,6,0,P|353:338|282:286,1,180,2|0,0:0|0:0,0:0:0:0:
326,126,33663,1,0,0:0:0:0:
262,74,33821,2,0,P|203:67|150:106,2,120,2|0|0,0:0|0:0|0:0,0:0:0:0:
306,205,34746,6,0,L|179:186,1,120,4|8,0:0|0:0,0:0:0:0:
133,251,35219,2,0,L|142:310,1,60,2|0,0:0|0:0,0:0:0:0:
202,369,35535,1,0,0:0:0:0:
271,320,35693,2,0,L|329:328,1,60,10|0,0:0|0:0,0:0:0:0:
412,307,36009,6,0,P|468:242|442:147,1,180,10|0,0:0|0:0,0:0:0:0:
379,109,36640,6,0,P|331:146|264:137,1,120,12|0,0:0|0:0,0:0:0:0:
203,96,37114,2,0,P|144:92|98:129,1,120,10|0,0:0|0:0,0:0:0:0:
57,202,37588,2,0,L|66:272,1,60,8|0,0:0|0:0,0:0:0:0:
31,339,37903,2,0,L|96:366,1,60,8|0,0:0|0:0,0:0:0:0:
146,303,38219,2,0,L|208:270,1,60,8|0,0:0|0:0,0:0:0:0:
241,201,38535,6,0,P|295:235|355:223,1,120,8|0,0:0|0:0,0:0:0:0:
408,167,39009,1,10,0:0:0:0:
466,226,39167,2,0,L|460:294,1,60,0|0,0:0|0:0,0:0:0:0:
403,346,39482,6,0,L|335:340,1,60,8|0,0:0|0:0,0:0:0:0:
266,375,39798,2,0,L|226:319,1,60,8|0,0:0|0:0,0:0:0:0:
147,317,40114,2,0,L|164:251,1,60,8|0,0:0|0:0,0:0:0:0:
224,202,40430,6,0,P|292:206|338:164,1,120,8|8,0:0|0:0,0:0:0:0:
357,95,40903,1,0,0:0:0:0:
304,29,41061,1,10,0:0:0:0:
167,125,41377,6,0,P|134:171|143:249,1,120,8|8,0:0|0:0,0:0:0:0:
190,296,41851,1,0,0:0:0:0:
252,240,42009,2,0,P|282:239|310:247,1,60,8|0,0:0|0:0,0:0:0:0:
359,316,42324,6,0,P|441:331|514:262,1,180,8|10,0:0|0:0,0:0:0:0:
495,188,42956,1,0,0:0:0:0:
358,89,43272,6,0,L|290:93,1,60,8|0,0:0|0:0,0:0:0:0:
283,175,43588,2,0,L|342:171,1,60,8|0,0:0|0:0,0:0:0:0:
426,166,43903,1,8,0:0:0:0:
337,308,44219,6,0,L|218:301,1,120,12|8,0:0|0:0,0:0:0:0:
145,344,44693,1,0,0:0:0:0:
88,282,44851,2,0,B|77:255|77:255|87:226,1,60,8|0,0:0|0:0,0:0:0:0:
150,169,45167,5,8,0:0:0:0:
295,85,45482,2,0,B|324:80|324:80|346:101,1,60,2|2,0:0|0:0,0:0:0:0:
382,177,45798,2,0,L|446:174,1,60,8|0,0:0|0:0,0:0:0:0:
511,126,46114,6,0,B|530:182|530:182|501:240,1,120,8|8,0:0|0:0,0:0:0:0:
450,302,46588,1,0,0:0:0:0:
373,266,46746,2,0,L|313:271,1,60,8|0,0:0|0:0,0:0:0:0:
253,330,47061,6,0,B|206:327|206:327|181:337|181:337|135:334,1,120,8|2,0:0|0:0,0:0:0:0:
58,369,47535,1,0,0:0:0:0:
1,306,47693,2,0,B|-5:277|-5:277|8:247,1,60,2|0,0:0|0:0,0:0:0:0:
65,187,48009,6,0,B|123:202|123:202|175:171,1,120,8|8,0:0|0:0,0:0:0:0:
239,117,48482,1,0,0:0:0:0:
300,173,48640,2,0,L|295:234,1,60,8|0,0:0|0:0,0:0:0:0:
246,302,48956,5,0,0:0:0:0:
395,377,49272,2,0,B|425:381|425:381|451:367,1,60,2|2,0:0|0:0,0:0:0:0:
506,303,49588,2,0,L|501:243,1,60,8|0,0:0|0:0,0:0:0:0:
436,189,49903,6,0,B|383:218|383:218|325:205,1,120,8|8,0:0|0:0,0:0:0:0:
250,165,50377,1,0,0:0:0:0:
301,98,50535,2,0,L|296:38,1,60,8|0,0:0|0:0,0:0:0:0:
215,13,50851,5,8,0:0:0:0:
56,64,51167,1,0,0:0:0:0:
180,176,51482,2,0,B|238:163|238:163|291:201,1,120,2|8,0:0|0:0,0:0:0:0:
195,339,52114,6,0,L|73:328,1,120,8|8,0:0|0:0,0:0:0:0:
19,264,52588,1,0,0:0:0:0:
70,197,52746,2,0,L|65:138,1,60,8|0,0:0|0:0,0:0:0:0:
128,81,53061,2,0,B|157:88|157:88|185:71,1,60,2|2,0:0|0:0,0:0:0:0:
247,17,53377,2,0,L|307:22,1,60,8|0,0:0|0:0,0:0:0:0:
380,62,53693,6,0,B|399:118|399:118|367:177,1,120,8|8,0:0|0:0,0:0:0:0:
312,233,54167,1,0,0:0:0:0:
371,292,54324,2,0,L|436:286,1,60,8|0,0:0|0:0,0:0:0:0:
499,336,54640,5,0,0:0:0:0:
335,376,54956,2,0,B|304:379|304:379|279:362,1,60,2|0,0:0|0:0,0:0:0:0:
220,303,55272,1,2,0:0:0:0:
299,154,55588,6,0,B|329:149|329:149|357:162,1,60,2|0,0:0|0:0,0:0:0:0:
408,226,55903,2,0,B|438:231|438:231|466:218,1,60,2|0,0:0|0:0,0:0:0:0:
510,147,56219,1,2,0:0:0:0:
392,27,56535,6,0,B|340:56|340:56|279:43,1,120,8|2,0:0|0:0,0:0:0:0:
200,17,57009,1,2,0:0:0:0:
141,76,57167,2,0,L|146:144,1,60,8|0,0:0|0:0,0:0:0:0:
102,208,57482,6,0,B|73:203|73:203|43:218,1,60,2|0,0:0|0:0,0:0:0:0:
1,289,57798,2,0,B|-4:318|-4:318|9:345,1,60,2|0,0:0|0:0,0:0:0:0:
86,379,58114,1,2,0:0:0:0:
208,263,58430,6,0,L|271:270,1,60,8|0,0:0|0:0,0:0:0:0:
334,321,58746,2,0,L|393:314,1,60,8|0,0:0|0:0,0:0:0:0:
453,253,59061,2,0,L|512:259,1,60,8|0,0:0|0:0,0:0:0:0:
508,175,59377,6,0,L|381:162,1,120,6|0,0:0|0:0,0:0:0:0:
332,225,59851,1,0,0:0:0:0:
269,168,60009,2,0,L|209:171,1,60,0|0,0:0|0:0,0:0:0:0:
151,109,60324,2,0,P|125:158|149:232,2,120,2|0|0,0:0|0:0|0:0,0:0:0:0:
306,45,61272,6,0,L|367:50,1,60,2|0,0:0|0:0,0:0:0:0:
441,11,61588,2,0,P|422:67|420:127,1,120,0|0,0:0|0:0,0:0:0:0:
451,205,62061,1,0,0:0:0:0:
387,259,62219,6,0,P|334:267|276:231,1,120,2|0,0:0|0:0,0:0:0:0:
312,69,62851,2,0,L|375:66,1,60,0|0,0:0|0:0,0:0:0:0:
441,11,63167,6,0,P|423:69|423:134,1,120,2|0,0:0|0:0,0:0:0:0:
455,205,63640,1,0,0:0:0:0:
419,280,63798,2,0,L|358:272,1,60,0|0,0:0|0:0,0:0:0:0:
277,253,64114,2,0,P|221:272|149:267,2,120,2|0|0,0:0|0:0|0:0,0:0:0:0:
327,91,65061,6,0,L|261:84,1,60,2|0,0:0|0:0,0:0:0:0:
244,165,65377,2,0,L|303:171,1,60,0|0,0:0|0:0,0:0:0:0:
387,183,65693,1,0,0:0:0:0:
297,325,66009,2,0,L|177:340,2,120,2|0|2,0:0|0:0|0:0,0:0:0:0:
268,159,66956,6,0,B|364:188|351:117|445:142,1,180,12|0,0:0|0:0,0:0:0:0:
510,190,67588,1,8,0:0:0:0:
476,354,67903,1,10,0:0:0:0:
351,243,68219,1,10,0:0:0:0:
183,249,68535,6,0,P|176:287|178:312,1,60,8|0,0:0|0:0,0:0:0:0:
232,372,68851,2,0,P|327:367|364:282,1,180,12|0,0:0|0:0,0:0:0:0:
336,220,69482,1,8,0:0:0:0:
173,259,69798,1,10,0:0:0:0:
220,98,70114,1,10,0:0:0:0:
336,220,70430,6,0,P|340:251|337:282,1,60,0|0,0:0|0:0,0:0:0:0:
265,324,70746,2,0,B|140:269|155:393|40:341,1,240,12|8,0:0|0:0,0:0:0:0:
7,175,71693,1,10,0:0:0:0:
166,229,72009,1,10,0:0:0:0:
133,64,72324,2,0,B|161:51|161:51|192:57,1,60,10|10,0:0|0:0,0:0:0:0:
264,87,72640,5,4,0:0:0:0:
264,87,73618,5,0,0:0:0:0:
264,87,74535,6,0,P|321:86|224:139,1,360,8|12,0:0|0:0,0:0:0:0:
67,89,75798,6,0,L|132:83,1,60,12|0,0:0|0:0,0:0:0:0:
181,19,76113,2,0,L|240:24,1,60,12|0,0:0|0:0,0:0:0:0:
301,82,76429,6,0,P|366:72|411:125,1,120,4|0,1:0|0:0,0:0:0:0:
439,182,76903,1,10,0:0:0:0:
373,234,77061,2,0,L|379:300,1,60,0|0,0:0|0:0,0:0:0:0:
320,355,77377,2,0,P|262:362|207:333,1,120,8|8,0:0|0:0,0:0:0:0:
172,258,77850,1,0,0:0:0:0:
212,184,78008,1,8,0:0:0:0:
368,122,78324,6,0,L|427:126,1,60,8|0,0:0|0:0,0:0:0:0:
403,206,78640,2,0,L|343:202,1,60,0|10,0:0|0:0,0:0:0:0:
352,286,78956,2,0,L|411:291,1,60,0|0,0:0|0:0,0:0:0:0:
459,360,79271,2,0,P|493:306|484:251,1,120,8|8,0:0|0:0,0:0:0:0:
506,171,79745,1,0,0:0:0:0:
446,111,79903,2,0,L|450:48,1,60,8|0,0:0|0:0,0:0:0:0:
369,24,80219,6,0,P|309:51|252:36,1,120,8|0,0:0|0:0,0:0:0:0:
178,11,80692,1,10,0:0:0:0:
116,68,80850,2,0,L|119:140,1,60,0|0,0:0|0:0,0:0:0:0:
154,204,81166,2,0,P|113:192|46:241,1,120,8|8,0:0|0:0,0:0:0:0:
17,307,81640,1,0,0:0:0:0:
63,376,81798,1,8,0:0:0:0:
217,312,82113,6,0,L|212:250,1,60,8|0,0:0|0:0,0:0:0:0:
292,224,82429,2,0,L|296:283,1,60,0|10,0:0|0:0,0:0:0:0:
380,295,82745,2,0,L|375:235,1,60,0|0,0:0|0:0,0:0:0:0:
342,156,83061,2,0,P|291:138|230:166,1,120,8|8,0:0|0:0,0:0:0:0:
179,228,83535,1,0,0:0:0:0:
112,177,83692,2,0,L|116:113,1,60,8|0,0:0|0:0,0:0:0:0:
33,97,84008,6,0,L|24:231,1,120,8|0,0:0|0:0,0:0:0:0:
57,294,84482,1,10,0:0:0:0:
116,353,84640,2,0,L|175:349,1,60,0|0,0:0|0:0,0:0:0:0:
240,294,84956,2,0,P|289:299|348:252,1,120,8|8,0:0|0:0,0:0:0:0:
379,183,85429,1,0,0:0:0:0:
358,101,85587,1,8,0:0:0:0:
199,155,85903,6,0,L|195:228,1,60,8|0,0:0|0:0,0:0:0:0:
111,221,86219,2,0,L|114:161,1,60,0|10,0:0|0:0,0:0:0:0:
31,145,86535,2,0,L|27:204,1,60,0|0,0:0|0:0,0:0:0:0:
51,285,86850,2,0,P|114:309|165:290,1,120,0|8,0:0|0:0,0:0:0:0:
195,214,87324,1,0,0:0:0:0:
255,272,87482,2,0,L|251:331,1,60,8|0,0:0|0:0,0:0:0:0:
330,361,87798,6,0,P|394:330|452:343,1,120,8|0,0:0|0:0,0:0:0:0:
499,277,88271,1,10,0:0:0:0:
435,222,88429,2,0,L|441:162,1,60,0|0,0:0|0:0,0:0:0:0:
375,108,88745,2,0,L|315:114,1,60,8|0,0:0|0:0,0:0:0:0:
248,62,89061,2,0,L|223:116,1,60,8|0,0:0|0:0,0:0:0:0:
146,154,89377,1,8,0:0:0:0:
239,292,89692,6,0,B|181:277|181:277|124:319,1,120,12|0,0:0|0:0,0:0:0:0:
182,381,90166,2,0,L|312:371,1,120,12|0,0:0|0:0,0:0:0:0:
351,303,90640,2,0,L|470:312,1,120,12|0,0:0|0:0,0:0:0:0:
507,236,91113,2,0,B|481:181|481:181|507:127,1,120,12|0,0:0|0:0,0:0:0:0:
445,69,91587,6,0,P|396:100|334:86,1,120,12|10,0:0|0:0,0:0:0:0:
278,27,92061,1,2,0:0:0:0:
212,79,92219,2,0,L|221:144,1,60,8|0,0:0|0:0,0:0:0:0:
160,197,92535,2,0,P|113:188|49:226,2,120,10|10|10,0:0|0:0|0:0,0:0:0:0:
261,331,93482,6,0,L|323:328,1,60,8|0,0:0|0:0,0:0:0:0:
340,247,93798,2,0,L|280:249,1,60,10|2,0:0|0:0,0:0:0:0:
238,175,94113,1,8,0:0:0:0:
371,72,94429,6,0,L|373:131,1,60,10|0,0:0|0:0,0:0:0:0:
390,215,94745,2,0,L|339:247,1,60,10|0,0:0|0:0,0:0:0:0:
312,327,95061,2,0,L|258:299,1,60,10|0,0:0|0:0,0:0:0:0:
199,238,95377,6,0,P|140:233|93:275,1,120,8|10,0:0|0:0,0:0:0:0:
53,342,95850,1,2,0:0:0:0:
1,275,96008,2,0,L|6:212,1,60,8|0,0:0|0:0,0:0:0:0:
48,142,96324,2,0,P|110:152|162:114,2,120,10|10|10,0:0|0:0|0:0,0:0:0:0:
175,30,97271,6,0,L|239:33,1,60,8|0,0:0|0:0,0:0:0:0:
314,5,97587,2,0,L|343:61,1,60,10|2,0:0|0:0,0:0:0:0:
416,97,97903,1,8,0:0:0:0:
370,167,98061,1,0,0:0:0:0:
430,224,98219,6,0,L|425:298,1,60,10|0,0:0|0:0,0:0:0:0:
342,269,98535,2,0,L|275:301,1,60,10|0,0:0|0:0,0:0:0:0:
219,245,98850,1,10,0:0:0:0:
290,92,99166,6,0,P|355:106|405:76,1,120,8|10,0:0|0:0,0:0:0:0:
456,18,99640,1,2,0:0:0:0:
511,81,99798,2,0,L|508:149,1,60,8|0,0:0|0:0,0:0:0:0:
437,186,100113,2,0,P|438:241|451:307,2,120,10|10|10,0:0|0:0|0:0,0:0:0:0:
292,98,101061,6,0,L|288:164,1,60,8|0,0:0|0:0,0:0:0:0:
204,169,101377,2,0,L|207:109,1,60,10|2,0:0|0:0,0:0:0:0:
142,55,101692,1,8,0:0:0:0:
66,205,102008,6,0,L|125:201,1,60,10|0,0:0|0:0,0:0:0:0:
204,169,102324,2,0,L|237:219,1,60,10|0,0:0|0:0,0:0:0:0:
314,254,102640,2,0,L|287:307,1,60,10|0,0:0|0:0,0:0:0:0:
217,355,102956,6,0,B|159:343|159:343|108:378,1,120,4|2,1:0|0:0,0:0:0:0:
39,329,103429,1,0,0:0:0:0:
62,248,103587,2,0,L|54:184,1,60,8|0,0:0|0:0,0:0:0:0:
104,119,103903,6,0,B|154:153|154:153|212:141,1,120,4|2,1:0|0:0,0:0:0:0:
273,82,104377,1,2,0:0:0:0:
340,131,104535,2,0,L|332:200,1,60,8|0,0:0|0:0,0:0:0:0:
289,262,104850,6,0,B|339:227|339:227|397:239,1,120,4|2,1:0|0:0,0:0:0:0:
431,315,105324,1,0,0:0:0:0:
367,369,105482,2,0,L|307:364,1,60,8|0,0:0|0:0,0:0:0:0:
232,324,105798,6,0,L|172:329,1,60,4|0,1:0|0:0,0:0:0:0:
151,247,106113,2,0,L|211:242,1,60,10|0,0:0|0:0,0:0:0:0:
217,157,106429,2,0,L|157:162,1,60,10|0,0:0|0:0,0:0:0:0:
175,79,106745,6,0,P|241:72|292:112,1,120,4|10,1:0|0:0,0:0:0:0:
323,175,107219,1,0,0:0:0:0:
261,232,107377,2,0,L|267:295,1,60,2|8,0:0|0:0,0:0:0:0:
203,347,107692,2,0,B|130:324|151:378|74:355,1,120,10|10,0:0|0:0,0:0:0:0:
26,299,108166,1,0,0:0:0:0:
57,220,108324,1,10,0:0:0:0:
180,106,108640,6,0,L|188:170,1,60,8|0,0:0|0:0,0:0:0:0:
139,235,108956,2,0,L|198:260,1,60,10|0,0:0|0:0,0:0:0:0:
234,332,109271,1,8,0:0:0:0:
314,184,109587,6,0,L|369:207,1,60,10|0,0:0|0:0,0:0:0:0:
448,177,109903,2,0,L|454:236,1,60,10|0,0:0|0:0,0:0:0:0:
498,308,110219,1,10,0:0:0:0:
338,353,110535,6,0,P|279:365|231:327,1,120,2|2,0:0|0:0,0:0:0:0:
201,253,111008,1,0,0:0:0:0:
137,308,111166,2,0,L|133:380,1,60,2|0,0:0|0:0,0:0:0:0:
51,347,111482,2,0,L|57:227,1,120,2|2,0:0|0:0,0:0:0:0:
120,170,111956,1,0,0:0:0:0:
76,98,112113,1,2,0:0:0:0:
234,42,112429,6,0,L|300:34,1,60,8|0,0:0|0:0,0:0:0:0:
305,118,112745,2,0,L|345:171,1,60,10|0,0:0|0:0,0:0:0:0:
300,239,113061,1,8,0:0:0:0:
162,141,113377,6,0,P|144:166|139:196,1,60,10|0,0:0|0:0,0:0:0:0:
58,222,113692,2,0,P|70:249|94:268,1,60,10|0,0:0|0:0,0:0:0:0:
76,350,114008,2,0,P|106:351|134:341,1,60,10|0,0:0|0:0,0:0:0:0:
178,270,114324,6,2,B|215:263|248:280|266:310|266:310|279:340|319:358|356:346|356:346|320:343|292:314|288:280|291:243|328:214|367:208|401:233|401:233|369:201|358:166|374:111|431:88|431:88|386:109|323:74,1,720,2|0,0:0|0:0,0:0:0:0:
176,19,116535,5,2,0:0:0:0:
143,135,116850,1,0,0:0:0:0:
243,202,117166,1,2,0:0:0:0:
339,127,117482,1,0,0:0:0:0:
298,14,117798,1,2,0:0:0:0:
174,126,118113,6,0,B|203:166|246:194|297:175|328:133|328:133|365:84|417:71|472:97|495:148|491:196|458:225|433:248|433:248|401:275|399:316|414:358|474:367|512:337|513:286|481:251,1,720,2|0,0:0|0:0,0:0:0:0:
344,231,120324,6,0,P|329:282|343:360,1,120,2|2,0:0|0:0,0:0:0:0:
489,369,121088,2,0,P|498:310|483:253,1,120,2|2,0:0|0:0,0:0:0:0:
423,172,122007,5,2,0:0:0:0:
256,192,122848,12,0,126617,0:0:0:0:
