osu file format v14

[General]
AudioFilename: audio.mp3
AudioLeadIn: 0
PreviewTime: 95897
Countdown: 0
SampleSet: Soft
StackLeniency: 0.5
Mode: 0
LetterboxInBreaks: 0
WidescreenStoryboard: 1

[Editor]
Bookmarks: 100968
DistanceSpacing: 1
BeatDivisor: 4
GridSize: 8
TimelineZoom: 2.3

[Metadata]
Title:WoRLd Tempest
TitleUnicode:WoRLd Tempest
Artist:sak remixed by LeaF
ArtistUnicode:sak remixed by LeaF
Creator:Kroytz
Version:mithew's MAXIMUM
Source:K-Shoot MANIA
Tags:Hard Renaissance Artcore Piano Stream Deathstream Anxient Nerova Riuz GX toybot mithew
BeatmapID:1415026
BeatmapSetID:490916

[Difficulty]
HPDrainRate:6
CircleSize:4
OverallDifficulty:8.8
ApproachRate:9.5
SliderMultiplier:1.75
SliderTickRate:1

[Events]
//Background and Video events
0,0,"BG.png",0,0
//Break Periods
2,76810,85245
//Storyboard Layer 0 (Background)
//Storyboard Layer 1 (Fail)
//Storyboard Layer 2 (Pass)
//Storyboard Layer 3 (Foreground)
//Storyboard Layer 4 (Overlay)
//Storyboard Sound Samples

[TimingPoints]
1183,285.714285714286,4,2,1,40,1,0
10325,-200,4,2,1,40,0,0
19183,-200,4,2,1,5,0,0
21754,-142.857142857143,4,2,1,40,0,0
24040,-125,4,2,1,45,0,0
26325,-111.111111111111,4,2,1,50,0,0
27468,-100,4,2,1,55,0,0
28611,-90.9090909090909,4,2,1,60,0,0
30897,-80,4,2,1,70,0,0
40040,-100,4,2,1,75,0,1
40897,-80,4,2,1,75,0,1
48754,-133.333333333333,4,2,1,75,0,1
49183,-80,4,2,1,75,0,1
58611,-100,4,2,1,60,0,0
58825,-100,4,2,1,5,0,0
58897,-100,4,2,1,60,0,0
59397,-100,4,2,1,5,0,0
59468,-100,4,2,1,60,0,0
60825,-100,4,2,1,5,0,0
60897,-100,4,2,1,60,0,0
63825,-100,4,2,1,5,0,0
63897,-100,4,2,1,60,0,0
65683,-100,4,2,1,5,0,0
65754,-100,4,2,1,60,0,0
71968,-100,4,2,1,5,0,0
72040,-100,4,2,1,60,0,0
72968,-100,4,2,1,5,0,0
73040,-100,4,2,1,60,0,0
74111,-100,4,2,1,5,0,0
74183,-100,4,2,1,60,0,0
85468,-133.333333333333,4,2,1,60,0,0
96040,-76.9230769230769,4,2,1,75,0,1
107468,-66.6666666666667,4,2,1,75,0,1
107683,-66.6666666666667,4,2,1,5,0,1
107754,-66.6666666666667,4,2,1,75,0,1
107897,-66.6666666666667,4,2,1,75,0,1
108111,-66.6666666666667,4,2,1,5,0,1
108183,-66.6666666666667,4,2,1,75,0,1
108397,-66.6666666666667,4,2,1,5,0,1
108468,-76.9230769230769,4,2,1,75,0,1
112468,-133.333333333333,4,2,1,75,0,1
112897,-76.9230769230769,4,2,1,75,0,1
113040,-133.333333333333,4,2,1,75,0,1
113183,-76.9230769230769,4,2,1,75,0,1
132611,-76.9230769230769,4,2,1,75,0,0
134861,-76.9230769230769,4,2,1,5,0,0

[Colours]
Combo1 : 39,148,64
Combo2 : 201,201,201
Combo3 : 128,128,128
Combo4 : 112,206,214
Combo5 : 46,152,160

[HitObjects]
79,288,10325,6,0,P|132:298|209:263,2,131.25
34,223,11468,1,0,0:0:0:0:
97,95,11754,2,0,L|102:190,2,87.5
287,37,12611,6,0,B|221:19|232:52|147:27,2,131.25
386,73,13754,1,0,0:0:0:0:
415,143,14040,1,0,0:0:0:0:
380,212,14325,1,0,0:0:0:0:
398,287,14611,1,0,0:0:0:0:
276,351,14897,6,0,L|376:363,1,87.5
302,268,15325,2,0,L|202:280,1,87.5
192,351,15754,1,0,0:0:0:0:
15,199,16040,6,0,P|68:206|115:186,1,87.5
143,129,16468,2,0,P|90:122|43:142,1,87.5
176,201,16897,1,0,0:0:0:0:
262,115,17183,6,0,B|311:253|226:232|280:384,1,262.5
361,48,18325,6,0,B|270:31|270:31|198:54|198:54|105:35,1,262.5
256,192,20325,12,0,21611,0:0:0:0:
176,193,21754,6,0,L|38:172,1,122.499996261597,6|0,0:0|0:0,0:0:0:0:
272,163,22183,2,0,L|128:142,1,122.499996261597,2|0,0:0|0:0,0:0:0:0:
306,92,22611,1,2,0:0:0:0:
94,42,22754,1,0,0:0:0:0:
92,54,22825,1,0,0:0:0:0:
89,70,22897,2,0,L|82:114,3,30.6249990653992,2|0|0|0,0:0|0:0|0:0|0:0,0:0:0:0:
151,146,23183,2,0,L|158:190,3,30.6249990653992,2|0|0|0,0:0|0:0|0:0|0:0,0:0:0:0:
89,222,23468,2,0,L|82:266,3,30.6249990653992,2|0|0|0,0:0|0:0|0:0|0:0,0:0:0:0:
151,298,23754,2,0,L|158:342,3,30.6249990653992,2|0|0|0,0:0|0:0|0:0|0:0,0:0:0:0:
239,361,24040,6,0,P|289:366|337:340,1,105,6|0,0:0|0:0,0:0:0:0:
352,315,24325,1,2,0:0:0:0:
322,166,24468,2,0,P|276:216|272:284,1,140,2|2,0:0|0:0,0:0:0:0:
430,348,24897,1,2,0:0:0:0:
461,148,25040,1,0,0:0:0:0:
472,139,25111,1,0,0:0:0:0:
486,128,25183,2,0,L|481:92,3,35,2|0|0|0,0:0|0:0|0:0|0:0,0:0:0:0:
406,33,25468,2,0,L|401:69,3,35,2|0|0|0,0:0|0:0|0:0|0:0,0:0:0:0:
326,128,25754,2,0,L|321:92,3,35,2|0|0|0,0:0|0:0|0:0|0:0,0:0:0:0:
266,41,26040,2,0,L|182:32,1,70,2|0,0:0|0:0,0:0:0:0:
165,31,26254,1,2,0:0:0:0:
126,26,26325,6,0,P|54:49|37:123,1,157.499995193482,6|0,0:0|0:0,0:0:0:0:
74,351,26754,2,0,L|68:313,2,39.3749987983704,2|0|0,0:0|0:0|0:0,0:0:0:0:
51,213,27040,1,0,0:0:0:0:
219,208,27183,2,0,L|264:201,1,39.3749987983704,2|0,0:0|0:0,0:0:0:0:
171,270,27325,2,0,L|132:263,1,39.3749987983704,0|2,0:0|0:0,0:0:0:0:
328,341,27468,6,0,B|318:276|318:276|343:234|343:234|331:155,1,175,6|0,0:0|0:0,0:0:0:0:
443,344,27897,2,0,L|496:358,3,43.75,2|0|0|0,0:0|0:0|0:0|0:0,0:0:0:0:
424,223,28183,2,0,L|420:266,1,43.75,0|0,0:0|0:0,0:0:0:0:
495,184,28325,2,0,L|491:140,1,43.75,2|0,0:0|0:0,0:0:0:0:
451,31,28468,1,0,0:0:0:0:
451,31,28540,1,2,0:0:0:0:
451,31,28611,6,0,B|396:42|372:67|372:67|267:38,1,192.500005874634,6|0,0:0|0:0,0:0:0:0:
246,45,28968,1,0,0:0:0:0:
223,51,29039,1,2,0:0:0:0:
200,57,29111,1,2,0:0:0:0:
177,63,29183,1,4,0:0:0:0:
9,107,29325,5,2,0:0:0:0:
44,115,29396,1,2,0:0:0:0:
79,124,29467,1,2,0:0:0:0:
114,133,29539,1,2,0:0:0:0:
149,142,29611,1,2,0:0:0:0:
390,232,29754,5,6,1:2:0:0:
353,262,29825,1,0,1:0:0:0:
306,269,29896,1,0,1:0:0:0:
262,251,29968,1,0,1:0:0:0:
217,233,30040,1,0,1:0:0:0:
170,241,30111,1,0,1:0:0:0:
133,270,30182,1,0,1:0:0:0:
122,318,30254,1,0,1:0:0:0:
144,366,30325,5,4,1:2:0:0:
79,124,30468,1,4,1:2:0:0:
319,184,30611,1,6,1:2:0:0:
490,232,30897,6,0,P|512:156|466:92,1,164.0625,6|0,1:2|0:0,0:0:0:0:
433,84,31183,1,8,1:2:0:0:
319,184,31325,2,0,L|432:171,1,109.375,2|0,0:0|0:0,0:0:0:0:
320,22,31611,1,0,1:0:0:0:
320,22,31683,1,2,0:0:0:0:
320,22,31754,2,0,L|210:9,1,109.375,8|0,1:2|0:0,0:0:0:0:
0,24,32040,6,0,P|15:68|11:132,1,109.375,2|0,1:2|0:0,0:0:0:0:
68,198,32254,1,2,0:0:0:0:
81,183,32325,2,0,P|103:132|108:78,1,109.375,10|0,1:2|1:0,0:0:0:0:
177,184,32540,1,2,0:0:0:0:
174,202,32611,2,0,P|148:242|99:278,1,109.375,2|0,0:0|1:0,0:0:0:0:
88,367,32825,1,2,0:0:0:0:
107,367,32897,2,0,P|152:353|198:310,1,109.375,10|0,1:2|0:0,0:0:0:0:
403,27,33183,6,0,B|424:110|371:85|408:188,1,164.0625,2|2,1:2|0:0,0:0:0:0:
386,260,33468,1,10,1:2:0:0:
215,69,33611,2,0,L|326:61,1,109.375,2|0,0:0|0:0,0:0:0:0:
512,255,33897,1,0,1:2:0:0:
486,249,33968,1,0,0:0:0:0:
460,243,34039,1,10,1:2:0:0:
512,384,34183,1,2,0:0:0:0:
279,349,34325,6,0,P|329:334|345:284,1,109.375,2|0,1:2|0:0,0:0:0:0:
311,218,34540,2,0,L|198:207,1,109.375,2|0,0:0|0:0,0:0:0:0:
127,198,34754,1,2,1:2:0:0:
249,80,34897,1,0,0:0:0:0:
249,80,34968,1,2,0:0:0:0:
161,291,35111,1,0,0:0:0:0:
156,267,35183,5,10,1:2:0:0:
115,272,35254,1,0,0:0:0:0:
78,256,35325,1,2,1:2:0:0:
55,223,35397,1,2,0:0:0:0:
53,182,35468,6,0,L|63:62,1,109.375,2|0,1:2|0:0,0:0:0:0:
149,21,35683,1,2,0:0:0:0:
177,0,35754,2,0,L|187:120,1,109.375,10|0,1:2|0:0,0:0:0:0:
273,161,35968,1,2,0:0:0:0:
301,182,36039,2,0,L|311:62,1,109.375,2|0,0:0|1:0,0:0:0:0:
397,21,36254,1,2,0:0:0:0:
425,0,36325,2,0,L|435:120,1,109.375,10|0,1:2|1:0,0:0:0:0:
453,333,36611,6,0,P|402:353|349:346,1,109.375,2|0,0:0|0:0,0:0:0:0:
181,212,36825,1,2,0:0:0:0:
197,195,36897,2,0,P|247:174|300:181,1,109.375,10|0,1:2|0:0,0:0:0:0:
138,293,37111,1,2,0:0:0:0:
121,277,37183,2,0,P|100:226|107:173,1,109.375,2|0,1:2|1:0,0:0:0:0:
137,0,37397,1,2,0:0:0:0:
154,16,37469,2,0,P|174:66|167:119,1,109.375,8|0,1:2|0:0,0:0:0:0:
4,334,37754,6,0,B|121:277|121:277|202:311,1,218.75,2|8,0:0|1:2,0:0:0:0:
336,384,38183,1,2,1:2:0:0:
336,384,38254,1,0,0:0:0:0:
336,384,38325,1,0,0:0:0:0:
341,222,38468,1,0,1:0:0:0:
486,384,38611,2,0,B|490:335|490:335|473:266,1,109.375,10|2,1:2|0:0,0:0:0:0:
294,76,38897,5,2,1:2:0:0:
443,149,39040,1,0,1:0:0:0:
231,213,39183,1,8,1:2:0:0:
424,152,39325,1,0,1:0:0:0:
209,63,39468,2,0,L|203:126,1,54.6875,10|0,1:2|0:0,0:0:0:0:
191,293,39611,1,10,1:2:0:0:
191,293,39683,1,2,1:2:0:0:
191,293,39754,1,10,1:2:0:0:
26,166,39897,1,10,1:2:0:0:
214,27,40040,5,6,0:0:0:0:
243,40,40111,1,0,0:0:0:0:
279,34,40182,1,0,0:0:0:0:
312,31,40254,1,0,0:0:0:0:
341,43,40325,1,8,1:2:0:0:
362,67,40397,1,0,0:0:0:0:
368,98,40468,1,0,0:0:0:0:
369,108,40539,1,0,0:0:0:0:
370,119,40610,1,0,1:2:0:0:
371,130,40682,1,0,0:0:0:0:
372,141,40754,2,0,L|378:201,1,43.75,0|0,1:0|0:0,0:0:0:0:
477,311,40897,2,0,L|483:256,3,54.6875,10|0|0|0,1:2|0:0|0:0|0:0,0:0:0:0:
379,357,41183,5,2,1:2:0:0:
367,304,41254,1,0,0:0:0:0:
330,264,41325,1,2,0:0:0:0:
279,248,41397,1,0,0:0:0:0:
226,261,41468,1,10,1:2:0:0:
182,293,41540,1,0,0:0:0:0:
127,293,41611,5,2,1:2:0:0:
195,126,41754,1,2,1:2:0:0:
280,338,41897,1,2,1:2:0:0:
169,35,42040,2,0,B|92:86|142:104|60:153,1,164.0625,10|0,1:2|0:0,0:0:0:0:
16,216,42325,5,2,1:2:0:0:
18,230,42396,1,0,0:0:0:0:
19,243,42467,1,0,0:0:0:0:
21,257,42539,1,0,0:0:0:0:
19,270,42610,1,8,1:2:0:0:
19,284,42683,1,0,0:0:0:0:
17,297,42754,5,0,0:0:0:0:
25,336,42825,1,0,0:0:0:0:
56,363,42896,1,0,1:2:0:0:
96,366,42968,1,0,0:0:0:0:
130,345,43039,1,0,1:0:0:0:
146,308,43111,1,0,0:0:0:0:
154,268,43183,2,0,B|212:277|212:277|261:264,1,109.375,10|0,1:2|0:0,0:0:0:0:
488,25,43468,5,2,1:2:0:0:
491,52,43539,1,0,0:0:0:0:
494,79,43610,1,2,0:0:0:0:
497,106,43682,1,0,0:0:0:0:
462,145,43754,5,10,1:2:0:0:
465,172,43825,1,0,0:0:0:0:
468,199,43896,1,2,1:2:0:0:
471,226,43968,1,0,0:0:0:0:
436,265,44040,5,2,1:2:0:0:
439,292,44111,1,0,0:0:0:0:
442,319,44182,1,2,1:2:0:0:
445,346,44254,1,0,0:0:0:0:
491,384,44325,5,10,1:2:0:0:
450,381,44396,1,0,0:0:0:0:
409,378,44467,1,2,0:0:0:0:
368,375,44539,1,0,0:0:0:0:
327,372,44611,6,0,L|205:360,1,109.375,2|0,1:2|0:0,0:0:0:0:
81,342,44897,1,8,1:2:0:0:
98,130,45040,1,2,0:0:0:0:
105,156,45111,1,0,0:0:0:0:
109,183,45182,1,0,1:0:0:0:
109,210,45254,1,0,0:0:0:0:
104,236,45325,2,0,L|168:227,1,54.6875,0|0,0:0|0:0,0:0:0:0:
306,110,45468,2,0,L|249:103,3,54.6875,8|0|0|0,1:2|0:0|0:0|0:0,0:0:0:0:
190,46,45754,6,0,P|206:97|198:151,1,109.375,2|0,1:2|0:0,0:0:0:0:
342,348,46040,1,8,1:2:0:0:
349,322,46111,1,0,0:0:0:0:
353,295,46182,1,2,0:0:0:0:
353,268,46254,1,0,0:0:0:0:
348,242,46325,2,0,L|410:234,1,54.6875,0|0,1:2|0:0,0:0:0:0:
512,179,46468,2,0,L|457:172,1,54.6875,0|0,0:0|0:0,0:0:0:0:
344,36,46611,2,0,L|348:90,3,54.6875,8|0|0|0,1:2|0:0|0:0|0:0,0:0:0:0:
208,187,46897,5,2,1:2:0:0:
170,202,46968,1,0,0:0:0:0:
130,196,47039,1,0,0:0:0:0:
98,170,47111,1,0,0:0:0:0:
84,132,47182,1,8,1:2:0:0:
92,92,47254,1,0,0:0:0:0:
118,62,47325,1,0,0:0:0:0:
134,54,47397,1,0,0:0:0:0:
154,50,47468,5,2,1:2:0:0:
198,80,47539,1,2,1:2:0:0:
252,88,47610,1,2,1:2:0:0:
303,72,47682,1,2,1:2:0:0:
343,35,47753,1,2,1:2:0:0:
346,61,47825,1,2,1:2:0:0:
349,89,47896,1,2,1:2:0:0:
352,116,47968,1,2,1:2:0:0:
355,144,48039,5,6,1:2:0:0:
379,360,48183,1,6,1:2:0:0:
383,384,48468,1,6,1:2:0:0:
30,176,48754,2,0,L|39:99,1,65.6250025033952,6|2,1:2|0:0,0:0:0:0:
39,92,48968,1,0,0:0:0:0:
41,76,49039,1,2,0:0:0:0:
43,60,49111,1,2,0:0:0:0:
45,43,49183,5,6,1:2:0:0:
92,69,49254,1,0,0:0:0:0:
146,73,49325,1,0,0:0:0:0:
197,55,49397,1,0,0:0:0:0:
236,17,49468,1,8,1:2:0:0:
245,71,49540,1,0,0:0:0:0:
254,125,49611,1,0,0:0:0:0:
301,94,49683,1,0,0:0:0:0:
346,64,49754,1,0,0:0:0:0:
355,118,49825,1,0,0:0:0:0:
365,171,49896,1,2,1:2:0:0:
374,225,49968,1,2,0:0:0:0:
384,278,50040,2,0,L|516:255,1,109.375,10|0,1:2|0:0,0:0:0:0:
256,363,50325,6,0,L|202:353,1,54.6875,2|0,1:2|0:0,0:0:0:0:
253,345,50468,2,0,L|199:335,1,54.6875,2|0,0:2|0:0,0:0:0:0:
48,267,50611,2,0,L|101:257,1,54.6875,10|0,1:2|0:0,0:0:0:0:
51,249,50754,2,0,L|104:239,1,54.6875,2|0,1:2|0:0,0:0:0:0:
213,99,50897,5,2,0:2:0:0:
180,92,50968,1,0,0:0:0:0:
151,85,51039,1,2,1:2:0:0:
121,81,51111,1,0,0:0:0:0:
91,75,51183,1,10,1:2:0:0:
291,220,51325,1,2,1:2:0:0:
502,16,51468,5,2,1:2:0:0:
498,43,51539,1,0,0:0:0:0:
485,67,51610,1,0,0:0:0:0:
464,84,51682,1,0,0:0:0:0:
438,92,51753,1,8,1:2:0:0:
410,89,51825,1,0,0:0:0:0:
386,77,51897,1,0,0:0:0:0:
364,63,51968,1,0,0:0:0:0:
338,54,52039,5,0,0:0:0:0:
310,53,52111,1,0,0:0:0:0:
284,59,52182,1,2,1:2:0:0:
239,91,52254,1,2,0:0:0:0:
225,142,52325,1,10,1:2:0:0:
245,192,52397,1,0,0:0:0:0:
291,220,52468,1,2,0:0:0:0:
344,215,52540,1,0,0:0:0:0:
384,178,52611,5,2,1:2:0:0:
118,118,52754,1,2,0:0:0:0:
193,344,52897,1,10,1:2:0:0:
311,136,53040,1,2,1:2:0:0:
75,276,53183,5,2,0:0:0:0:
338,125,53325,1,2,1:2:0:0:
53,59,53468,2,0,P|34:114|47:168,1,109.375,10|2,1:2|0:0,0:0:0:0:
115,197,53683,1,0,0:0:0:0:
133,193,53754,6,0,L|216:175,3,54.6875,6|0|2|0,1:2|0:0|0:0|0:0,0:0:0:0:
296,260,54040,2,0,L|242:248,3,54.6875,10|0|2|0,0:0|0:0|0:0|0:0,0:0:0:0:
80,332,54325,5,2,1:2:0:0:
120,329,54396,1,0,0:0:0:0:
161,327,54467,1,2,1:2:0:0:
202,325,54539,1,0,0:0:0:0:
235,366,54611,1,10,1:2:0:0:
275,363,54682,1,0,0:0:0:0:
316,361,54753,1,2,0:0:0:0:
357,359,54825,1,0,0:0:0:0:
397,321,54897,6,0,B|405:297|405:297|400:254,3,54.6875,6|0|2|0,1:2|0:0|0:0|0:0,0:0:0:0:
466,86,55183,2,0,B|458:116|458:116|463:153,3,54.6875,10|0|2|0,1:2|0:0|0:0|0:0,0:0:0:0:
354,156,55468,5,2,1:2:0:0:
314,163,55539,1,0,0:0:0:0:
276,148,55610,1,2,1:2:0:0:
251,116,55682,1,0,0:0:0:0:
247,76,55754,1,10,1:2:0:0:
243,89,55825,1,0,0:0:0:0:
239,102,55896,1,2,0:0:0:0:
234,115,55968,1,0,0:0:0:0:
187,144,56040,5,6,1:2:0:0:
134,129,56111,1,2,0:0:0:0:
83,145,56182,1,2,1:2:0:0:
46,185,56254,1,2,0:0:0:0:
36,238,56325,1,6,1:2:0:0:
55,288,56397,1,2,0:0:0:0:
98,321,56468,1,2,1:2:0:0:
153,322,56540,1,2,0:0:0:0:
202,299,56611,6,0,L|291:304,3,54.6875,6|2|2|2,1:2|0:0|1:2|0:0,0:0:0:0:
383,356,56897,2,0,L|294:361,3,54.6875,6|2|2|2,1:2|0:0|1:2|0:0,0:0:0:0:
481,326,57183,5,6,1:2:0:0:
457,293,57254,1,2,0:0:0:0:
449,253,57325,1,2,1:2:0:0:
458,213,57397,1,2,0:0:0:0:
484,181,57468,1,6,1:2:0:0:
501,145,57539,1,2,0:0:0:0:
497,104,57610,1,2,1:2:0:0:
473,72,57682,1,2,0:0:0:0:
435,57,57753,1,6,1:2:0:0:
395,63,57825,1,2,0:0:0:0:
364,89,57896,1,2,1:2:0:0:
326,106,57968,1,2,0:0:0:0:
285,100,58040,6,0,L|209:91,1,54.6875,2|2,1:2|1:2,0:0:0:0:
71,31,58183,2,0,L|147:22,1,54.6875,2|2,1:2|1:2,0:0:0:0:
8,102,58325,6,0,L|5:139,6,27.34375,0|0|0|0|0|0|0,3:0|3:0|3:0|3:0|3:0|3:0|3:0,0:0:0:0:
25,208,58611,6,0,P|82:193|144:238,1,131.25,6|0,1:2|0:0,0:0:0:0:
150,259,58897,1,0,1:0:0:0:
228,384,59040,2,0,L|237:296,1,87.5,2|8,1:2|1:2,0:0:0:0:
266,199,59254,2,0,L|275:286,1,87.5,2|0,0:0|0:0,0:0:0:0:
316,350,59468,6,0,B|400:381|401:309|483:363,1,175,2|8,1:2|1:2,0:0:0:0:
356,276,59897,1,0,0:0:0:0:
486,149,60040,2,0,L|483:248,1,87.5,2|0,1:2|1:0,0:0:0:0:
374,67,60325,1,10,1:2:0:0:
373,56,60396,1,2,0:0:0:0:
373,45,60467,1,2,0:0:0:0:
372,34,60539,1,2,0:0:0:0:
371,21,60611,6,0,B|344:103|344:103|350:151,1,131.25,2|0,1:2|0:0,0:0:0:0:
353,175,60897,1,8,1:2:0:0:
252,52,61040,2,0,L|153:43,1,87.5,2|0,0:0|1:0,0:0:0:0:
61,35,61325,1,0,1:0:0:0:
203,134,61468,2,0,P|167:148|141:187,1,87.5,10|0,1:2|0:0,0:0:0:0:
19,317,61754,6,0,L|6:211,1,87.5,0|0,1:0|0:0,0:0:0:0:
99,291,62040,2,0,L|110:378,1,87.5,10|0,1:2|0:0,0:0:0:0:
203,134,62325,2,0,L|190:240,1,87.5,0|0,1:0|1:0,0:0:0:0:
286,355,62611,1,10,1:2:0:0:
285,344,62682,1,2,0:0:0:0:
283,334,62753,1,2,0:0:0:0:
282,323,62825,1,2,0:0:0:0:
282,313,62897,5,2,1:2:0:0:
335,232,63040,1,0,0:0:0:0:
486,317,63183,2,0,P|434:317|388:293,1,87.5,8|0,1:2|0:0,0:0:0:0:
310,123,63468,2,0,L|397:128,1,87.5,2|0,1:2|1:0,0:0:0:0:
496,85,63683,2,0,L|408:90,1,87.5,2|0,0:0|0:0,0:0:0:0:
280,16,63897,2,0,B|300:113|253:96|279:208,1,175,2|0,0:0|0:0,0:0:0:0:
203,59,64325,5,8,1:2:0:0:
356,209,64468,1,0,0:0:0:0:
162,259,64611,2,0,L|166:163,1,87.5,2|0,1:2|1:0,0:0:0:0:
6,6,64897,2,0,P|27:45|29:88,1,87.5,10|2,1:2|0:0,0:0:0:0:
24,104,65111,1,0,0:0:0:0:
16,117,65183,5,2,1:2:0:0:
171,71,65325,1,0,0:0:0:0:
187,65,65397,1,2,0:0:0:0:
201,57,65468,2,0,B|287:51|287:51|318:101,1,131.25,10|0,1:2|0:0,0:0:0:0:
342,157,65754,2,0,L|340:221,1,43.75,2|0,1:2|0:0,0:0:0:0:
381,309,65897,2,0,L|385:197,1,87.5,2|8,1:2|1:2,0:0:0:0:
395,47,66183,1,2,0:0:0:0:
506,249,66325,5,0,1:0:0:0:
441,152,66468,1,0,1:0:0:0:
381,337,66611,1,8,1:2:0:0:
178,228,66754,1,0,1:0:0:0:
195,215,66825,1,0,0:0:0:0:
216,209,66896,1,0,1:0:0:0:
238,211,66968,1,0,0:0:0:0:
256,221,67040,2,0,P|284:243|294:261,1,43.75,2|0,1:2|0:0,0:0:0:0:
222,328,67183,2,0,L|217:390,2,43.75,8|2|0,1:2|1:2|1:0,0:0:0:0:
18,315,67468,6,0,B|27:258|27:258|19:200|19:200|28:142,1,175,6|8,1:2|1:2,0:0:0:0:
28,142,67897,1,0,0:0:0:0:
209,86,68040,1,2,1:2:0:0:
43,41,68183,1,2,1:2:0:0:
241,95,68325,1,10,1:2:0:0:
117,167,68468,1,2,0:0:0:0:
300,170,68611,6,0,B|259:186|259:186|205:182,1,87.5,0|0,1:0|0:0,0:0:0:0:
338,58,68897,2,0,B|379:42|379:42|433:46,1,87.5,8|0,1:2|0:0,0:0:0:0:
422,45,69111,1,0,0:0:0:0:
422,45,69183,1,0,1:0:0:0:
422,45,69254,1,0,0:0:0:0:
422,45,69325,1,2,1:2:0:0:
470,160,69468,1,8,1:2:0:0:
470,160,69540,1,2,0:0:0:0:
500,261,69683,1,0,0:0:0:0:
500,261,69754,6,0,P|417:287|411:373,1,175,2|8,1:2|1:2,0:0:0:0:
300,170,70183,1,0,0:0:0:0:
185,314,70325,2,0,L|281:304,1,87.5,0|2,1:0|1:2,0:0:0:0:
160,194,70611,1,10,1:2:0:0:
51,357,70754,2,0,B|46:300|46:300|70:259|70:259|65:188,1,175,2|2,0:0|0:0,0:0:0:0:
60,45,71183,5,8,1:2:0:0:
233,146,71325,1,0,0:0:0:0:
233,146,71397,1,0,0:0:0:0:
233,146,71468,1,2,1:2:0:0:
152,33,71611,2,0,L|238:22,1,87.5,2|8,1:2|1:2,0:0:0:0:
362,29,71825,2,0,L|276:40,1,87.5,2|0,0:0|0:0,0:0:0:0:
462,26,72040,6,0,B|426:122|493:95|460:196,1,175,0|8,1:0|1:2,0:0:0:0:
449,350,72468,1,0,0:0:0:0:
224,319,72611,2,0,L|339:317,1,87.5,2|0,1:2|1:0,0:0:0:0:
406,284,72825,2,0,L|318:285,1,87.5,2|0,0:0|0:0,0:0:0:0:
256,239,73040,1,2,0:0:0:0:
138,367,73183,6,0,B|128:304|128:304|148:265|148:265|134:199,1,175,2|10,1:2|1:2,0:0:0:0:
3,61,73611,1,0,0:0:0:0:
3,61,73683,1,0,0:0:0:0:
3,61,73754,2,0,L|109:63,1,87.5,2|0,1:2|1:0,0:0:0:0:
204,31,73968,2,0,L|116:32,1,87.5,2|0,0:0|0:0,0:0:0:0:
149,103,74183,1,2,0:0:0:0:
299,189,74325,6,0,B|326:86|275:110|302:16,1,175,2|8,1:2|1:2,0:0:0:0:
222,152,74754,1,0,0:0:0:0:
380,67,74897,1,2,1:2:0:0:
192,165,75040,1,2,1:2:0:0:
406,64,75183,1,10,1:2:0:0:
204,31,75325,1,2,1:2:0:0:
383,248,75468,6,0,L|386:160,1,87.5,2|0,1:2|1:2,0:0:0:0:
422,334,75754,1,8,1:2:0:0:
289,193,75897,1,0,1:0:0:0:
201,348,76040,5,2,1:2:0:0:
173,329,76111,1,2,0:0:0:0:
142,319,76182,1,2,1:2:0:0:
110,319,76254,1,2,0:0:0:0:
78,327,76325,1,2,1:2:0:0:
46,322,76396,1,2,0:0:0:0:
20,302,76467,1,2,1:2:0:0:
7,272,76539,1,2,0:0:0:0:
8,240,76610,5,2,1:2:0:0:
5,85,85754,6,0,B|84:80|84:80|141:120,1,131.25000500679,2|0,1:2|1:2,0:0:0:0:
185,163,86183,1,2,0:0:0:0:
226,24,86325,2,0,L|225:100,1,65.6250025033952,0|0,1:2|0:0,0:0:0:0:
271,252,86611,2,0,L|272:153,1,98.4375037550928,2|0,1:2|0:0,0:0:0:0:
330,92,86897,6,0,B|408:83|392:117|471:93,1,131.25000500679,2|0,1:2|1:2,0:0:0:0:
360,172,87325,1,2,0:2:0:0:
468,254,87468,1,0,1:2:0:0:
468,254,87611,2,0,L|470:179,2,65.6250025033952,0|2|0,0:0|1:2|0:0,0:0:0:0:
479,361,88040,6,0,B|434:349|434:349|400:356|400:356|352:340,1,131.25000500679,2|0,1:2|1:2,0:0:0:0:
239,285,88468,1,2,0:2:0:0:
239,285,88611,2,0,L|324:279,1,65.6250025033952,0|0,1:2|0:0,0:0:0:0:
160,372,88897,2,0,P|159:346|132:314,1,65.6250025033952,2|0,1:2|0:0,0:0:0:0:
36,211,89183,6,0,L|29:284,1,65.6250025033952,2|0,1:2|0:2,0:0:0:0:
82,147,89468,2,0,L|75:220,1,65.6250025033952,2|0,1:2|0:2,0:0:0:0:
181,88,89754,2,0,L|188:161,1,65.6250025033952,2|0,1:2|0:2,0:0:0:0:
135,24,90039,2,0,L|142:97,1,65.6250025033952,0|0,0:0|0:2,0:0:0:0:
406,69,90325,6,0,B|335:90|362:52|276:74,2,131.25000500679,0|0|0,1:2|1:2|1:2,0:0:0:0:
236,218,91183,1,2,1:2:0:0:
465,208,91468,2,0,L|468:142,1,65.6250025033952,0|0,1:2|0:0,0:0:0:0:
378,214,91754,2,0,L|381:280,1,65.6250025033952,2|2,1:2|0:2,0:0:0:0:
387,359,92040,1,2,1:2:0:0:
390,384,92325,1,2,1:2:0:0:
28,265,92611,6,0,L|169:258,1,131.25000500679,2|0,1:2|1:2,0:0:0:0:
476,219,93183,2,0,L|344:212,1,131.25000500679,0|0,1:2|1:2,0:0:0:0:
122,45,93754,5,2,1:2:0:0:
390,45,94040,1,0,1:2:0:0:
256,272,94325,5,0,1:2:0:0:
256,111,94468,1,0,1:2:0:0:
256,231,94611,1,0,1:2:0:0:
256,151,94754,1,0,1:2:0:0:
256,192,94825,12,0,95611,0:0:0:0:
51,17,95754,5,2,1:2:0:0:
50,27,95825,1,2,0:0:0:0:
49,38,95896,1,2,0:0:0:0:
48,49,95968,1,2,0:0:0:0:
47,58,96040,6,0,P|151:76|162:181,1,227.499989585877,6|10,1:2|1:2,0:0:0:0:
131,354,96468,1,2,0:0:0:0:
88,137,96611,1,0,1:0:0:0:
0,376,96754,1,0,1:0:0:0:
0,376,96825,1,0,0:0:0:0:
0,376,96897,2,0,L|125:364,1,113.749994792938,10|2,1:2|0:0,0:0:0:0:
359,219,97183,5,2,1:2:0:0:
338,350,97326,1,2,0:0:0:0:
507,344,97468,1,10,1:2:0:0:
235,266,97611,1,2,0:0:0:0:
433,281,97754,5,2,1:2:0:0:
241,350,97897,1,2,1:2:0:0:
259,129,98040,1,10,1:2:0:0:
473,189,98183,1,2,0:0:0:0:
473,189,98254,1,0,0:0:0:0:
473,189,98325,6,0,L|475:69,1,113.749994792938,2|0,1:2|0:0,0:0:0:0:
475,61,98539,1,0,0:0:0:0:
475,46,98611,1,10,1:2:0:0:
437,65,98682,1,0,0:0:0:0:
395,64,98753,1,2,0:0:0:0:
357,44,98825,1,0,0:0:0:0:
333,10,98897,1,2,1:2:0:0:
304,41,98968,1,0,0:0:0:0:
265,55,99039,1,0,1:0:0:0:
223,50,99111,1,0,0:0:0:0:
188,26,99182,1,10,1:2:0:0:
134,205,99325,1,2,0:0:0:0:
134,205,99397,1,0,0:0:0:0:
134,205,99468,5,2,1:2:0:0:
78,23,99611,1,2,0:0:0:0:
28,259,99754,1,10,1:2:0:0:
148,103,99897,1,2,1:2:0:0:
182,336,100040,5,2,1:2:0:0:
32,168,100183,1,2,1:2:0:0:
259,122,100325,1,10,1:2:0:0:
256,150,100396,1,0,0:0:0:0:
254,178,100467,1,2,0:0:0:0:
251,207,100539,1,0,0:0:0:0:
249,235,100610,5,2,1:2:0:0:
353,74,100754,2,0,L|473:82,1,113.749994792938,0|10,0:0|1:2,0:0:0:0:
246,263,101040,1,2,0:2:0:0:
174,118,101183,2,0,L|54:110,1,113.749994792938,0|2,1:0|1:2,0:0:0:0:
244,293,101468,1,10,1:2:0:0:
399,2,101611,1,2,1:2:0:0:
399,2,101683,1,2,0:0:0:0:
399,2,101754,6,0,P|432:53|423:119,1,113.749994792938,2|0,1:2|1:0,0:0:0:0:
237,33,102040,1,10,1:2:0:0:
506,146,102183,2,0,P|463:181|407:184,1,113.749994792938,2|0,0:0|1:2,0:0:0:0:
205,21,102468,1,2,1:2:0:0:
44,237,102611,1,10,1:2:0:0:
42,222,102682,1,0,0:0:0:0:
41,208,102753,1,2,0:0:0:0:
39,194,102825,1,2,0:0:0:0:
36,179,102897,6,0,L|27:110,3,56.8749973964692,2|2|2|0,1:2|0:0|0:0|0:0,0:0:0:0:
142,58,103183,2,0,L|133:127,3,56.8749973964692,10|2|2|0,1:2|0:0|1:2|0:0,0:0:0:0:
205,224,103468,2,0,P|177:225|148:218,3,56.8749973964692,2|2|2|0,1:2|0:0|1:2|0:0,0:0:0:0:
282,343,103754,2,0,P|284:321|277:280,3,56.8749973964692,10|2|2|2,1:2|0:0|0:0|0:0,0:0:0:0:
441,384,104040,5,2,1:2:0:0:
434,371,104111,1,0,0:0:0:0:
429,357,104182,1,0,1:2:0:0:
427,343,104254,1,0,0:0:0:0:
427,329,104325,1,10,1:2:0:0:
434,302,104397,1,0,0:0:0:0:
445,276,104468,1,0,1:2:0:0:
449,247,104540,1,0,0:0:0:0:
442,219,104611,6,0,L|444:152,3,56.8749973964692,10|0|0|0,1:2|0:0|1:2|0:0,0:0:0:0:
505,70,104897,1,10,1:2:0:0:
450,57,104968,1,0,0:0:0:0:
391,60,105039,1,0,1:2:0:0:
333,66,105111,1,0,0:0:0:0:
280,44,105183,6,0,L|210:36,1,56.8749973964692,6|0,1:2|0:0,0:0:0:0:
64,132,105325,2,0,P|104:133|134:124,1,56.8749973964692,0|0,0:0|0:0,0:0:0:0:
293,243,105468,1,10,1:2:0:0:
291,227,105540,1,2,0:0:0:0:
288,213,105611,2,0,P|284:184|275:157,1,56.8749973964692,2|2,0:0|0:0,0:0:0:0:
0,184,105754,2,0,P|22:201|47:214,1,56.8749973964692,2|0,1:2|0:0,0:0:0:0:
210,19,105897,2,0,P|181:22|154:31,1,56.8749973964692,2|0,1:2|0:0,0:0:0:0:
107,369,106040,2,0,P|127:316|114:261,1,113.749994792938,10|2,1:2|0:0,0:0:0:0:
22,62,106325,5,2,1:2:0:0:
0,297,106468,1,2,0:0:0:0:
215,199,106611,5,10,1:2:0:0:
0,184,106754,1,2,1:2:0:0:
245,79,106897,5,2,1:2:0:0:
223,314,107040,1,0,1:0:0:0:
99,171,107183,5,10,1:2:0:0:
377,93,107325,1,0,0:0:0:0:
414,78,107397,1,2,0:0:0:0:
446,67,107468,6,0,P|466:124|366:189,1,196.875007510186,6|0,1:2|0:0,0:0:0:0:
292,188,107754,2,0,L|296:264,1,65.6250025033952,6|0,1:2|0:0,0:0:0:0:
317,361,107897,2,0,B|270:333|213:352|213:352|220:304|205:265,1,196.875007510186,6|0,1:2|0:0,0:0:0:0:
82,262,108183,2,0,B|205:265|205:265|125:317,1,196.875007510186,6|0,1:2|0:0,0:0:0:0:
25,336,108468,6,0,P|-12:251|77:167,1,227.499989585877,6|2,1:2|0:0,0:0:0:0:
292,188,108897,1,10,1:2:0:0:
141,64,109040,1,2,1:2:0:0:
143,305,109183,5,2,0:0:0:0:
268,67,109325,1,2,1:2:0:0:
283,347,109468,5,10,1:2:0:0:
227,136,109610,1,2,1:2:0:0:
451,9,109754,5,2,1:2:0:0:
437,34,109825,1,0,0:0:0:0:
431,61,109896,1,0,0:0:0:0:
432,90,109968,1,0,0:0:0:0:
440,117,110039,1,10,1:2:0:0:
453,142,110111,1,0,0:0:0:0:
459,169,110182,1,0,0:0:0:0:
458,198,110254,1,0,0:0:0:0:
450,225,110325,6,0,P|451:270|456:288,3,56.8749973964692,2|0|0|0,1:2|0:0|1:2|0:0,0:0:0:0:
353,384,110611,2,0,P|352:339|347:321,3,56.8749973964692,10|0|0|0,1:2|0:0|0:0|0:0,0:0:0:0:
269,266,110897,5,2,1:2:0:0:
230,249,110968,1,0,0:0:0:0:
188,252,111039,1,0,0:0:0:0:
153,276,111111,1,0,0:0:0:0:
134,314,111183,1,10,1:2:0:0:
101,340,111254,1,0,0:0:0:0:
59,341,111325,1,0,0:0:0:0:
24,318,111397,1,0,0:0:0:0:
10,278,111468,6,0,L|15:213,3,56.8749973964692,2|0|0|0,1:2|0:0|1:2|0:0,0:0:0:0:
60,87,111754,2,0,L|64:152,3,56.8749973964692,10|0|0|0,1:2|0:0|0:0|0:0,0:0:0:0:
173,37,112040,5,2,1:2:0:0:
186,41,112111,1,0,0:0:0:0:
198,49,112182,1,0,0:0:0:0:
207,59,112254,1,0,0:0:0:0:
214,72,112325,2,0,P|212:35|221:7,1,56.8749973964692,8|0,1:2|0:0,0:0:0:0:
325,55,112468,2,0,L|280:53,1,32.8125012516976,0|0,1:0|0:0,0:0:0:0:
488,115,112611,5,0,1:2:0:0:
474,119,112682,1,0,0:0:0:0:
462,127,112753,1,0,1:0:0:0:
453,137,112825,1,0,0:0:0:0:
447,150,112897,2,0,P|449:113|440:85,1,56.8749973964692,10|0,1:2|0:0,0:0:0:0:
339,129,113040,2,0,L|384:127,1,32.8125012516976,2|0,0:0|0:0,0:0:0:0:
496,235,113183,5,2,1:2:0:0:
463,233,113254,1,0,0:0:0:0:
433,247,113325,1,0,1:2:0:0:
413,272,113397,1,0,0:0:0:0:
405,304,113468,1,12,1:2:0:0:
409,346,113539,1,0,0:0:0:0:
444,370,113610,1,0,1:2:0:0:
485,361,113682,1,0,0:0:0:0:
504,323,113753,5,6,1:2:0:0:
490,269,113825,1,2,0:0:0:0:
443,239,113897,1,2,1:2:0:0:
388,241,113968,1,2,1:2:0:0:
341,270,114040,1,14,1:2:0:0:
293,296,114111,1,2,0:0:0:0:
239,307,114183,1,2,1:2:0:0:
184,302,114254,1,0,1:0:0:0:
131,288,114325,6,0,L|124:360,3,56.8749973964692,6|0|0|0,1:2|0:0|0:0|0:0,0:0:0:0:
56,228,114611,2,0,L|-7:221,1,56.8749973964692,10|0,1:2|0:0,0:0:0:0:
152,176,114754,1,2,0:0:0:0:
150,147,114825,1,0,0:0:0:0:
148,119,114896,1,0,1:2:0:0:
146,90,114968,1,0,0:0:0:0:
144,62,115040,2,0,P|120:73|78:75,1,56.8749973964692,2|2,1:2|0:0,0:0:0:0:
226,14,115183,2,0,B|326:45|303:-1|415:21,1,170.624992189408,10|0,1:2|0:0,0:0:0:0:
457,63,115468,5,2,1:2:0:0:
492,86,115539,1,0,0:0:0:0:
510,124,115610,1,2,1:2:0:0:
506,165,115682,1,0,0:0:0:0:
481,199,115754,2,0,L|479:269,1,56.8749973964692,10|0,1:2|0:0,0:0:0:0:
311,359,115897,2,0,L|309:302,1,56.8749973964692,2|0,1:2|0:0,0:0:0:0:
300,179,116040,5,2,1:2:0:0:
481,337,116183,1,2,1:2:0:0:
206,315,116325,1,10,1:2:0:0:
417,146,116468,1,2,1:2:0:0:
417,146,116540,1,0,0:0:0:0:
417,146,116611,5,2,1:2:0:0:
388,142,116682,1,0,0:0:0:0:
360,139,116753,1,0,0:0:0:0:
332,136,116825,1,0,0:0:0:0:
303,133,116897,2,0,L|246:126,1,56.8749973964692,10|0,1:2|0:0,0:0:0:0:
113,56,117040,2,0,L|169:49,1,56.8749973964692,2|0,0:2|0:0,0:0:0:0:
36,109,117183,1,0,1:2:0:0:
52,132,117254,1,0,0:0:0:0:
60,159,117325,1,0,1:2:0:0:
59,187,117397,1,0,0:0:0:0:
49,214,117468,2,0,P|33:280|57:339,1,113.749994792938,10|2,1:2|0:0,0:0:0:0:
377,275,117754,5,2,1:2:0:0:
138,247,117897,1,2,1:2:0:0:
306,106,118040,5,10,1:2:0:0:
311,336,118183,1,2,1:2:0:0:
374,46,118325,5,2,1:2:0:0:
246,239,118468,1,2,1:2:0:0:
144,14,118611,5,10,1:2:0:0:
146,42,118682,1,0,0:0:0:0:
149,70,118753,1,2,1:2:0:0:
151,98,118825,1,0,0:0:0:0:
154,127,118896,5,2,1:2:0:0:
413,88,119040,2,0,L|300:70,1,113.749994792938,0|10,0:0|1:2,0:0:0:0:
157,156,119325,1,2,0:0:0:0:
485,164,119468,2,0,L|372:181,1,113.749994792938,0|2,1:2|0:0,0:0:0:0:
261,382,119754,5,10,1:2:0:0:
263,354,119825,1,0,0:0:0:0:
266,326,119896,1,2,0:0:0:0:
268,298,119968,1,0,0:0:0:0:
271,269,120039,5,2,1:2:0:0:
83,109,120183,2,0,P|114:133|129:216,1,113.749994792938,0|10,0:0|1:2,0:0:0:0:
274,240,120468,1,2,0:0:0:0:
0,78,120611,2,0,P|24:47|106:32,1,113.749994792938,2|2,1:2|1:2,0:0:0:0:
433,114,120897,5,8,1:2:0:0:
419,115,120968,1,0,0:0:0:0:
405,115,121039,1,2,1:2:0:0:
391,112,121111,1,2,0:0:0:0:
376,109,121183,6,0,P|377:79|367:48,3,56.8749973964692,2|2|2|0,1:2|0:0|0:0|0:0,0:0:0:0:
211,93,121468,2,0,P|241:94|272:84,3,56.8749973964692,10|2|2|0,1:2|0:0|0:0|0:0,0:0:0:0:
322,238,121754,2,0,L|315:157,3,56.8749973964692,2|2|2|0,1:2|0:0|0:0|0:0,0:0:0:0:
398,301,122040,2,0,L|391:382,3,56.8749973964692,10|2|2|2,1:2|0:0|0:0|0:0,0:0:0:0:
506,195,122325,5,2,1:2:0:0:
482,210,122396,1,0,0:0:0:0:
455,218,122467,1,2,1:2:0:0:
426,217,122539,1,0,0:0:0:0:
400,207,122610,1,10,1:2:0:0:
368,178,122682,1,0,0:0:0:0:
328,164,122753,1,2,1:2:0:0:
286,167,122825,1,0,0:0:0:0:
248,186,122897,6,0,L|171:193,1,56.8749973964692,10|2,1:2|0:0,0:0:0:0:
76,317,123040,2,0,L|153:324,1,56.8749973964692,2|2,1:2|0:0,0:0:0:0:
0,216,123183,1,10,1:2:0:0:
1,173,123254,1,2,0:0:0:0:
2,130,123325,1,2,1:2:0:0:
4,88,123397,1,2,0:0:0:0:
5,45,123468,6,0,B|91:41|91:41|133:73|133:73|221:64,1,227.499989585877,6|10,1:2|1:2,0:0:0:0:
512,54,123897,1,2,0:0:0:0:
282,0,124040,1,0,1:2:0:0:
464,292,124183,5,2,1:2:0:0:
467,235,124254,1,2,0:0:0:0:
471,178,124325,1,10,1:2:0:0:
241,290,124468,1,2,0:0:0:0:
242,318,124539,1,2,0:0:0:0:
244,346,124611,6,0,B|192:333|192:333|124:349,1,113.749994792938,2|0,1:2|0:0,0:0:0:0:
28,268,124825,2,0,B|80:281|80:281|148:265,1,113.749994792938,2|0,0:0|0:0,0:0:0:0:
201,217,125040,2,0,L|196:94,1,113.749994792938,2|0,1:2|1:0,0:0:0:0:
147,44,125254,2,0,L|151:157,1,113.749994792938,2|0,0:0|0:0,0:0:0:0:
240,45,125468,1,2,1:2:0:0:
4,142,125611,1,2,0:0:0:0:
4,142,125683,1,2,0:0:0:0:
4,142,125754,5,6,1:2:0:0:
272,39,125897,1,6,0:0:0:0:
327,381,126183,1,6,0:0:0:0:
322,353,126468,1,6,0:0:0:0:
435,12,126754,6,0,B|428:76|428:76|445:114|445:114|438:178,1,170.624992189408,6|0,0:0|0:0,0:0:0:0:
427,251,127040,2,0,L|420:320,1,56.8749973964692,2|0,1:2|0:0,0:0:0:0:
304,98,127183,1,10,1:2:0:0:
512,65,127325,1,2,0:0:0:0:
333,280,127468,5,2,1:2:0:0:
246,34,127611,1,2,1:2:0:0:
162,319,127754,5,10,1:2:0:0:
307,125,127897,1,2,0:0:0:0:
308,139,127968,1,0,0:0:0:0:
309,153,128040,5,6,1:2:0:0:
269,138,128111,1,0,0:0:0:0:
228,148,128182,1,2,0:2:0:0:
199,178,128254,1,0,0:0:0:0:
191,219,128325,1,10,1:2:0:0:
174,259,128397,1,0,0:0:0:0:
142,287,128468,1,2,0:2:0:0:
100,299,128540,1,0,0:0:0:0:
60,284,128611,1,6,1:2:0:0:
35,248,128683,1,2,0:0:0:0:
31,205,128754,1,2,0:0:0:0:
51,167,128825,1,2,0:0:0:0:
88,145,128897,1,10,1:2:0:0:
105,106,128968,1,2,0:0:0:0:
109,63,129040,1,2,0:0:0:0:
91,24,129111,1,2,0:0:0:0:
49,12,129183,5,6,1:2:0:0:
84,55,129254,1,0,0:0:0:0:
135,81,129325,1,2,0:2:0:0:
191,84,129397,1,2,0:0:0:0:
244,65,129468,1,10,1:2:0:0:
298,47,129540,1,0,0:0:0:0:
354,48,129611,1,2,0:2:0:0:
401,80,129683,1,2,0:0:0:0:
411,135,129754,2,0,L|421:206,3,56.8749973964692,6|0|2|0,1:2|0:0|0:0|0:0,0:0:0:0:
328,316,130040,6,0,L|332:240,2,75.833329861959,10|0|0,1:2|0:0|0:0,0:0:0:0:
499,367,130325,5,6,3:2:0:0:
430,335,130420,1,2,3:2:0:0:
355,338,130515,1,2,3:2:0:0:
277,381,130611,5,2,3:2:0:0:
202,381,130706,1,2,3:2:0:0:
136,346,130801,1,2,3:2:0:0:
92,268,130897,6,0,P|100:235|99:192,2,75.833329861959,2|2|2,3:2|3:2|3:2,0:0:0:0:
205,94,131183,6,0,P|204:131|212:168,2,75.833329861959,2|2|2,3:2|3:2|3:2,0:0:0:0:
4,26,131468,5,6,3:2:0:0:
55,50,131563,1,2,3:2:0:0:
112,47,131658,1,2,3:2:0:0:
170,15,131754,5,6,3:2:0:0:
226,15,131849,1,2,3:2:0:0:
276,41,131944,1,2,3:2:0:0:
323,91,132040,6,0,P|313:132|317:175,2,75.833329861959,6|2|2,3:2|3:2|3:2,0:0:0:0:
409,302,132325,6,0,P|419:261|415:218,2,75.833329861959,6|2|2,3:2|3:2|3:2,0:0:0:0:
496,136,132611,5,6,1:2:0:0:
256,192,132683,12,0,134897,0:0:0:0:
