osu file format v14

[General]
AudioFilename: audio.mp3
AudioLeadIn: 0
PreviewTime: 95897
Countdown: 0
SampleSet: Soft
StackLeniency: 0.5
Mode: 0
LetterboxInBreaks: 0
WidescreenStoryboard: 0

[Editor]
Bookmarks: 21754
DistanceSpacing: 0.5
BeatDivisor: 4
GridSize: 4
TimelineZoom: 1.9

[Metadata]
Title:WoRLd Tempest
TitleUnicode:WoRLd Tempest
Artist:sak remixed by LeaF
ArtistUnicode:sak remixed by LeaF
Creator:Kroytz
Version:N/A's INFINITE
Source:K-Shoot MANIA
Tags:Hard Renaissance Artcore Piano Stream Deathstream Anxient Nerova Riuz GX toybot mithew
BeatmapID:1056685
BeatmapSetID:490916

[Difficulty]
HPDrainRate:5
CircleSize:4
OverallDifficulty:7
ApproachRate:9
SliderMultiplier:1.5
SliderTickRate:1

[Events]
//Background and Video events
0,0,"BG.png",0,0
//Break Periods
2,76811,85154
//Storyboard Layer 0 (Background)
//Storyboard Layer 1 (Fail)
//Storyboard Layer 2 (Pass)
//Storyboard Layer 3 (Foreground)
//Storyboard Layer 4 (Overlay)
//Storyboard Sound Samples

[TimingPoints]
1183,285.714285714286,4,2,2,75,1,0
10325,-200,4,2,2,40,0,0
18325,-200,4,2,2,40,0,0
19397,-200,4,2,20,5,0,0
19468,-200,4,2,1,5,0,0
20397,-200,4,2,1,6,0,0
20468,-200,4,2,1,7,0,0
20540,-200,4,2,1,8,0,0
20611,-200,4,2,1,9,0,0
20683,-200,4,2,1,10,0,0
20754,-200,4,2,1,13,0,0
20825,-200,4,2,1,17,0,0
20897,-200,4,2,1,21,0,0
20968,-200,4,2,1,25,0,0
21040,-200,4,2,1,29,0,0
21111,-200,4,2,1,33,0,0
21183,-200,4,2,1,37,0,0
21254,-200,4,2,1,41,0,0
21325,-200,4,2,1,45,0,0
21397,-200,4,2,1,49,0,0
21468,-200,4,2,1,53,0,0
21540,-200,4,2,1,57,0,0
21611,-200,4,2,1,61,0,0
21683,-200,4,2,1,65,0,0
21754,-133.333333333333,4,2,1,70,0,0
30611,-100,4,2,1,70,0,0
30897,-83.3333333333333,4,2,1,70,0,0
39468,-83.3333333333333,4,2,10,70,0,0
39540,-83.3333333333333,4,2,1,70,0,0
40040,-83.3333333333333,4,2,1,80,0,1
47751,-66.6666666666667,4,2,1,80,0,1
48611,-66.6666666666667,4,2,10,80,0,1
48683,-66.6666666666667,4,2,1,80,0,1
49183,-83.3333333333333,4,2,1,80,0,1
58611,-100,4,2,1,60,0,0
59397,-100,4,2,1,5,0,0
59468,-100,4,2,1,60,0,0
59683,-100,4,2,20,5,0,0
59754,-100,4,2,1,60,0,0
61683,-100,4,2,2,5,0,0
61754,-100,4,2,1,60,0,0
63468,-100,4,2,1,60,0,0
64325,-100,4,2,1,60,0,0
69968,-100,4,2,20,5,0,0
70040,-100,4,2,1,60,0,0
72254,-100,4,2,20,5,0,0
72325,-100,4,2,1,60,0,0
73397,-100,4,2,20,5,0,0
73468,-100,4,2,1,60,0,0
73683,-100,4,2,20,5,0,0
73754,-100,4,2,1,60,0,0
74540,-100,4,2,20,5,0,0
74611,-100,4,2,1,60,0,0
74825,-100,4,2,20,5,0,0
74897,-100,4,2,1,60,0,0
85754,-133.333333333333,4,2,1,60,0,0
95611,-133.333333333333,4,2,20,5,0,0
95754,-133.333333333333,4,2,1,80,0,0
95968,-133.333333333333,4,2,1,5,0,0
96040,-83.3333333333333,4,2,1,80,0,1
104611,-83.3333333333333,4,2,10,80,0,1
104683,-83.3333333333333,4,2,1,80,0,1
108683,-83.3333333333333,4,2,20,5,0,1
108754,-83.3333333333333,4,2,1,80,0,1
113754,-83.3333333333333,4,2,10,80,0,1
113825,-83.3333333333333,4,2,1,80,0,1
114254,-83.3333333333333,4,2,1,80,0,0
114325,-83.3333333333333,4,2,1,80,0,1
122897,-83.3333333333333,4,2,10,80,0,1
122968,-83.3333333333333,4,2,1,80,0,1
126968,-83.3333333333333,4,2,20,5,0,1
127040,-83.3333333333333,4,2,1,80,0,1
130325,-71.4285714285714,4,2,1,80,0,1
132611,-100,4,2,1,80,0,0
134897,-100,4,2,1,5,0,0

[Colours]
Combo1 : 32,123,52
Combo2 : 183,183,183
Combo3 : 88,199,207
Combo4 : 46,152,160

[HitObjects]
309,72,10325,6,0,P|381:68|433:119,1,150,6|0,0:0|0:0,0:0:0:0:
349,154,11183,1,2,0:0:0:0:
228,98,11468,6,0,L|233:251,1,150,2|2,0:0|0:0,0:0:0:0:
237,337,12325,1,2,0:0:0:0:
145,234,12611,6,0,B|72:211|72:211|16:259,1,150,6|0,0:0|0:0,0:0:0:0:
92,309,13468,1,2,0:0:0:0:
232,247,13754,6,0,L|388:237,1,150,2|2,0:0|0:0,0:0:0:0:
458,284,14611,1,2,0:0:0:0:
449,142,14897,6,0,P|378:126|337:65,1,150,2|0,0:0|0:0,0:0:0:0:
265,10,15754,1,2,0:0:0:0:
189,140,16040,6,0,L|283:136,1,75,2|0,0:0|0:0,0:0:0:0:
118,44,16611,2,0,L|43:40,1,75,0|2,0:0|0:0,0:0:0:0:
9,188,17183,6,0,P|82:199|142:243,1,150,2|0,0:0|0:0,0:0:0:0:
178,326,18040,1,0,0:0:0:0:
275,168,18325,6,0,L|267:300,2,112.5,2|0|0,0:0|0:0|0:0,0:0:0:0:
256,192,20325,12,0,21468,0:0:0:0:
210,106,21754,6,0,L|322:97,1,112.500004291535,10|0,1:2|3:0,0:0:0:0:
446,214,22183,2,0,L|333:205,1,112.500004291535,2|0,3:2|3:0,0:0:0:0:
305,284,22611,1,2,3:2:0:0:
172,197,22897,6,0,P|187:233|192:323,1,112.500004291535,2|2,3:2|3:2,0:0:0:0:
253,366,23325,1,0,3:0:0:0:
112,264,23468,2,0,P|80:261|35:262,1,56.2500021457673,2|0,3:2|3:0,0:0:0:0:
265,200,23754,2,0,P|295:191|340:184,1,56.2500021457673,2|0,3:2|3:0,0:0:0:0:
461,323,24040,6,0,P|408:322|352:303,1,112.500004291535,10|2,1:2|3:2,0:0:0:0:
259,364,24468,2,0,L|263:233,1,112.500004291535,2|2,3:2|3:2,0:0:0:0:
264,121,24897,1,2,3:2:0:0:
143,48,25040,5,0,3:0:0:0:
153,57,25111,1,0,0:0:0:0:
163,66,25183,2,0,P|150:90|130:110,1,56.2500021457673,2|0,3:2|3:0,0:0:0:0:
94,210,25468,2,0,P|65:210|38:203,1,56.2500021457673,2|0,3:2|3:0,0:0:0:0:
210,156,25754,2,0,L|277:148,1,56.2500021457673,2|0,3:2|3:0,0:0:0:0:
170,271,26040,2,0,P|159:309|158:341,1,56.2500021457673,2|0,3:2|3:0,0:0:0:0:
154,339,26254,1,0,3:0:0:0:
154,352,26325,6,0,L|266:345,1,112.500004291535,10|0,1:2|3:0,0:0:0:0:
388,252,26754,2,0,P|334:250|274:215,1,112.500004291535,2|0,3:2|3:0,0:0:0:0:
346,93,27183,1,2,3:2:0:0:
422,160,27325,1,0,3:0:0:0:
255,135,27468,6,0,L|143:150,1,112.500004291535,10|0,1:2|3:0,0:0:0:0:
32,261,27897,2,0,P|75:255|142:286,1,112.500004291535,2|0,3:2|3:0,0:0:0:0:
229,366,28325,2,0,L|233:291,1,56.2500021457673,2|0,3:2|3:0,0:0:0:0:
333,195,28611,6,0,L|335:251,1,56.2500021457673,10|0,1:2|3:0,0:0:0:0:
401,134,28897,1,2,3:2:0:0:
441,276,29040,1,2,3:2:0:0:
443,289,29111,1,2,3:2:0:0:
446,303,29183,2,0,P|386:312|343:346,1,112.500004291535,10|0,1:2|3:0,0:0:0:0:
252,234,29611,1,0,3:0:0:0:
150,313,29754,5,2,1:2:0:0:
159,294,29825,1,2,1:2:0:0:
165,273,29897,1,2,1:2:0:0:
169,253,29968,1,2,1:2:0:0:
169,232,30040,1,2,1:2:0:0:
167,211,30111,1,2,1:2:0:0:
162,190,30183,1,2,1:2:0:0:
154,171,30254,1,2,1:2:0:0:
144,152,30325,6,0,L|81:146,1,56.2500021457673,6|6,1:2|1:2,0:0:0:0:
245,66,30611,2,0,L|365:58,1,112.5,6|2,1:2|3:2,0:0:0:0:
439,39,30897,6,0,P|429:86|436:137,1,89.999997253418,6|0,0:2|0:0,0:0:0:0:
510,213,31183,1,8,0:0:0:0:
354,191,31325,2,0,P|276:202|183:160,1,179.999994506836,0|2,0:0|0:0,0:0:0:0:
194,183,31683,1,0,0:0:0:0:
196,205,31754,2,0,L|184:315,1,89.999997253418,8|0,0:0|0:0,0:0:0:0:
91,128,32040,6,0,L|81:38,1,89.999997253418,2|0,0:0|0:0,0:0:0:0:
21,197,32325,1,8,0:0:0:0:
178,78,32468,1,2,0:0:0:0:
200,75,32540,1,0,0:0:0:0:
222,72,32611,2,0,P|248:75|273:81,3,44.999998626709,0|0|2|0,0:0|0:0|0:0|0:0,0:0:0:0:
346,136,32897,2,0,P|367:131|390:128,3,44.999998626709,8|0|0|0,0:0|0:0|0:0|0:0,0:0:0:0:
279,210,33183,5,2,0:0:0:0:
240,362,33325,2,0,L|191:350,2,44.999998626709,0|0|8,0:0|0:0|0:0,0:0:0:0:
388,254,33611,1,0,0:0:0:0:
296,294,33754,1,0,0:0:0:0:
373,362,33897,1,2,0:0:0:0:
201,267,34040,2,0,P|133:271|96:282,1,89.9999972534181,8|0,0:0|0:0,0:0:0:0:
82,152,34325,6,0,L|179:157,1,89.9999972534181,2|0,0:0|0:0,0:0:0:0:
188,172,34540,2,0,L|178:12,1,134.999995880127,0|2,0:0|0:0,0:0:0:0:
290,115,34897,1,0,0:0:0:0:
306,130,34968,2,0,L|438:124,1,89.9999972534181,0|0,0:0|0:0,0:0:0:0:
425,200,35183,5,8,0:0:0:0:
422,222,35254,1,0,0:0:0:0:
420,244,35325,1,2,0:0:0:0:
418,267,35397,1,0,0:0:0:0:
416,289,35468,6,0,P|350:295|281:355,1,134.999995880127,2|0,0:0|0:0,0:0:0:0:
279,241,35754,2,0,P|224:202|158:196,1,134.999995880127,8|0,0:0|0:0,0:0:0:0:
92,249,36040,2,0,L|101:361,1,89.9999972534181,0|2,0:0|0:0,0:0:0:0:
0,202,36325,2,0,L|7:112,1,89.9999972534181,8|2,0:0|0:0,0:0:0:0:
10,89,36540,1,0,0:0:0:0:
13,66,36611,6,0,P|63:63|123:37,1,89.9999972534181,0|2,0:0|0:0,0:0:0:0:
178,25,36825,1,0,0:0:0:0:
177,47,36897,1,8,0:0:0:0:
136,205,37040,1,0,0:0:0:0:
298,144,37183,2,0,L|200:136,1,89.9999972534181,2|2,0:0|0:0,0:0:0:0:
328,226,37397,1,0,0:0:0:0:
328,226,37468,2,0,L|426:218,1,89.9999972534181,8|0,0:0|0:0,0:0:0:0:
486,126,37754,5,2,0:0:0:0:
424,232,37897,1,0,0:0:0:0:
372,92,38040,2,0,P|354:44|353:1,1,89.9999972534181,8|2,0:0|0:0,0:0:0:0:
299,158,38325,1,0,0:0:0:0:
307,179,38397,1,0,0:0:0:0:
312,200,38468,1,2,0:0:0:0:
316,222,38540,1,0,0:0:0:0:
318,245,38611,2,0,P|273:242|228:247,1,89.9999972534181,8|0,0:0|0:0,0:0:0:0:
72,201,38897,5,2,0:0:0:0:
204,165,39040,1,2,0:0:0:0:
72,289,39183,1,8,0:0:0:0:
125,116,39325,1,2,0:0:0:0:
215,256,39468,1,10,0:0:0:0:
62,188,39611,1,2,0:0:0:0:
62,188,39683,1,2,0:0:0:0:
62,188,39754,1,8,0:0:0:0:
204,74,39897,1,2,0:0:0:0:
294,216,40040,6,0,P|281:270|301:358,1,134.999995880127,6|0,0:0|0:0,0:0:0:0:
368,377,40325,2,0,L|464:364,1,89.9999972534181,8|0,0:0|0:0,0:0:0:0:
470,183,40611,1,0,0:0:0:0:
388,279,40754,1,2,0:0:0:0:
468,168,40897,2,0,P|476:111|468:71,1,89.9999972534181,8|0,0:0|0:0,0:0:0:0:
459,59,41111,1,0,0:0:0:0:
439,47,41183,6,0,L|344:58,1,89.9999972534181,2|0,0:0|0:0,0:0:0:0:
191,97,41468,1,8,0:0:0:0:
334,160,41611,1,2,0:0:0:0:
258,20,41754,1,0,0:0:0:0:
222,197,41897,1,2,0:0:0:0:
109,97,42040,2,0,L|204:108,1,89.9999972534181,8|0,0:0|0:0,0:0:0:0:
296,243,42325,6,0,P|229:238|165:258,1,134.999995880127,2|0,0:0|0:0,0:0:0:0:
122,327,42611,1,8,0:0:0:0:
109,184,42754,1,0,0:0:0:0:
241,331,42897,2,0,L|343:340,1,89.9999972534181,0|2,0:0|0:0,0:0:0:0:
456,260,43183,1,8,0:0:0:0:
425,377,43325,1,0,0:0:0:0:
366,212,43468,6,0,P|349:150|348:101,1,89.9999972534181,2|0,0:0|0:0,0:0:0:0:
352,102,43683,1,0,0:0:0:0:
329,102,43754,2,0,P|274:109|226:99,1,89.9999972534181,8|2,0:0|0:0,0:0:0:0:
138,64,44040,1,0,0:0:0:0:
134,41,44111,1,0,0:0:0:0:
131,18,44183,1,2,0:0:0:0:
106,190,44325,1,8,0:0:0:0:
35,76,44468,1,2,0:0:0:0:
189,168,44611,6,0,P|212:232|205:298,1,134.999995880127,2|0,0:0|0:0,0:0:0:0:
163,365,44897,1,8,0:0:0:0:
38,261,45040,2,0,P|82:264|125:278,1,89.9999972534181,0|0,0:0|0:0,0:0:0:0:
265,362,45325,1,2,0:0:0:0:
381,216,45468,2,0,P|336:219|293:233,1,89.9999972534181,8|2,0:0|0:0,0:0:0:0:
460,154,45754,5,0,0:0:0:0:
380,311,45897,1,2,0:0:0:0:
375,203,46040,1,8,0:0:0:0:
482,295,46183,2,0,L|473:384,1,89.9999972534181,0|2,0:0|0:0,0:0:0:0:
293,247,46468,1,2,0:0:0:0:
372,188,46611,2,0,L|363:98,1,89.9999972534181,8|0,0:0|0:0,0:0:0:0:
209,209,46897,6,0,B|202:254|202:254|219:296|219:296|212:339,1,134.999995880127,2|0,0:0|0:0,0:0:0:0:
137,308,47183,2,0,P|84:320|41:347,1,89.9999972534181,8|2,0:0|0:0,0:0:0:0:
97,170,47468,2,0,P|67:136|29:112,1,89.9999972534181,0|2,0:0|0:0,0:0:0:0:
50,102,47683,1,0,0:0:0:0:
71,94,47754,6,0,L|183:93,1,112.500004291535,8|0,0:0|0:0,0:0:0:0:
361,55,48040,5,6,1:2:0:0:
239,191,48183,1,6,1:2:0:0:
258,9,48468,5,6,1:2:0:0:
350,168,48754,1,6,1:2:0:0:
361,55,48897,5,2,0:0:0:0:
338,54,48968,1,2,0:0:0:0:
316,59,49040,1,10,0:0:0:0:
296,68,49111,1,2,0:0:0:0:
278,81,49183,6,0,L|412:71,1,134.999995880127,6|0,0:2|0:0,0:0:0:0:
488,50,49468,2,0,L|475:151,1,89.9999972534181,8|0,0:0|0:0,0:0:0:0:
474,268,49754,1,0,0:0:0:0:
363,181,49897,1,2,0:0:0:0:
340,183,49968,1,0,0:0:0:0:
318,186,50040,1,8,0:0:0:0:
464,145,50183,1,0,0:0:0:0:
378,281,50325,6,0,P|389:299|400:336,3,44.999998626709,2|0|0|0,0:0|0:0|0:0|0:0,0:0:0:0:
309,340,50611,2,0,P|309:361|300:398,3,44.999998626709,8|0|2|0,0:0|0:0|0:0|0:0,0:0:0:0:
227,313,50897,2,0,P|183:324|144:346,1,89.9999972534181,0|2,0:0|0:0,0:0:0:0:
27,299,51183,1,8,0:0:0:0:
126,190,51325,1,0,0:0:0:0:
147,195,51397,1,0,0:0:0:0:
169,201,51468,6,0,P|203:144|197:57,1,134.999995880127,2|0,0:0|0:0,0:0:0:0:
131,44,51754,1,8,0:0:0:0:
321,18,51897,2,0,L|311:112,1,89.9999972534181,0|0,0:0|0:0,0:0:0:0:
396,204,52183,1,2,0:0:0:0:
418,202,52254,1,0,0:0:0:0:
440,200,52325,2,0,L|494:196,3,44.999998626709,8|0|0|0,0:0|0:0|0:0|0:0,0:0:0:0:
445,284,52611,6,0,L|400:287,3,44.999998626709,2|0|0|0,0:0|0:0|0:0|0:0,0:0:0:0:
317,333,52897,2,0,L|272:329,3,44.999998626709,8|0|2|0,0:0|0:0|0:0|0:0,0:0:0:0:
217,252,53183,2,0,P|193:256|171:255,1,44.999998626709,0|0,0:0|0:0,0:0:0:0:
110,375,53325,2,0,P|118:353|130:333,1,44.999998626709,2|0,0:0|0:0,0:0:0:0:
55,223,53468,2,0,P|69:240|80:261,1,44.999998626709,8|0,0:0|0:0,0:0:0:0:
195,135,53611,1,2,0:0:0:0:
195,135,53683,1,0,0:0:0:0:
195,135,53754,6,0,L|246:131,3,44.999998626709,6|0|0|0,0:0|0:0|0:0|0:0,0:0:0:0:
56,214,54040,2,0,L|5:210,3,44.999998626709,8|0|0|0,0:0|0:0|0:0|0:0,0:0:0:0:
92,114,54325,2,0,P|99:92|104:70,3,44.999998626709,0|0|0|0,0:0|0:0|0:0|0:0,0:0:0:0:
172,246,54611,2,0,P|176:268|184:289,3,44.999998626709,8|0|0|0,0:0|0:0|0:0|0:0,0:0:0:0:
317,135,54897,6,0,L|272:131,3,44.999998626709,6|0|2|0,0:0|0:0|0:0|0:0,0:0:0:0:
456,214,55183,2,0,L|500:210,3,44.999998626709,10|0|2|0,0:0|0:0|0:0|0:0,0:0:0:0:
420,114,55468,2,0,P|412:92|407:70,3,44.999998626709,2|0|2|0,0:0|0:0|0:0|0:0,0:0:0:0:
340,246,55754,2,0,P|335:268|327:289,3,44.999998626709,10|0|0|0,0:0|0:0|0:0|0:0,0:0:0:0:
246,360,56040,5,6,0:0:0:0:
228,331,56111,1,0,0:0:0:0:
220,298,56183,1,2,0:0:0:0:
222,265,56254,1,0,0:0:0:0:
234,233,56325,2,0,L|177:237,3,44.999998626709,10|0|2|0,0:0|0:0|0:0|0:0,0:0:0:0:
115,176,56611,5,6,0:0:0:0:
144,159,56683,1,0,0:0:0:0:
167,134,56754,1,2,0:0:0:0:
182,105,56825,1,0,0:0:0:0:
190,71,56897,2,0,L|184:26,3,44.999998626709,10|0|0|0,0:0|0:0|0:0|0:0,0:0:0:0:
280,104,57183,6,0,L|274:59,3,44.999998626709,6|0|2|0,0:0|0:0|0:0|0:0,0:0:0:0:
370,137,57468,2,0,L|364:92,3,44.999998626709,8|0|2|0,0:0|0:0|0:0|0:0,0:0:0:0:
460,170,57754,2,0,L|454:125,3,44.999998626709,6|0|0|0,0:0|0:0|0:0|0:0,0:0:0:0:
494,268,58040,1,2,0:0:0:0:
462,257,58111,1,2,0:0:0:0:
428,255,58183,1,2,0:0:0:0:
395,262,58254,1,2,0:0:0:0:
365,278,58325,6,0,L|370:317,6,22.4999993133545,0|0|0|0|0|0|0,3:0|3:0|3:0|3:0|3:0|3:0|3:0,0:0:0:0:
318,360,58611,6,0,L|321:208,1,150,12|2,0:0|0:0,0:0:0:0:
280,104,59040,1,2,0:0:0:0:
163,185,59183,1,8,0:0:0:0:
160,203,59254,2,0,P|166:246|190:291,1,75,0|0,0:0|0:0,0:0:0:0:
234,337,59468,6,0,P|169:306|83:316,1,150,2|8,0:0|0:0,0:0:0:0:
0,247,59897,1,0,0:0:0:0:
52,149,60040,2,0,L|54:66,1,75,2|2,3:2|3:2,0:0:0:0:
142,204,60325,1,10,0:0:0:0:
160,203,60397,1,2,0:0:0:0:
179,202,60468,1,2,0:0:0:0:
198,201,60540,1,2,0:0:0:0:
215,199,60611,6,0,P|241:227|257:261,1,75,2|0,0:0|0:0,0:0:0:0:
252,111,60897,1,8,0:0:0:0:
336,79,61040,2,0,P|361:51|377:17,1,75,0|2,0:0|0:0,0:0:0:0:
242,104,61325,1,2,0:0:0:0:
329,184,61468,2,0,L|429:180,1,75,8|0,0:0|0:0,0:0:0:0:
494,179,61754,5,2,0:0:0:0:
454,73,61897,1,0,0:0:0:0:
488,193,62040,2,0,P|470:231|458:268,1,75,8|0,0:0|3:2,0:0:0:0:
390,375,62325,1,2,3:2:0:0:
507,332,62468,1,2,3:2:0:0:
355,288,62611,1,8,0:0:0:0:
336,290,62683,1,0,0:0:0:0:
317,292,62754,1,2,0:0:0:0:
299,296,62825,1,2,0:0:0:0:
281,300,62897,6,0,B|299:147,1,150,2|8,0:0|0:0,0:0:0:0:
380,206,63325,1,0,0:0:0:0:
206,231,63468,2,0,P|161:233|105:248,1,75,2|2,0:0|0:0,0:0:0:0:
60,276,63683,1,0,0:0:0:0:
60,276,63754,2,0,L|64:350,1,75,8|0,0:0|0:0,0:0:0:0:
9,199,64040,6,0,L|14:125,1,75,2|0,0:0|0:0,0:0:0:0:
68,27,64325,1,8,3:2:0:0:
133,151,64468,1,0,3:2:0:0:
250,39,64611,2,0,P|212:44|176:55,1,75,2|2,3:2|3:2,0:0:0:0:
219,188,64897,2,0,L|300:195,1,75,8|0,0:0|0:0,0:0:0:0:
306,180,65111,1,0,0:0:0:0:
320,167,65183,6,0,P|307:228|317:305,1,112.5,2|0,0:0|0:0,0:0:0:0:
322,291,65468,2,0,L|396:283,1,75,8|0,0:0|0:0,0:0:0:0:
468,221,65754,1,2,0:0:0:0:
437,369,65897,1,2,0:0:0:0:
478,208,66040,1,8,0:0:0:0:
511,314,66183,1,0,0:0:0:0:
373,209,66325,6,0,L|299:217,1,75,2|2,0:0|0:0,0:0:0:0:
148,245,66611,1,8,0:0:0:0:
218,140,66754,2,0,L|218:189,1,37.5,2|0,3:2|3:2,0:0:0:0:
214,309,66897,1,2,3:2:0:0:
191,325,66968,1,0,3:2:0:0:
165,335,67040,1,2,3:2:0:0:
137,336,67111,1,0,3:2:0:0:
110,328,67183,2,0,L|101:376,3,37.5,8|2|0|0,3:2|3:2|3:2|3:2,0:0:0:0:
62,266,67468,6,0,L|73:133,1,112.5,6|0,0:0|0:0,0:0:0:0:
79,136,67754,2,0,P|43:146|5:146,1,75,8|0,0:0|0:0,0:0:0:0:
147,82,68040,1,2,0:0:0:0:
57,31,68183,1,2,0:0:0:0:
244,24,68325,2,0,L|230:131,1,75,8|0,0:0|0:0,0:0:0:0:
169,217,68611,6,0,P|234:181|308:177,1,150,2|8,0:0|3:2,0:0:0:0:
419,251,69040,1,0,3:2:0:0:
405,146,69183,1,2,3:2:0:0:
323,266,69325,2,0,P|318:303|319:340,1,75,2|8,0:0|0:0,0:0:0:0:
325,357,69540,1,0,0:0:0:0:
331,374,69611,1,0,0:0:0:0:
223,306,69754,6,0,L|102:299,1,112.5,2|0,0:0|0:0,0:0:0:0:
94,289,70040,2,0,L|96:384,1,75,8|0,0:0|0:0,0:0:0:0:
45,208,70325,1,2,0:0:0:0:
170,222,70468,1,2,0:0:0:0:
31,197,70611,1,8,0:0:0:0:
185,124,70754,1,0,0:0:0:0:
78,39,70897,6,0,P|78:79|91:125,1,75,2|0,0:0|0:0,0:0:0:0:
170,222,71183,2,0,L|284:216,1,112.5,8|0,3:2|3:2,0:0:0:0:
296,226,71468,2,0,P|295:189|302:152,1,75,2|2,3:2|0:0,0:0:0:0:
393,200,71754,1,8,0:0:0:0:
393,200,71825,1,0,0:0:0:0:
393,200,71897,1,0,0:0:0:0:
458,327,72040,6,0,P|403:309|309:316,1,150,2|8,0:0|0:0,0:0:0:0:
232,369,72468,1,0,0:0:0:0:
163,236,72611,2,0,P|200:237|237:244,1,75,2|2,0:0|0:0,0:0:0:0:
246,227,72825,1,0,0:0:0:0:
254,210,72897,2,0,L|255:114,1,75,8|0,0:0|0:0,0:0:0:0:
339,215,73183,5,2,0:0:0:0:
383,70,73325,1,0,0:0:0:0:
416,158,73468,2,0,P|457:167|511:160,1,75,8|0,0:0|0:0,0:0:0:0:
376,58,73754,2,0,L|263:54,1,112.5,2|0,0:0|0:0,0:0:0:0:
244,53,74040,1,8,0:0:0:0:
158,174,74183,1,0,0:0:0:0:
75,94,74325,6,0,P|112:88|149:85,1,75,2|0,0:0|0:0,0:0:0:0:
77,234,74611,2,0,L|2:229,1,75,8|0,0:0|0:0,0:0:0:0:
150,163,74897,1,2,0:0:0:0:
110,322,75040,1,2,0:0:0:0:
80,224,75183,1,8,0:0:0:0:
197,291,75325,1,0,0:0:0:0:
303,196,75468,6,0,P|261:198|222:207,1,75,2|2,0:0|0:0,0:0:0:0:
357,274,75754,2,0,P|328:305|307:339,1,75,8|2,0:0|0:0,0:0:0:0:
437,234,76040,1,2,0:0:0:0:
482,353,76183,1,2,0:0:0:0:
491,177,76325,1,8,0:0:0:0:
477,189,76397,1,2,0:0:0:0:
462,200,76469,6,0,L|457:118,1,75,0|6,0:0|0:0,0:0:0:0:
73,207,85754,5,2,1:2:0:0:
256,160,86040,1,2,1:2:0:0:
164,80,86325,5,2,1:2:0:0:
200,264,86611,1,2,1:2:0:0:
348,80,86897,5,2,1:2:0:0:
312,264,87183,1,2,1:2:0:0:
256,160,87468,5,2,1:2:0:0:
439,207,87754,1,2,1:2:0:0:
235,236,88040,5,2,1:2:0:0:
336,76,88325,1,2,1:2:0:0:
302,281,88611,5,2,1:2:0:0:
181,135,88897,1,2,1:2:0:0:
362,230,89183,5,2,1:2:0:0:
186,300,89468,1,2,1:2:0:0:
335,157,89754,5,2,1:2:0:0:
346,345,90040,1,2,1:2:0:0:
235,236,90325,6,0,P|173:229|106:243,1,112.500004291535,2|2,1:2|1:2,0:0:0:0:
54,188,90754,1,0,0:0:0:0:
68,104,90897,2,0,P|118:84|181:74,1,112.500004291535,2|2,1:2|1:2,0:0:0:0:
318,25,91468,6,0,L|313:88,1,56.2500021457673,2|0,1:2|0:0,0:0:0:0:
432,71,91754,2,0,L|437:134,1,56.2500021457673,2|0,1:2|0:0,0:0:0:0:
305,157,92040,6,0,L|300:220,1,56.2500021457673,2|0,1:2|0:0,0:0:0:0:
445,204,92325,2,0,L|450:267,1,56.2500021457673,2|0,1:2|0:0,0:0:0:0:
292,289,92611,5,2,1:2:0:0:
256,192,92754,12,0,94897,0:0:0:0:
239,93,95754,6,0,P|280:89|321:78,1,84.3750032186509,2|0,0:2|0:0,0:0:0:0:
340,66,96040,6,0,L|330:196,1,89.9999972534181,6|0,0:0|0:0,0:0:0:0:
329,276,96325,1,8,0:0:0:0:
172,231,96468,2,0,P|214:216|258:214,1,89.9999972534181,0|0,0:0|0:0,0:0:0:0:
429,206,96754,1,2,0:0:0:0:
426,228,96825,1,0,0:0:0:0:
424,250,96897,2,0,L|412:371,1,89.9999972534181,8|0,0:0|0:0,0:0:0:0:
266,206,97183,5,2,0:0:0:0:
283,360,97325,1,0,0:0:0:0:
182,317,97468,1,8,0:0:0:0:
338,267,97611,1,2,0:0:0:0:
174,220,97754,2,0,L|84:213,1,89.9999972534181,0|2,0:0|0:0,0:0:0:0:
23,113,98040,2,0,L|112:119,1,89.9999972534181,8|0,0:0|0:0,0:0:0:0:
131,106,98254,1,0,0:0:0:0:
149,92,98325,6,0,P|166:51|164:7,1,89.9999972534181,2|0,0:0|0:0,0:0:0:0:
76,35,98611,1,8,0:0:0:0:
239,100,98754,2,0,L|349:94,1,89.9999972534181,0|0,0:0|0:0,0:0:0:0:
375,193,99040,1,2,0:0:0:0:
351,191,99111,1,0,0:0:0:0:
330,185,99183,1,8,0:0:0:0:
433,63,99325,1,0,0:0:0:0:
459,188,99468,6,0,L|446:336,1,134.999995880127,2|0,0:0|0:0,0:0:0:0:
429,336,99754,2,0,P|472:344|512:366,1,89.9999972534181,8|2,0:0|0:0,0:0:0:0:
362,262,100040,1,0,0:0:0:0:
342,377,100183,1,2,0:0:0:0:
363,248,100325,1,8,0:0:0:0:
208,318,100468,1,2,0:0:0:0:
263,151,100611,6,0,L|270:247,1,89.9999972534181,2|0,0:0|0:0,0:0:0:0:
108,166,100897,1,8,0:0:0:0:
181,101,101040,2,0,L|187:11,1,89.9999972534181,0|0,0:0|0:0,0:0:0:0:
101,156,101325,1,2,0:0:0:0:
266,135,101468,1,8,0:0:0:0:
98,68,101611,1,2,0:0:0:0:
190,201,101754,6,0,P|189:249|179:294,1,89.9999972534181,0|2,0:0|0:0,0:0:0:0:
375,332,102040,1,8,0:0:0:0:
290,372,102183,2,0,P|286:327|299:281,1,89.9999972534181,0|2,0:0|0:0,0:0:0:0:
419,206,102468,1,2,0:0:0:0:
512,247,102611,2,0,L|505:150,1,89.9999972534181,8|0,0:0|0:0,0:0:0:0:
460,89,102897,6,0,P|451:64|449:30,2,44.999998626709,2|0|0,0:0|0:0|0:0,0:0:0:0:
272,67,103183,2,0,P|245:62|215:47,2,44.999998626709,8|0|2,0:0|0:0|0:0,0:0:0:0:
369,53,103468,2,0,P|348:35|329:7,2,44.999998626709,0|0|2,0:0|0:0|0:0,0:0:0:0:
194,127,103754,2,0,P|168:136|135:138,2,44.999998626709,8|0|0,0:0|0:0|0:0,0:0:0:0:
155,217,104040,6,0,P|144:268|151:322,1,89.9999972534181,2|2,0:0|0:0,0:0:0:0:
207,380,104325,1,8,0:0:0:0:
317,253,104468,1,2,0:0:0:0:
225,286,104611,1,10,0:0:0:0:
363,344,104754,1,2,0:0:0:0:
381,354,104825,1,2,0:0:0:0:
401,364,104897,2,0,L|510:358,1,89.9999972534181,8|2,0:0|0:0,0:0:0:0:
488,201,105183,5,6,0:0:0:0:
410,276,105325,1,0,0:0:0:0:
351,127,105468,1,8,0:0:0:0:
322,217,105611,2,0,P|277:221|232:217,1,89.9999972534181,0|0,0:0|0:0,0:0:0:0:
157,140,105897,1,2,0:0:0:0:
176,128,105968,1,0,0:0:0:0:
192,112,106040,2,0,P|204:55|198:11,1,89.9999972534181,8|0,0:0|0:0,0:0:0:0:
269,149,106325,5,2,0:0:0:0:
365,45,106468,1,0,0:0:0:0:
395,193,106611,1,8,0:0:0:0:
282,62,106754,1,2,0:0:0:0:
418,115,106897,1,0,0:0:0:0:
257,155,107040,1,2,0:0:0:0:
257,155,107111,1,0,0:0:0:0:
257,155,107183,2,0,L|165:149,1,89.9999972534181,8|0,0:0|0:0,0:0:0:0:
8,266,107468,6,0,B|43:268|43:268|61:261|61:261|96:263,1,89.9999972534181,12|0,1:2|0:0,0:0:0:0:
176,316,107754,1,12,1:2:0:0:
68,175,107897,5,12,1:2:0:0:
68,175,108183,1,12,1:2:0:0:
68,175,108468,1,6,1:2:0:0:
8,88,108611,6,0,P|55:84|100:89,1,89.9999972534181,2|0,0:0|0:0,0:0:0:0:
166,194,108897,2,0,L|72:202,1,89.9999972534181,8|2,0:0|0:0,0:0:0:0:
195,107,109183,1,0,0:0:0:0:
240,240,109325,1,2,0:0:0:0:
287,71,109468,1,8,0:0:0:0:
320,171,109611,1,0,0:0:0:0:
320,171,109683,1,0,0:0:0:0:
320,170,109754,6,0,P|364:173|407:188,1,89.9999972534181,2|0,0:0|0:0,0:0:0:0:
414,324,110040,2,0,P|447:294|487:274,1,89.9999972534181,8|0,0:0|0:0,0:0:0:0:
325,259,110325,2,0,L|225:256,1,89.9999972534181,0|2,0:0|0:0,0:0:0:0:
174,308,110540,1,0,0:0:0:0:
174,308,110611,2,0,P|154:268|161:224,1,89.9999972534181,8|2,0:0|0:0,0:0:0:0:
62,93,110897,6,0,L|196:90,1,134.999995880127,0|0,0:0|0:0,0:0:0:0:
212,106,111183,2,0,L|220:16,1,89.9999972534181,8|0,0:0|0:0,0:0:0:0:
283,171,111468,1,2,0:0:0:0:
285,193,111540,1,0,0:0:0:0:
288,215,111611,1,2,0:0:0:0:
362,60,111754,1,8,0:0:0:0:
196,90,111897,1,0,0:0:0:0:
362,145,112040,6,0,P|429:138|481:97,1,134.999995880127,2|0,0:0|0:0,0:0:0:0:
480,119,112325,2,0,P|467:161|466:206,1,89.9999972534181,8|2,0:0|0:0,0:0:0:0:
479,366,112611,1,0,0:0:0:0:
370,228,112754,1,2,0:0:0:0:
510,285,112897,2,0,L|400:293,1,89.9999972534181,8|0,0:0|0:0,0:0:0:0:
263,290,113183,5,2,0:0:0:0:
340,360,113325,1,2,0:0:0:0:
247,206,113468,1,8,0:0:0:0:
188,345,113611,1,2,0:0:0:0:
277,284,113754,1,10,0:0:0:0:
299,281,113825,1,0,0:0:0:0:
321,278,113897,1,2,0:0:0:0:
164,231,114040,2,0,L|74:223,1,89.9999972534181,8|0,0:0|0:0,0:0:0:0:
42,80,114325,6,0,P|98:44|171:31,1,134.999995880127,6|0,0:0|0:0,0:0:0:0:
187,31,114611,1,8,0:0:0:0:
248,191,114754,2,0,L|239:295,1,89.9999972534181,0|0,0:0|0:0,0:0:0:0:
171,153,115040,1,2,0:0:0:0:
169,130,115111,1,0,0:0:0:0:
167,108,115183,1,8,0:0:0:0:
327,158,115325,1,0,0:0:0:0:
360,37,115468,6,0,P|307:47|270:63,1,89.9999972534181,2|0,0:0|0:0,0:0:0:0:
420,141,115754,1,8,0:0:0:0:
456,34,115897,1,2,0:0:0:0:
315,163,116040,2,0,P|349:191|375:228,1,89.9999972534181,0|2,0:0|0:0,0:0:0:0:
391,244,116254,1,0,0:0:0:0:
409,256,116325,2,0,P|382:302|375:348,1,89.9999972534181,8|0,0:0|0:0,0:0:0:0:
175,296,116611,6,0,B|226:291|226:291|249:270|249:270|300:265,1,134.999995880127,2|0,0:0|0:0,0:0:0:0:
288,284,116897,2,0,B|298:328|298:328|282:382,1,89.9999972534181,8|0,0:0|0:0,0:0:0:0:
180,214,117183,2,0,L|171:111,1,89.9999972534181,0|2,0:0|0:0,0:0:0:0:
170,101,117397,1,0,0:0:0:0:
168,78,117468,1,8,0:0:0:0:
257,146,117611,1,0,0:0:0:0:
88,108,117754,6,0,L|99:242,1,134.999995880127,2|0,0:0|0:0,0:0:0:0:
115,258,118040,2,0,L|16:247,1,89.9999972534181,8|2,0:0|0:0,0:0:0:0:
128,352,118325,1,0,0:0:0:0:
245,258,118468,1,2,0:0:0:0:
119,342,118611,1,8,0:0:0:0:
286,369,118754,1,2,0:0:0:0:
321,237,118897,6,0,P|277:239|233:248,1,89.9999972534181,2|0,0:0|0:0,0:0:0:0:
392,300,119183,1,8,0:0:0:0:
366,161,119325,2,0,P|326:139|283:125,1,89.9999972534181,0|0,0:0|0:0,0:0:0:0:
437,224,119611,1,2,0:0:0:0:
314,231,119754,1,8,0:0:0:0:
452,133,119897,1,2,0:0:0:0:
274,139,120040,6,0,P|289:96|295:51,1,89.9999972534181,0|2,0:0|0:0,0:0:0:0:
140,126,120325,1,8,0:0:0:0:
203,197,120468,2,0,P|217:239|223:284,1,89.9999972534181,0|2,0:0|0:0,0:0:0:0:
164,357,120754,1,2,0:0:0:0:
306,325,120897,1,8,0:0:0:0:
134,273,121040,1,0,0:0:0:0:
112,280,121111,1,0,0:0:0:0:
91,288,121183,6,0,P|69:281|46:278,2,44.999998626709,2|0|0,0:0|0:0|0:0,0:0:0:0:
174,366,121468,2,0,P|195:359|217:356,2,44.999998626709,8|0|2,0:0|0:0|0:0,0:0:0:0:
198,203,121754,2,0,P|178:193|157:187,2,44.999998626709,0|0|2,0:0|0:0|0:0,0:0:0:0:
314,314,122040,2,0,P|336:317|358:324,2,44.999998626709,8|0|0,0:0|0:0|0:0,0:0:0:0:
294,211,122325,6,0,L|296:89,1,89.9999972534181,2|2,0:0|0:0,0:0:0:0:
387,147,122611,1,8,0:0:0:0:
262,30,122754,1,2,0:0:0:0:
407,44,122897,2,0,P|452:42|495:20,1,89.9999972534181,8|2,0:0|0:0,0:0:0:0:
483,43,123111,1,2,0:0:0:0:
475,64,123183,2,0,P|467:121|475:170,1,89.9999972534181,8|2,0:0|0:0,0:0:0:0:
501,267,123468,6,0,B|441:256|441:256|435:260|435:260|431:254|431:254|371:244,1,134.999995880127,6|0,0:0|0:0,0:0:0:0:
383,263,123754,2,0,P|394:292|399:353,1,89.9999972534181,8|0,0:0|0:0,0:0:0:0:
273,234,124040,2,0,L|284:136,1,89.9999972534181,0|2,0:0|0:0,0:0:0:0:
260,139,124254,1,0,0:0:0:0:
238,134,124325,1,8,0:0:0:0:
365,98,124468,1,0,0:0:0:0:
232,48,124611,6,0,L|92:59,1,134.999995880127,2|2,0:0|0:0,0:0:0:0:
79,44,124897,2,0,L|93:144,1,89.9999972534181,0|2,0:0|0:0,0:0:0:0:
98,303,125183,1,0,0:0:0:0:
11,213,125325,1,0,0:0:0:0:
33,214,125397,1,0,0:0:0:0:
55,216,125468,2,0,L|144:224,1,89.9999972534181,10|0,0:0|0:0,0:0:0:0:
254,171,125754,5,12,1:2:0:0:
242,333,125897,1,12,1:2:0:0:
242,333,126183,5,12,1:2:0:0:
242,333,126468,1,12,1:2:0:0:
242,333,126754,6,0,B|361:320|361:320|426:342,1,179.999994506836,6|2,1:2|0:0,0:0:0:0:
406,319,127111,1,2,0:0:0:0:
398,297,127183,2,0,P|388:248|394:194,1,89.9999972534181,10|2,0:0|0:0,0:0:0:0:
389,88,127468,1,2,0:0:0:0:
473,209,127611,1,0,0:0:0:0:
326,151,127754,1,8,0:0:0:0:
474,89,127897,1,0,0:0:0:0:
327,31,128040,6,0,L|225:39,1,89.9999972534181,6|0,3:2|3:2,0:0:0:0:
214,40,128254,1,0,3:2:0:0:
191,42,128325,2,0,P|206:84|208:128,1,89.9999972534181,8|0,3:2|3:2,0:0:0:0:
146,219,128611,1,2,3:2:0:0:
106,126,128754,1,0,3:2:0:0:
250,214,128897,2,0,P|234:256|232:300,1,89.9999972534181,8|0,3:2|3:2,0:0:0:0:
226,322,129111,1,0,3:2:0:0:
221,344,129183,6,0,L|379:335,1,134.999995880127,6|0,3:2|3:2,0:0:0:0:
378,334,129468,1,10,3:2:0:0:
492,248,129611,1,0,3:2:0:0:
425,171,129754,2,0,L|335:176,1,89.9999972534181,2|0,3:2|3:2,0:0:0:0:
254,95,130040,1,10,3:2:0:0:
263,259,130183,1,0,0:0:0:0:
264,281,130254,1,0,0:0:0:0:
264,303,130325,6,0,P|246:332|235:364,2,69.9999978637696,6|2|2,3:2|3:2|3:2,0:0:0:0:
178,277,130611,2,0,P|143:275|109:281,2,69.9999978637696,2|2|2,3:2|3:2|3:2,0:0:0:0:
157,188,130897,2,0,P|141:157|118:131,2,69.9999978637696,6|2|2,3:2|3:2|3:2,0:0:0:0:
223,125,131183,2,0,P|241:95|252:63,2,69.9999978637696,2|2|2,3:2|3:2|3:2,0:0:0:0:
309,151,131468,6,0,L|378:146,2,69.9999978637696,6|2|2,3:2|3:2|3:2,0:0:0:0:
257,224,131754,2,0,L|188:229,2,69.9999978637696,6|2|2,3:2|3:2|3:2,0:0:0:0:
347,230,132040,2,0,L|416:225,2,69.9999978637696,6|2|2,3:2|3:2|3:2,0:0:0:0:
295,303,132325,2,0,L|226:308,2,69.9999978637696,6|2|2,3:2|3:2|3:2,0:0:0:0:
385,309,132611,5,6,3:2:0:0:
