osu file format v14

[General]
AudioFilename: audio.mp3
AudioLeadIn: 0
PreviewTime: 95897
Countdown: 0
SampleSet: Soft
StackLeniency: 0.2
Mode: 0
LetterboxInBreaks: 0
WidescreenStoryboard: 0

[Editor]
DistanceSpacing: 1
BeatDivisor: 4
GridSize: 4
TimelineZoom: 2.799999

[Metadata]
Title:WoRLd Tempest
TitleUnicode:WoRLd Tempest
Artist:sak remixed by LeaF
ArtistUnicode:sak remixed by LeaF
Creator:Kroytz
Version:HEAVENLY
Source:K-Shoot MANIA
Tags:Hard Renaissance Artcore Piano Stream Deathstream Anxient Nerova Riuz GX toybot mithew
BeatmapID:1831083
BeatmapSetID:490916

[Difficulty]
HPDrainRate:5
CircleSize:4.5
OverallDifficulty:9.6
ApproachRate:9.6
SliderMultiplier:2
SliderTickRate:1

[Events]
//Background and Video events
0,0,"BG.png",0,0
//Break Periods
2,76811,85229
//Storyboard Layer 0 (Background)
//Storyboard Layer 1 (Fail)
//Storyboard Layer 2 (Pass)
//Storyboard Layer 3 (Foreground)
//Storyboard Layer 4 (Overlay)
//Storyboard Sound Samples

[TimingPoints]
1183,285.714285714286,4,2,2,75,1,0
10325,-285.714285714286,4,2,2,40,0,0
17183,-500,4,2,2,40,0,0
18325,-1000,4,2,2,40,0,0
19468,-1000,4,2,20,5,0,0
20325,-222.222222222222,4,2,1,5,0,0
20397,-222.222222222222,4,2,1,6,0,0
20468,-222.222222222222,4,2,1,7,0,0
20540,-222.222222222222,4,2,1,8,0,0
20611,-222.222222222222,4,2,1,9,0,0
20683,-400,4,2,1,10,0,0
20754,-400,4,2,1,13,0,0
20825,-400,4,2,1,17,0,0
20897,-400,4,2,1,21,0,0
20968,-400,4,2,1,25,0,0
21040,-400,4,2,1,29,0,0
21111,-400,4,2,1,33,0,0
21183,-400,4,2,1,37,0,0
21254,-400,4,2,1,41,0,0
21325,-400,4,2,1,45,0,0
21397,-400,4,2,1,49,0,0
21468,-400,4,2,1,53,0,0
21540,-400,4,2,1,57,0,0
21611,-400,4,2,1,61,0,0
21683,-400,4,2,1,65,0,0
21754,-133.333333333333,4,2,1,70,0,0
24040,-142.857142857143,4,2,1,70,0,0
27468,-125,4,2,1,70,0,0
28611,-111.111111111111,4,2,1,70,0,0
30897,-90.9090909090909,4,2,1,70,0,0
39468,-90.9090909090909,4,2,10,70,0,0
39540,-90.9090909090909,4,2,1,70,0,0
40040,-76.9230769230769,4,2,1,80,0,1
43397,-76.9230769230769,4,2,1,80,0,1
43468,-76.9230769230769,4,2,1,80,0,1
48611,-76.9230769230769,4,2,10,80,0,1
48683,-76.9230769230769,4,2,1,80,0,1
58611,-86.9565217391304,4,2,1,60,0,0
59397,-86.9565217391304,4,2,1,5,0,0
59468,-86.9565217391304,4,2,1,60,0,0
59683,-86.9565217391304,4,2,20,5,0,0
59754,-86.9565217391304,4,2,1,60,0,0
61683,-86.9565217391304,4,2,2,5,0,0
61754,-86.9565217391304,4,2,1,60,0,0
64254,-86.9565217391304,4,2,1,60,0,0
64325,-86.9565217391304,4,2,1,60,0,0
68825,-86.9565217391304,4,2,1,60,0,0
68897,-86.9565217391304,4,2,1,60,0,0
69111,-86.9565217391304,4,2,1,60,0,0
69183,-86.9565217391304,4,2,1,60,0,0
69683,-86.9565217391304,4,2,1,60,0,0
69754,-86.9565217391304,4,2,1,60,0,0
69968,-86.9565217391304,4,2,20,5,0,0
70040,-86.9565217391304,4,2,1,60,0,0
70254,-86.9565217391304,4,2,1,60,0,0
70325,-86.9565217391304,4,2,1,60,0,0
71111,-86.9565217391304,4,2,1,60,0,0
71183,-86.9565217391304,4,2,1,60,0,0
71397,-86.9565217391304,4,2,1,60,0,0
71468,-86.9565217391304,4,2,1,60,0,0
71968,-86.9565217391304,4,2,1,60,0,0
72040,-86.9565217391304,4,2,1,60,0,0
72254,-86.9565217391304,4,2,20,5,0,0
72325,-86.9565217391304,4,2,1,60,0,0
72540,-86.9565217391304,4,2,1,60,0,0
72611,-86.9565217391304,4,2,1,60,0,0
73397,-86.9565217391304,4,2,20,5,0,0
73468,-86.9565217391304,4,2,1,60,0,0
73683,-86.9565217391304,4,2,20,5,0,0
73754,-86.9565217391304,4,2,1,60,0,0
74540,-86.9565217391304,4,2,20,5,0,0
74611,-86.9565217391304,4,2,1,60,0,0
74825,-86.9565217391304,4,2,20,5,0,0
74897,-86.9565217391304,4,2,1,60,0,0
85754,-133.333333333333,4,2,1,60,0,0
89468,-166.666666666667,4,2,1,60,0,0
89754,-222.222222222222,4,2,1,60,0,0
90040,-333.333333333333,4,2,1,60,0,0
90325,-133.333333333333,4,2,1,60,0,0
95611,-133.333333333333,4,2,20,5,0,0
95754,-50,4,2,1,80,0,0
95968,-50,4,2,1,5,0,0
96040,-83.3333333333333,4,2,1,80,0,1
96897,-66.6666666666667,4,2,1,80,0,1
97111,-66.6666666666667,4,2,1,80,0,1
97183,-83.3333333333333,4,2,1,80,0,1
99183,-66.6666666666667,4,2,1,80,0,1
99397,-66.6666666666667,4,2,1,80,0,1
99468,-83.3333333333333,4,2,1,80,0,1
104611,-83.3333333333333,4,2,10,80,0,1
104683,-83.3333333333333,4,2,1,80,0,1
106040,-66.6666666666667,4,2,1,80,0,1
106325,-83.3333333333333,4,2,1,80,0,1
108468,-66.6666666666667,4,2,1,80,0,1
108683,-66.6666666666667,4,2,20,5,0,1
108754,-83.3333333333333,4,2,1,80,0,1
112254,-83.3333333333333,4,2,1,80,0,1
112325,-83.3333333333333,4,2,1,80,0,1
112825,-83.3333333333333,4,2,1,80,0,1
112897,-83.3333333333333,4,2,1,80,0,1
113754,-83.3333333333333,4,2,10,80,0,1
113825,-83.3333333333333,4,2,1,80,0,1
114254,-83.3333333333333,4,2,1,80,0,0
114325,-83.3333333333333,4,2,1,80,0,1
115183,-66.6666666666667,4,2,1,80,0,1
115397,-66.6666666666667,4,2,1,80,0,1
115468,-83.3333333333333,4,2,1,80,0,1
117468,-66.6666666666667,4,2,1,80,0,1
117683,-66.6666666666667,4,2,1,80,0,1
117754,-83.3333333333333,4,2,1,80,0,1
122897,-66.6666666666667,4,2,10,80,0,1
122968,-66.6666666666667,4,2,1,80,0,1
123468,-83.3333333333333,4,2,1,80,0,1
124611,-50,4,2,1,80,0,1
126754,-66.6666666666667,4,2,1,80,0,1
126968,-66.6666666666667,4,2,20,5,0,1
127040,-83.3333333333333,4,2,1,80,0,1
132611,-83.3333333333333,4,2,1,80,0,0
134897,-83.3333333333333,4,2,1,5,0,0

[Colours]
Combo1 : 32,123,52
Combo2 : 183,183,183
Combo3 : 88,199,207
Combo4 : 46,152,160

[HitObjects]
436,364,10325,6,0,B|481:261|388:261|438:162,1,209.999993591309,6|2,0:0|0:0,0:0:0:0:
411,71,11468,6,0,L|480:85,1,69.9999978637696,2|2,0:0|0:0,0:0:0:0:
276,156,12040,2,0,L|345:141,1,69.9999978637696,2|2,0:0|0:0,0:0:0:0:
65,32,12611,6,0,P|48:80|64:129,2,104.999996795654,6|2|2,0:0|0:0|0:0,0:0:0:0:
198,96,13754,2,0,L|129:81,1,69.9999978637696,2|2,0:0|0:0,0:0:0:0:
6,223,14325,2,0,L|75:208,1,69.9999978637696,2|2,0:0|0:0,0:0:0:0:
198,350,14897,6,0,L|163:342,2,34.9999989318848,2|0|0,0:0|0:0|0:0,0:0:0:0:
272,330,15325,2,0,L|261:295,2,34.9999989318848,2|0|0,0:0|0:0|0:0,0:0:0:0:
326,384,15754,2,0,L|350:357,1,34.9999989318848,2|0,0:0|0:0,0:0:0:0:
434,324,16040,6,0,P|436:341|435:358,2,34.9999989318848,2|0|0,0:0|0:0|0:0,0:0:0:0:
456,254,16468,2,0,P|472:260|486:270,2,34.9999989318848,2|0|0,0:0|0:0|0:0,0:0:0:0:
406,199,16897,2,0,P|419:187|435:180,1,34.9999989318848,2|0,0:0|0:0,0:0:0:0:
361,279,17183,6,0,P|318:225|317:175,1,120,2|0,0:0|0:0,0:0:0:0:
382,28,18325,6,0,P|390:66|380:104,1,80,2|0,0:0|0:0,0:0:0:0:
54,31,20325,6,0,L|51:21,38,11.2499996566773,0|0|0|0|0|0|0|0|0|0|0|0|0|0|0|0|0|0|0|0|0|0|0|0|0|0|0|0|0|0|0|0|0|0|0|0|0|0|0,0:0|0:0|0:0|0:0|0:0|0:0|0:0|0:0|0:0|0:0|0:0|0:0|0:0|0:0|0:0|0:0|0:0|0:0|0:0|0:0|0:0|0:0|0:0|0:0|0:0|0:0|0:0|0:0|0:0|0:0|0:0|0:0|0:0|0:0|0:0|0:0|0:0|0:0|0:0,0:0:0:0:
0,103,21754,6,0,P|61:61|134:66,1,150.000005722046,10|0,1:2|3:0,0:0:0:0:
357,54,22183,2,0,P|295:93|221:89,1,150.000005722046,2|0,3:2|3:0,0:0:0:0:
416,0,22611,2,0,P|433:32|435:70,1,75.0000028610231,2|0,3:2|3:0,0:0:0:0:
381,130,22825,1,0,0:0:0:0:
381,130,22897,6,0,L|391:167,3,37.5000014305115,2|0|0|0,3:2|3:0|3:0|3:0,0:0:0:0:
473,189,23183,2,0,L|464:226,3,37.5000014305115,2|0|0|0,3:2|3:0|3:0|3:0,0:0:0:0:
381,248,23468,2,0,L|391:285,3,37.5000014305115,2|0|0|0,3:2|3:0|3:0|3:0,0:0:0:0:
473,307,23754,2,0,L|464:344,3,37.5000014305115,2|0|0|0,3:2|3:0|3:0|3:0,0:0:0:0:
377,378,24040,6,0,B|337:355|337:355|246:379,1,139.999995727539,10|2,1:2|3:2,0:0:0:0:
44,344,24468,2,0,B|83:366|83:366|174:342,1,139.999995727539,2|2,3:2|3:2,0:0:0:0:
75,217,24897,2,0,L|94:285,1,69.9999978637696,2|0,3:2|3:0,0:0:0:0:
243,298,25111,1,0,0:0:0:0:
243,298,25183,6,0,L|233:264,3,34.9999989318848,2|0|0|0,3:2|3:0|3:0|3:0,0:0:0:0:
292,226,25468,2,0,L|282:192,3,34.9999989318848,2|0|0|0,3:2|3:0|3:0|3:0,0:0:0:0:
341,154,25754,2,0,L|331:120,3,34.9999989318848,2|0|0|0,3:2|3:0|3:0|3:0,0:0:0:0:
390,82,26040,2,0,L|380:48,3,34.9999989318848,2|0|0|0,3:2|3:0|3:0|3:0,0:0:0:0:
244,113,26325,6,0,B|189:127|189:127|165:113|165:113|111:127,1,139.999995727539,10|0,1:2|3:0,0:0:0:0:
260,96,26754,2,0,B|205:110|205:110|181:96|181:96|127:110,1,139.999995727539,2|0,3:2|3:0,0:0:0:0:
276,79,27183,2,0,B|225:92|225:92|210:83,1,69.9999978637696,2|0,3:2|3:0,0:0:0:0:
0,68,27468,6,0,L|41:222,1,160,10|0,1:2|3:0,0:0:0:0:
12,44,27897,2,0,L|53:198,1,160,2|0,3:2|3:0,0:0:0:0:
24,20,28325,2,0,L|44:97,1,80,2|0,3:2|3:0,0:0:0:0:
92,284,28611,6,0,P|156:226|241:244,1,179.999994506836,10|2,1:2|3:2,0:0:0:0:
192,359,28968,1,2,3:2:0:0:
192,359,29040,2,0,L|180:315,1,44.999998626709,2|2,3:2|3:2,0:0:0:0:
130,130,29183,1,10,1:2:0:0:
298,306,29325,5,0,3:0:0:0:
289,341,29397,1,0,3:0:0:0:
311,370,29468,1,0,3:0:0:0:
347,370,29540,1,0,3:0:0:0:
370,343,29611,1,0,3:0:0:0:
362,307,29683,1,0,3:0:0:0:
331,291,29754,5,2,1:2:0:0:
333,335,29825,1,2,1:2:0:0:
360,371,29897,1,2,1:2:0:0:
402,384,29968,1,2,1:2:0:0:
447,371,30040,1,2,1:2:0:0:
472,338,30111,1,2,1:2:0:0:
475,292,30183,1,2,1:2:0:0:
453,255,30254,1,2,1:2:0:0:
411,235,30325,1,6,1:2:0:0:
372,216,30397,1,0,3:0:0:0:
349,177,30468,1,6,1:2:0:0:
353,133,30540,1,0,3:0:0:0:
379,101,30611,1,6,1:2:0:0:
420,86,30683,1,2,3:2:0:0:
462,100,30754,1,2,3:2:0:0:
491,137,30825,1,2,3:2:0:0:
493,182,30897,6,0,P|464:106|492:30,1,165.000005035401,6|0,0:2|0:0,0:0:0:0:
512,14,31183,1,8,0:0:0:0:
305,69,31325,2,0,L|198:96,1,110.000003356934,0|0,0:0|0:0,0:0:0:0:
350,2,31611,1,2,0:0:0:0:
350,2,31683,1,0,0:0:0:0:
350,2,31754,2,0,P|380:46|378:100,1,110.000003356934,8|0,0:0|0:0,0:0:0:0:
102,92,32040,6,0,L|209:65,1,110.000003356934,2|0,0:0|0:0,0:0:0:0:
79,165,32254,1,0,0:0:0:0:
71,188,32325,2,0,L|178:161,1,110.000003356934,8|2,0:0|0:0,0:0:0:0:
48,261,32540,1,0,0:0:0:0:
40,284,32611,2,0,L|147:257,1,110.000003356934,0|2,0:0|0:0,0:0:0:0:
17,357,32825,1,0,0:0:0:0:
9,380,32897,2,0,L|116:353,1,110.000003356934,8|0,0:0|0:0,0:0:0:0:
368,233,33183,6,0,B|255:263|255:263|231:305,1,165.000005035401,2|0,0:0|0:0,0:0:0:0:
221,325,33468,1,8,0:0:0:0:
452,266,33611,2,0,L|425:158,1,110.000003356934,0|0,0:0|0:0,0:0:0:0:
305,39,33897,1,2,0:0:0:0:
305,39,33968,1,0,0:0:0:0:
305,39,34040,2,0,L|332:147,1,110.000003356934,8|0,0:0|0:0,0:0:0:0:
89,112,34325,6,0,P|90:70|111:105,1,110.000003356934,2|0,0:0|0:0,0:0:0:0:
79,178,34540,2,0,P|30:153|5:105,1,110.000003356934,0|0,0:0|0:0,0:0:0:0:
178,59,34754,2,0,P|181:113|152:159,1,110.000003356934,2|0,0:0|0:0,0:0:0:0:
24,34,34968,2,0,P|69:4|123:6,1,110.000003356934,0|0,0:0|0:0,0:0:0:0:
129,226,35183,2,0,L|143:279,3,55.0000016784668,8|0|2|0,0:0|0:0|0:0|0:0,0:0:0:0:
110,353,35468,6,0,P|163:356|208:326,1,110.000003356934,2|0,0:0|0:0,0:0:0:0:
318,232,35683,1,0,0:0:0:0:
314,218,35754,2,0,P|260:214|215:244,1,110.000003356934,8|0,0:0|0:0,0:0:0:0:
110,353,35968,1,0,0:0:0:0:
114,367,36040,2,0,P|167:370|212:340,1,110.000003356934,0|2,0:0|0:0,0:0:0:0:
314,218,36254,1,0,0:0:0:0:
310,204,36325,2,0,P|256:200|211:230,1,110.000003356934,8|2,0:0|0:0,0:0:0:0:
370,349,36540,5,0,0:0:0:0:
384,352,36611,2,0,L|410:245,1,110.000003356934,0|2,0:0|0:0,0:0:0:0:
447,104,36825,1,0,0:0:0:0:
461,101,36897,2,0,L|487:207,1,110.000003356934,8|0,0:0|0:0,0:0:0:0:
384,352,37111,1,0,0:0:0:0:
398,355,37183,2,0,L|424:248,1,110.000003356934,2|2,0:0|0:0,0:0:0:0:
461,101,37397,1,0,0:0:0:0:
475,98,37468,2,0,L|501:204,1,110.000003356934,8|0,0:0|0:0,0:0:0:0:
329,50,37754,6,0,B|287:26|287:26|175:57,1,165.000005035401,2|0,0:0|0:0,0:0:0:0:
152,65,38040,1,8,0:0:0:0:
0,25,38183,2,0,P|51:86|37:165,1,165.000005035401,2|0,0:0|0:0,0:0:0:0:
20,185,38468,1,2,0:0:0:0:
23,189,38540,1,0,0:0:0:0:
26,193,38611,1,8,0:0:0:0:
152,65,38754,1,0,0:0:0:0:
73,319,38897,5,2,0:0:0:0:
205,199,39040,1,2,0:0:0:0:
25,384,39183,6,0,P|-5:339|0:285,1,110.000003356934,8|2,0:0|0:0,0:0:0:0:
205,199,39468,5,10,0:0:0:0:
73,319,39611,1,2,0:0:0:0:
76,323,39683,1,2,0:0:0:0:
79,327,39754,1,8,0:0:0:0:
152,65,39897,1,2,0:0:0:0:
152,348,40040,5,6,0:0:0:0:
174,367,40111,1,0,0:0:0:0:
201,379,40182,1,0,0:0:0:0:
230,384,40254,1,0,0:0:0:0:
260,379,40325,1,8,0:0:0:0:
287,367,40397,1,0,0:0:0:0:
309,347,40468,1,0,0:0:0:0:
331,327,40540,1,0,0:0:0:0:
358,315,40612,1,0,0:0:0:0:
388,310,40683,1,0,0:0:0:0:
417,315,40755,1,2,0:0:0:0:
444,327,40826,1,0,0:0:0:0:
465,345,40897,2,0,P|446:283|465:223,1,129.999994049073,8|0,0:0|0:0,0:0:0:0:
512,152,41111,1,0,0:0:0:0:
512,152,41183,5,2,0:0:0:0:
274,214,41325,1,0,0:0:0:0:
377,63,41468,5,8,0:0:0:0:
139,124,41611,1,2,0:0:0:0:
465,345,41754,5,0,0:0:0:0:
391,44,41897,1,2,0:0:0:0:
213,284,42040,2,0,P|274:305|334:284,1,129.999994049073,8|0,0:0|0:0,0:0:0:0:
81,28,42325,5,2,0:0:0:0:
53,39,42397,1,0,0:0:0:0:
35,62,42468,1,0,0:0:0:0:
30,91,42540,1,0,0:0:0:0:
38,118,42611,1,8,0:0:0:0:
59,141,42683,1,0,0:0:0:0:
87,148,42754,1,0,0:0:0:0:
116,142,42825,1,0,0:0:0:0:
139,124,42897,1,0,0:0:0:0:
151,98,42968,1,0,0:0:0:0:
149,68,43040,1,2,0:0:0:0:
134,43,43111,1,0,0:0:0:0:
108,29,43183,2,0,L|57:217,1,194.999991073609,8|0,0:0|0:0,0:0:0:0:
3,281,43468,6,0,L|66:297,1,64.9999970245363,2|0,0:0|0:0,0:0:0:0:
194,265,43611,2,0,L|131:249,1,64.9999970245363,0|0,0:0|0:0,0:0:0:0:
10,292,43754,2,0,L|73:308,1,64.9999970245363,8|0,0:0|0:0,0:0:0:0:
201,276,43897,2,0,L|138:260,1,64.9999970245363,2|0,0:0|0:0,0:0:0:0:
332,277,44040,6,0,L|314:340,1,64.9999970245363,0|0,0:0|0:0,0:0:0:0:
445,372,44183,2,0,L|462:308,1,64.9999970245363,2|0,0:0|0:0,0:0:0:0:
323,275,44325,2,0,L|305:338,1,64.9999970245363,8|0,0:0|0:0,0:0:0:0:
437,371,44468,2,0,L|454:307,1,64.9999970245363,2|0,0:0|0:0,0:0:0:0:
447,72,44611,5,2,0:0:0:0:
407,55,44683,1,0,0:0:0:0:
364,55,44754,1,0,0:0:0:0:
324,71,44825,1,0,0:0:0:0:
284,87,44897,1,8,0:0:0:0:
240,87,44968,1,0,0:0:0:0:
201,70,45040,1,0,0:0:0:0:
383,142,45183,1,0,0:0:0:0:
265,0,45325,1,2,0:0:0:0:
503,13,45468,2,0,P|527:71|503:130,1,129.999994049073,8|2,0:0|0:0,0:0:0:0:
307,336,45754,5,0,0:0:0:0:
267,316,45825,1,0,0:0:0:0:
257,273,45897,1,2,0:0:0:0:
284,239,45968,1,0,0:0:0:0:
328,240,46039,1,8,0:0:0:0:
356,274,46111,1,0,0:0:0:0:
346,317,46182,1,0,0:0:0:0:
161,266,46325,1,2,0:0:0:0:
383,142,46468,1,2,0:0:0:0:
91,207,46611,2,0,P|68:266|90:326,1,129.999994049073,8|0,0:0|0:0,0:0:0:0:
151,62,46897,5,2,0:0:0:0:
135,66,46968,1,0,0:0:0:0:
119,70,47039,1,0,0:0:0:0:
103,74,47111,1,0,0:0:0:0:
88,78,47182,1,8,0:0:0:0:
72,83,47254,1,0,0:0:0:0:
56,87,47325,1,2,0:0:0:0:
41,91,47397,1,0,0:0:0:0:
25,95,47468,5,0,0:0:0:0:
73,114,47539,1,0,0:0:0:0:
124,121,47610,1,2,0:0:0:0:
176,115,47682,1,0,0:0:0:0:
224,96,47753,1,8,0:0:0:0:
272,77,47825,1,0,0:0:0:0:
324,71,47897,1,0,0:0:0:0:
375,78,47968,1,0,0:0:0:0:
423,96,48039,5,6,1:2:0:0:
66,252,48183,1,6,1:2:0:0:
493,317,48469,5,6,1:2:0:0:
0,0,48754,1,6,1:2:0:0:
25,95,48897,2,0,L|46:173,3,64.9999970245363,2|2|10|2,0:0|0:0|0:0|0:0,0:0:0:0:
66,252,49183,6,0,B|97:197|97:197|225:163,1,194.999991073609,6|0,0:2|0:0,0:0:0:0:
253,157,49468,1,8,0:0:0:0:
178,384,49611,2,0,L|144:258,1,129.999994049073,0|0,0:0|0:0,0:0:0:0:
168,102,49897,1,2,0:0:0:0:
168,102,49968,1,0,0:0:0:0:
168,102,50040,2,0,L|105:118,1,64.9999970245363,8|0,0:0|0:0,0:0:0:0:
216,239,50183,2,0,L|278:222,1,64.9999970245363,0|0,0:0|0:0,0:0:0:0:
419,34,50325,5,2,0:0:0:0:
493,317,50468,1,0,0:0:0:0:
309,0,50611,5,8,0:0:0:0:
383,283,50754,1,2,0:0:0:0:
438,37,50897,5,0,0:0:0:0:
512,320,51040,1,2,0:0:0:0:
328,3,51183,5,8,0:0:0:0:
402,286,51326,1,0,0:0:0:0:
20,374,51468,5,2,0:0:0:0:
7,362,51540,1,0,0:0:0:0:
1,346,51611,1,0,0:0:0:0:
2,329,51683,1,0,0:0:0:0:
11,316,51754,1,8,0:0:0:0:
26,307,51825,1,0,0:0:0:0:
43,307,51897,1,0,0:0:0:0:
58,314,51968,1,0,0:0:0:0:
68,327,52040,1,0,0:0:0:0:
70,344,52111,1,0,0:0:0:0:
65,360,52183,1,2,0:0:0:0:
53,372,52254,1,0,0:0:0:0:
36,375,52325,5,8,0:0:0:0:
84,356,52396,1,0,0:0:0:0:
135,349,52467,1,0,0:0:0:0:
187,355,52539,1,0,0:0:0:0:
235,373,52611,6,0,L|251:310,1,64.9999970245363,2|0,0:0|0:0,0:0:0:0:
405,69,52754,2,0,L|389:132,1,64.9999970245363,0|0,0:0|0:0,0:0:0:0:
136,220,52897,2,0,P|165:233|197:235,1,64.9999970245363,8|0,0:0|0:0,0:0:0:0:
504,222,53040,2,0,P|474:208|442:206,1,64.9999970245363,2|0,0:0|0:0,0:0:0:0:
243,384,53183,6,0,L|259:321,1,64.9999970245363,0|0,0:0|0:0,0:0:0:0:
413,80,53326,2,0,L|397:143,1,64.9999970245363,2|0,0:0|0:0,0:0:0:0:
144,231,53469,2,0,P|173:244|205:246,1,64.9999970245363,8|0,0:0|0:0,0:0:0:0:
511,233,53612,2,0,P|482:219|450:217,1,64.9999970245363,2|0,0:0|0:0,0:0:0:0:
69,285,53754,5,6,0:0:0:0:
59,267,53825,1,0,0:0:0:0:
53,247,53897,1,0,0:0:0:0:
51,227,53968,1,0,0:0:0:0:
54,207,54040,1,8,0:0:0:0:
62,188,54111,1,0,0:0:0:0:
73,172,54183,1,0,0:0:0:0:
88,158,54254,1,0,0:0:0:0:
106,148,54325,1,0,0:0:0:0:
124,138,54397,1,0,0:0:0:0:
139,124,54468,1,0,0:0:0:0:
150,108,54540,1,0,0:0:0:0:
158,89,54611,1,8,0:0:0:0:
161,69,54683,1,0,0:0:0:0:
159,49,54754,1,0,0:0:0:0:
153,29,54825,1,0,0:0:0:0:
144,12,54897,6,0,L|206:28,1,64.9999970245363,6|0,0:0|0:0,0:0:0:0:
232,10,55040,2,0,L|294:26,1,64.9999970245363,2|0,0:0|0:0,0:0:0:0:
512,109,55183,6,0,L|449:125,1,64.9999970245363,10|0,0:0|0:0,0:0:0:0:
424,107,55326,2,0,L|361:123,1,64.9999970245363,2|0,0:0|0:0,0:0:0:0:
220,231,55468,5,2,0:0:0:0:
234,260,55539,1,0,0:0:0:0:
254,285,55610,1,2,0:0:0:0:
280,304,55682,1,0,0:0:0:0:
310,316,55753,1,10,0:0:0:0:
342,321,55825,1,0,0:0:0:0:
375,318,55896,1,0,0:0:0:0:
405,308,55968,1,0,0:0:0:0:
432,289,56040,5,6,0:0:0:0:
376,255,56111,1,0,0:0:0:0:
311,254,56182,1,2,0:0:0:0:
254,285,56254,1,0,0:0:0:0:
218,337,56325,1,10,0:0:0:0:
163,370,56396,1,0,0:0:0:0:
99,368,56467,1,2,0:0:0:0:
46,332,56539,1,0,0:0:0:0:
20,273,56610,1,6,0:0:0:0:
31,210,56682,1,0,0:0:0:0:
74,162,56753,1,2,0:0:0:0:
136,146,56825,1,0,0:0:0:0:
197,165,56896,2,0,P|221:185|237:213,1,64.9999970245363,10|0,0:0|0:0,0:0:0:0:
118,285,57040,2,0,P|134:257|159:237,1,64.9999970245363,0|0,0:0|0:0,0:0:0:0:
452,145,57183,5,6,0:0:0:0:
493,95,57255,1,0,0:0:0:0:
482,31,57326,1,2,0:0:0:0:
424,0,57398,1,0,0:0:0:0:
364,26,57469,1,8,0:0:0:0:
348,89,57541,1,0,0:0:0:0:
386,141,57611,1,2,0:0:0:0:
449,155,57682,1,0,0:0:0:0:
491,203,57753,1,6,0:0:0:0:
498,267,57825,1,0,0:0:0:0:
467,323,57896,1,0,0:0:0:0:
410,351,57968,1,0,0:0:0:0:
346,340,58040,2,0,P|322:320|306:292,1,64.9999970245363,2|2,0:0|0:0,0:0:0:0:
395,251,58183,2,0,P|379:222|354:201,1,64.9999970245363,2|2,0:0|0:0,0:0:0:0:
253,71,58325,6,0,L|252:103,7,32.4999985122681,0|0|0|0|0|0|0|0,3:0|3:0|3:0|3:0|3:0|3:0|3:0|0:0,0:0:0:0:
253,126,58611,6,0,B|132:126|132:126|96:163,1,172.500003290176,12|0,0:0|0:0,0:0:0:0:
81,184,58897,1,2,0:0:0:0:
0,61,59040,2,0,L|0:179,1,115.000002193451,2|8,0:0|0:0,0:0:0:0:
15,201,59254,2,0,L|15:328,1,115.000002193451,0|0,0:0|0:0,0:0:0:0:
40,332,59468,5,2,0:0:0:0:
144,280,59611,1,0,0:0:0:0:
248,332,59754,2,0,P|301:349|355:331,1,115.000002193451,8|0,0:0|0:0,0:0:0:0:
301,148,60040,2,0,L|301:263,1,115.000002193451,2|2,3:2|3:2,0:0:0:0:
506,310,60325,5,10,0:0:0:0:
497,301,60397,1,2,0:0:0:0:
489,293,60468,1,2,0:0:0:0:
480,284,60540,1,2,0:0:0:0:
472,276,60611,6,0,B|472:188|472:188|508:152|508:152|508:56,1,230.000004386902,2|8,0:0|0:0,0:0:0:0:
333,25,61040,1,0,0:0:0:0:
301,148,61183,1,2,0:0:0:0:
423,115,61325,1,2,0:0:0:0:
210,57,61468,2,0,P|133:22|56:57,1,172.500003290176,8|0,0:0|0:0,0:0:0:0:
0,97,61754,6,0,P|29:48|28:-8,1,115.000002193451,2|0,0:0|0:0,0:0:0:0:
104,226,62040,2,0,P|104:170|134:121,1,115.000002193451,8|0,0:0|3:2,0:0:0:0:
210,57,62254,1,0,3:2:0:0:
213,61,62325,1,2,3:2:0:0:
216,65,62397,1,0,3:2:0:0:
219,69,62468,1,2,3:2:0:0:
301,148,62611,2,0,L|315:92,1,57.5000010967255,8|0,0:0|0:0,0:0:0:0:
417,33,62754,2,0,L|400:98,1,57.5000010967255,2|2,0:0|0:0,0:0:0:0:
359,256,62897,6,0,B|242:224|242:224|197:251,1,172.500003290176,2|0,0:0|0:0,0:0:0:0:
177,267,63183,1,8,0:0:0:0:
301,148,63325,1,0,0:0:0:0:
411,325,63468,2,0,P|442:278|438:222,1,115.000002193451,2|2,0:0|0:0,0:0:0:0:
359,256,63683,1,0,0:0:0:0:
359,256,63754,2,0,P|327:303|331:359,1,115.000002193451,8|0,0:0|0:0,0:0:0:0:
211,384,64040,6,0,P|146:331|63:344,1,172.500003290176,2|0,0:0|0:0,0:0:0:0:
39,361,64325,2,0,P|70:314|66:258,1,115.000002193451,8|0,3:2|3:2,0:0:0:0:
0,101,64611,1,2,3:2:0:0:
0,101,64683,1,0,3:2:0:0:
0,101,64754,1,2,3:2:0:0:
103,151,64897,1,8,0:0:0:0:
198,87,65040,2,0,L|208:50,2,38.3333340644837,0|0|0,0:0|0:0|0:0,0:0:0:0:
223,18,65183,6,0,L|268:184,1,172.500003290176,2|0,0:0|0:0,0:0:0:0:
278,213,65468,2,0,L|308:102,1,115.000002193451,8|0,0:0|0:0,0:0:0:0:
342,0,65754,1,2,0:0:0:0:
379,180,65897,1,2,0:0:0:0:
413,79,66040,1,8,0:0:0:0:
450,259,66183,1,0,0:0:0:0:
458,264,66325,5,2,0:0:0:0:
387,185,66468,1,2,0:0:0:0:
421,84,66611,1,8,0:0:0:0:
421,365,66754,1,2,3:2:0:0:
421,365,66825,1,0,3:2:0:0:
421,365,66897,1,2,3:2:0:0:
421,365,66968,1,0,3:2:0:0:
421,364,67040,6,0,P|366:349|311:364,1,115.000002193451,2|8,3:2|3:2,0:0:0:0:
217,376,67254,2,0,P|162:390|107:375,1,115.000002193451,2|0,3:2|3:2,0:0:0:0:
163,292,67468,6,0,B|199:256|199:256|199:135,1,172.500003290176,6|0,0:0|0:0,0:0:0:0:
168,21,67754,2,0,L|168:136,1,115.000002193451,8|0,0:0|0:0,0:0:0:0:
267,78,68040,5,2,0:0:0:0:
69,78,68183,1,2,0:0:0:0:
279,78,68325,5,8,0:0:0:0:
279,276,68468,1,0,0:0:0:0:
377,177,68611,6,0,P|438:140|436:211,1,172.500003290176,2|0,0:0|0:0,0:0:0:0:
499,253,68897,2,0,P|532:175|500:98,1,172.500003290176,8|0,3:2|3:2,0:0:0:0:
431,51,69183,1,2,3:2:0:0:
431,286,69325,6,0,B|349:286|349:286|325:310,1,115.000002193451,2|8,0:0|0:0,0:0:0:0:
244,360,69540,2,0,B|220:384|220:384|138:384,1,115.000002193451,0|0,0:0|0:0,0:0:0:0:
0,384,69754,6,0,B|68:384|68:384|96:356|96:356|160:356,1,172.500003290176,2|0,0:0|0:0,0:0:0:0:
38,311,70040,2,0,B|0:311|0:311|0:175,1,172.500003290176,8|0,0:0|0:0,0:0:0:0:
0,94,70325,1,2,0:0:0:0:
198,206,70468,5,2,0:0:0:0:
198,93,70611,1,8,0:0:0:0:
99,150,70754,1,0,0:0:0:0:
297,149,70897,6,0,B|418:149|418:149|454:185,1,172.500003290176,2|0,0:0|0:0,0:0:0:0:
484,265,71183,2,0,L|484:81,1,172.500003290176,8|0,3:2|3:2,0:0:0:0:
484,10,71468,1,2,3:2:0:0:
385,69,71611,6,0,B|303:69|303:69|279:45,1,115.000002193451,2|8,0:0|0:0,0:0:0:0:
174,22,71825,2,0,B|256:22|256:22|280:46,1,115.000002193451,0|0,0:0|0:0,0:0:0:0:
297,149,72040,6,0,B|297:217|297:217|325:245|325:245|325:309,1,172.500003290176,2|0,0:0|0:0,0:0:0:0:
395,347,72325,2,0,P|324:388|253:346,1,172.500003290176,8|0,0:0|0:0,0:0:0:0:
218,270,72611,1,2,0:0:0:0:
0,384,72754,1,2,0:0:0:0:
0,384,72825,1,0,0:0:0:0:
0,384,72897,2,0,P|15:329|0:274,1,115.000002193451,8|0,0:0|0:0,0:0:0:0:
5,40,73183,6,0,P|-29:116|5:192,1,172.500003290176,2|0,0:0|0:0,0:0:0:0:
140,192,73468,2,0,P|175:116|141:40,1,172.500003290176,8|0,0:0|0:0,0:0:0:0:
73,115,73754,5,2,0:0:0:0:
252,345,73897,1,2,0:0:0:0:
252,345,73968,1,0,0:0:0:0:
252,345,74040,1,8,0:0:0:0:
362,77,74183,1,0,0:0:0:0:
330,271,74325,6,0,P|407:238|484:269,1,172.500003290176,2|0,0:0|0:0,0:0:0:0:
407,343,74611,2,0,P|330:376|253:345,1,172.500003290176,8|0,0:0|0:0,0:0:0:0:
227,243,74897,5,2,0:0:0:0:
112,384,75040,1,2,0:0:0:0:
213,131,75183,5,8,0:0:0:0:
330,271,75325,1,0,0:0:0:0:
49,75,75468,5,2,0:0:0:0:
313,160,75611,1,2,0:0:0:0:
98,279,75754,5,8,0:0:0:0:
183,15,75897,1,2,0:0:0:0:
494,55,76040,5,2,0:0:0:0:
493,100,76111,1,0,0:0:0:0:
463,136,76183,1,2,0:0:0:0:
418,144,76254,1,0,0:0:0:0:
378,122,76326,1,8,0:0:0:0:
362,77,76397,1,2,0:0:0:0:
377,35,76468,1,0,0:0:0:0:
418,13,76540,1,0,0:0:0:0:
463,19,76611,1,6,0:0:0:0:
5,185,85754,6,0,P|61:138|133:150,1,150.000005722046,2|2,1:2|1:2,0:0:0:0:
84,221,86183,1,0,0:0:0:0:
84,221,86325,2,0,P|156:232|212:186,1,150.000005722046,2|2,1:2|1:2,0:0:0:0:
279,0,86897,6,0,L|317:144,1,150.000005722046,2|2,1:2|1:2,0:0:0:0:
373,203,87325,1,0,0:0:0:0:
373,203,87468,6,0,L|334:58,1,150.000005722046,2|2,1:2|1:2,0:0:0:0:
464,216,88040,6,0,B|359:243|359:243|338:280,1,150.000005722046,2|2,1:2|1:2,0:0:0:0:
360,364,88468,1,0,0:0:0:0:
360,364,88611,2,0,B|464:336|464:336|485:299,1,150.000005722046,2|2,1:2|1:2,0:0:0:0:
256,267,89183,6,0,L|275:339,1,75.0000028610231,2|0,1:2|0:0,0:0:0:0:
172,236,89468,2,0,L|191:308,1,59.9999981689454,2|0,1:2|0:0,0:0:0:0:
88,205,89754,2,0,L|101:255,1,44.999998626709,2|0,1:2|0:0,0:0:0:0:
4,174,90040,2,0,L|12:204,1,29.9999990844727,2|0,1:2|0:0,0:0:0:0:
73,117,90325,6,0,P|133:75|206:81,1,150.000005722046,2|2,1:2|1:2,0:0:0:0:
284,119,90754,1,0,0:0:0:0:
284,119,90897,2,0,P|357:125|417:83,1,150.000005722046,2|2,1:2|1:2,0:0:0:0:
512,384,91468,6,0,L|473:239,3,150.000005722046,2|2|2|2,1:2|1:2|1:2|1:2,0:0:0:0:
367,345,92611,5,2,1:2:0:0:
362,350,92897,1,2,1:2:0:0:
357,355,93183,1,2,1:2:0:0:
352,360,93468,1,2,1:2:0:0:
256,324,93754,1,2,1:2:0:0:
160,360,94040,1,2,1:2:0:0:
256,192,94325,5,2,1:2:0:0:
256,324,94468,1,2,1:2:0:0:
141,126,94611,1,2,1:2:0:0:
370,125,94754,1,2,1:2:0:0:
110,59,95754,6,0,P|27:137|140:125,1,300,2|0,0:2|0:0,0:0:0:0:
182,64,96040,5,6,0:0:0:0:
220,47,96111,1,0,0:0:0:0:
261,41,96183,1,0,0:0:0:0:
303,46,96254,1,0,0:0:0:0:
341,63,96325,1,8,0:0:0:0:
368,95,96397,1,0,0:0:0:0:
403,116,96468,1,0,0:0:0:0:
443,111,96540,1,0,0:0:0:0:
472,81,96611,1,0,0:0:0:0:
475,40,96683,1,0,0:0:0:0:
452,6,96754,1,2,0:0:0:0:
412,0,96825,1,0,0:0:0:0:
375,11,96897,2,0,P|334:109|400:194,1,225.000008583069,8|0,0:0|0:0,0:0:0:0:
491,222,97183,5,2,0:0:0:0:
254,285,97325,1,0,0:0:0:0:
469,321,97468,5,8,0:0:0:0:
232,384,97611,1,2,0:0:0:0:
265,117,97754,5,0,0:0:0:0:
329,354,97896,1,2,0:0:0:0:
91,290,98040,2,0,L|-34:255,1,119.999996337891,8|0,0:0|0:0,0:0:0:0:
201,58,98325,5,2,0:0:0:0:
236,34,98397,1,0,0:0:0:0:
277,30,98468,1,0,0:0:0:0:
316,46,98540,1,0,0:0:0:0:
344,78,98611,1,8,0:0:0:0:
352,119,98683,1,0,0:0:0:0:
342,159,98754,1,0,0:0:0:0:
314,190,98825,1,0,0:0:0:0:
274,204,98897,1,0,0:0:0:0:
232,198,98968,1,0,0:0:0:0:
198,173,99040,1,2,0:0:0:0:
179,136,99111,1,0,0:0:0:0:
180,94,99183,2,0,L|121:311,1,225.000008583069,8|0,0:0|0:0,0:0:0:0:
72,376,99468,6,0,L|87:318,1,59.9999981689454,2|0,0:0|0:0,0:0:0:0:
58,384,99611,2,0,L|73:326,1,59.9999981689454,0|0,0:0|0:0,0:0:0:0:
220,264,99754,2,0,L|204:321,1,59.9999981689454,8|0,0:0|0:0,0:0:0:0:
234,256,99897,2,0,L|218:313,1,59.9999981689454,2|0,0:0|0:0,0:0:0:0:
336,376,100040,2,0,L|351:318,1,59.9999981689454,0|0,0:0|0:0,0:0:0:0:
322,384,100183,2,0,L|337:326,1,59.9999981689454,2|0,0:0|0:0,0:0:0:0:
484,264,100325,2,0,L|468:321,1,59.9999981689454,8|0,0:0|0:0,0:0:0:0:
498,256,100468,2,0,L|482:313,1,59.9999981689454,2|0,0:0|0:0,0:0:0:0:
379,108,100611,6,0,L|494:139,1,119.999996337891,2|0,0:0|0:0,0:0:0:0:
234,256,100897,1,8,0:0:0:0:
330,38,101040,2,0,P|295:85|301:143,1,119.999996337891,0|0,0:0|0:0,0:0:0:0:
494,139,101325,1,2,0:0:0:0:
201,59,101468,1,8,0:0:0:0:
279,353,101611,1,2,0:0:0:0:
279,353,101683,1,0,0:0:0:0:
279,353,101754,6,0,P|313:305|307:247,1,119.999996337891,0|2,0:0|0:0,0:0:0:0:
190,41,102040,1,8,0:0:0:0:
115,252,102183,2,0,L|230:283,1,119.999996337891,0|2,0:0|0:0,0:0:0:0:
179,23,102468,1,2,0:0:0:0:
3,61,102611,2,0,L|18:119,1,59.9999981689454,8|0,0:0|0:0,0:0:0:0:
115,252,102754,2,0,L|99:194,1,59.9999981689454,0|0,0:0|0:0,0:0:0:0:
168,5,102897,5,2,0:0:0:0:
179,23,102968,1,0,0:0:0:0:
190,41,103040,1,0,0:0:0:0:
201,59,103111,1,0,0:0:0:0:
245,62,103183,5,8,0:0:0:0:
256,80,103254,1,0,0:0:0:0:
267,98,103325,1,2,0:0:0:0:
278,116,103397,1,0,0:0:0:0:
322,119,103468,5,0,0:0:0:0:
333,137,103540,1,0,0:0:0:0:
344,155,103611,1,2,0:0:0:0:
355,173,103683,1,0,0:0:0:0:
366,191,103754,2,0,L|381:133,1,59.9999981689454,8|0,0:0|0:0,0:0:0:0:
512,0,103897,2,0,L|496:57,1,59.9999981689454,0|0,0:0|0:0,0:0:0:0:
434,295,104040,5,2,0:0:0:0:
398,319,104111,1,0,0:0:0:0:
356,327,104183,1,2,0:0:0:0:
315,320,104254,1,0,0:0:0:0:
279,297,104325,1,8,0:0:0:0:
243,274,104397,1,0,0:0:0:0:
202,267,104468,1,2,0:0:0:0:
160,275,104540,1,0,0:0:0:0:
124,298,104611,6,0,L|139:240,1,59.9999981689454,10|0,0:0|0:0,0:0:0:0:
18,119,104754,2,0,L|33:176,1,59.9999981689454,2|2,0:0|0:0,0:0:0:0:
113,291,104897,2,0,L|128:233,1,59.9999981689454,8|0,0:0|0:0,0:0:0:0:
7,112,105040,2,0,L|22:169,1,59.9999981689454,2|0,0:0|0:0,0:0:0:0:
202,367,105183,5,6,0:0:0:0:
253,384,105254,1,0,0:0:0:0:
307,372,105325,1,0,0:0:0:0:
346,332,105397,1,0,0:0:0:0:
354,275,105468,1,8,0:0:0:0:
330,224,105540,1,0,0:0:0:0:
282,197,105611,1,0,0:0:0:0:
234,167,105683,1,0,0:0:0:0:
210,116,105754,1,0,0:0:0:0:
218,60,105825,1,0,0:0:0:0:
258,20,105897,1,2,0:0:0:0:
312,8,105968,1,0,0:0:0:0:
364,27,106040,2,0,P|390:56|401:98,3,75.0000028610231,8|0|0|0,0:0|0:0|0:0|0:0,0:0:0:0:
306,104,106325,5,2,0:0:0:0:
260,290,106468,1,0,0:0:0:0:
512,0,106611,1,8,0:0:0:0:
466,186,106754,1,2,0:0:0:0:
290,111,106897,5,0,0:0:0:0:
244,297,107040,1,2,0:0:0:0:
496,7,107183,1,8,0:0:0:0:
450,193,107325,2,0,L|432:264,1,59.9999981689454,0|0,0:0|0:0,0:0:0:0:
130,29,107468,5,12,1:2:0:0:
114,17,107754,5,12,1:2:0:0:
324,218,107897,1,12,1:2:0:0:
340,230,108183,5,12,1:2:0:0:
0,384,108468,6,0,B|21:302|21:302|-6:253|-6:253|15:172,1,225.000008583069,6|0,1:2|0:0,0:0:0:0:
104,152,108754,6,0,L|88:209,1,59.9999981689454,0|0,0:0|0:0,0:0:0:0:
182,73,108897,2,0,L|240:57,1,59.9999981689454,8|0,0:0|0:0,0:0:0:0:
75,44,109040,2,0,L|33:1,1,59.9999981689454,2|0,0:0|0:0,0:0:0:0:
120,154,109183,6,0,L|119:213,1,59.9999981689454,0|0,0:0|0:0,0:0:0:0:
175,57,109326,2,0,L|227:27,1,59.9999981689454,2|0,0:0|0:0,0:0:0:0:
64,57,109469,2,0,L|13:26,1,59.9999981689454,8|0,0:0|0:0,0:0:0:0:
231,154,109611,5,0,0:0:0:0:
231,154,109683,1,0,0:0:0:0:
231,154,109754,5,2,0:0:0:0:
263,142,109825,1,0,0:0:0:0:
296,137,109897,1,0,0:0:0:0:
330,141,109968,1,0,0:0:0:0:
361,153,110040,1,8,0:0:0:0:
392,165,110111,1,0,0:0:0:0:
426,169,110182,1,0,0:0:0:0:
459,164,110254,1,0,0:0:0:0:
491,153,110325,2,0,L|475:210,3,59.9999981689454,0|0|2|0,0:0|0:0|0:0|0:0,0:0:0:0:
512,304,110611,2,0,L|496:361,3,59.9999981689454,8|0|2|0,0:0|0:0|0:0|0:0,0:0:0:0:
413,289,110897,5,0,0:0:0:0:
382,280,110968,1,0,0:0:0:0:
351,272,111040,1,2,0:0:0:0:
320,264,111111,1,0,0:0:0:0:
256,272,111183,5,8,0:0:0:0:
287,281,111254,1,0,0:0:0:0:
318,289,111326,1,0,0:0:0:0:
349,297,111397,1,0,0:0:0:0:
285,305,111469,5,2,0:0:0:0:
254,297,111540,1,0,0:0:0:0:
223,289,111612,1,2,0:0:0:0:
192,280,111683,1,0,0:0:0:0:
128,288,111754,5,8,0:0:0:0:
159,297,111825,1,0,0:0:0:0:
190,305,111897,1,0,0:0:0:0:
221,313,111968,1,0,0:0:0:0:
157,321,112040,6,0,B|36:287|36:287|51:233,1,179.999994506836,2|0,0:0|0:0,0:0:0:0:
54,111,112325,2,0,L|23:227,1,119.999996337891,8|2,0:0|0:0,0:0:0:0:
215,151,112611,6,0,B|233:81|233:81|216:52|216:52|235:-19,1,179.999994506836,0|0,0:0|0:0,0:0:0:0:
155,92,112897,2,0,L|123:207,1,119.999996337891,8|0,0:0|0:0,0:0:0:0:
392,120,113183,5,2,0:0:0:0:
324,0,113325,1,2,0:0:0:0:
355,251,113468,1,8,0:0:0:0:
511,53,113611,1,2,0:0:0:0:
392,120,113754,6,0,L|376:177,1,59.9999981689454,10|0,0:0|0:0,0:0:0:0:
429,296,113897,2,0,L|445:238,1,59.9999981689454,2|2,0:0|0:0,0:0:0:0:
385,110,114040,2,0,L|369:167,1,59.9999981689454,8|0,0:0|0:0,0:0:0:0:
422,286,114183,2,0,L|438:228,1,59.9999981689454,0|0,0:0|0:0,0:0:0:0:
234,78,114325,5,6,0:0:0:0:
204,49,114397,1,0,0:0:0:0:
163,47,114468,1,0,0:0:0:0:
130,72,114540,1,0,0:0:0:0:
122,113,114611,1,8,0:0:0:0:
143,148,114683,1,0,0:0:0:0:
181,162,114754,1,0,0:0:0:0:
219,176,114825,1,0,0:0:0:0:
240,211,114897,1,0,0:0:0:0:
232,252,114968,1,0,0:0:0:0:
199,277,115040,1,2,0:0:0:0:
158,275,115111,1,0,0:0:0:0:
129,247,115183,2,0,B|175:219|175:219|340:264,1,225.000008583069,8|0,0:0|0:0,0:0:0:0:
422,286,115468,5,2,0:0:0:0:
486,44,115611,1,0,0:0:0:0:
362,346,115754,5,8,0:0:0:0:
426,104,115897,1,2,0:0:0:0:
443,367,116040,5,0,0:0:0:0:
404,22,116183,1,2,0:0:0:0:
129,247,116325,2,0,L|28:330,1,119.999996337891,8|0,0:0|0:0,0:0:0:0:
0,83,116611,5,2,0:0:0:0:
31,54,116682,1,0,0:0:0:0:
68,37,116753,1,0,0:0:0:0:
110,30,116825,1,0,0:0:0:0:
151,36,116896,1,8,0:0:0:0:
189,54,116968,1,0,0:0:0:0:
220,82,117039,1,0,0:0:0:0:
251,109,117111,1,0,0:0:0:0:
289,127,117183,1,0,0:0:0:0:
330,133,117254,1,0,0:0:0:0:
372,126,117326,1,2,0:0:0:0:
409,109,117397,1,0,0:0:0:0:
441,81,117468,2,0,L|379:306,1,225.000008583069,8|0,0:0|0:0,0:0:0:0:
393,374,117754,6,0,P|363:373|336:359,1,59.9999981689454,2|0,0:0|0:0,0:0:0:0:
248,275,117897,2,0,P|278:276|305:289,1,59.9999981689454,0|0,0:0|0:0,0:0:0:0:
425,366,118040,2,0,P|398:381|369:382,1,59.9999981689454,8|0,0:0|0:0,0:0:0:0:
216,283,118183,2,0,P|243:268|272:267,1,59.9999981689454,2|0,0:0|0:0,0:0:0:0:
449,344,118325,2,0,P|433:370|408:385,1,59.9999981689454,0|0,0:0|0:0,0:0:0:0:
192,305,118468,2,0,P|207:278|232:263,1,59.9999981689454,2|0,0:0|0:0,0:0:0:0:
459,313,118611,2,0,P|458:343|444:369,1,59.9999981689454,8|0,0:0|0:0,0:0:0:0:
182,336,118754,2,0,P|182:305|196:279,1,59.9999981689454,2|0,0:0|0:0,0:0:0:0:
413,182,118897,6,0,L|381:297,1,119.999996337891,2|0,0:0|0:0,0:0:0:0:
220,82,119183,1,8,0:0:0:0:
430,175,119325,2,0,L|398:290,1,119.999996337891,0|0,0:0|0:0,0:0:0:0:
237,75,119611,1,2,0:0:0:0:
236,384,119754,1,8,0:0:0:0:
503,124,119897,1,2,0:0:0:0:
503,124,119968,1,0,0:0:0:0:
503,124,120040,6,0,P|453:92|395:95,1,119.999996337891,0|2,0:0|0:0,0:0:0:0:
133,184,120325,1,8,0:0:0:0:
430,175,120468,2,0,P|371:179|322:145,1,119.999996337891,0|2,0:0|0:0,0:0:0:0:
195,0,120753,1,2,0:0:0:0:
133,184,120897,2,0,L|113:240,1,59.9999981689454,8|0,0:0|0:0,0:0:0:0:
19,100,121040,2,0,L|0:43,1,59.9999981689454,0|0,0:0|0:0,0:0:0:0:
46,303,121183,5,2,0:0:0:0:
76,324,121254,1,0,0:0:0:0:
112,332,121326,1,0,0:0:0:0:
149,325,121397,1,0,0:0:0:0:
180,304,121469,5,8,0:0:0:0:
175,318,121540,1,0,0:0:0:0:
170,332,121611,1,2,0:0:0:0:
165,346,121683,1,0,0:0:0:0:
160,360,121754,5,0,0:0:0:0:
191,339,121825,1,0,0:0:0:0:
228,332,121897,1,2,0:0:0:0:
264,340,121968,1,0,0:0:0:0:
293,360,122040,6,0,P|323:365|353:362,1,59.9999981689454,8|0,0:0|0:0,0:0:0:0:
504,254,122183,2,0,P|474:258|444:255,1,59.9999981689454,0|0,0:0|0:0,0:0:0:0:
244,159,122325,5,2,0:0:0:0:
229,133,122397,1,0,0:0:0:0:
235,104,122468,1,2,0:0:0:0:
258,84,122540,1,0,0:0:0:0:
288,84,122611,1,8,0:0:0:0:
310,104,122683,1,0,0:0:0:0:
316,133,122754,1,2,0:0:0:0:
301,159,122825,1,0,0:0:0:0:
272,168,122897,6,0,P|308:159|344:166,1,75.0000028610231,8|0,0:0|0:0,0:0:0:0:
80,227,123040,2,0,P|45:212|20:185,1,75.0000028610231,2|2,0:0|0:0,0:0:0:0:
269,291,123183,2,0,P|288:322|292:359,1,75.0000028610231,8|0,0:0|0:0,0:0:0:0:
155,129,123325,2,0,P|158:91|176:59,1,75.0000028610231,2|0,0:0|0:0,0:0:0:0:
152,328,123468,6,0,P|108:368|49:375,1,119.999996337891,6|0,0:0|0:0,0:0:0:0:
272,168,123754,1,8,0:0:0:0:
512,384,123897,2,0,L|480:268,1,119.999996337891,0|0,0:0|0:0,0:0:0:0:
410,0,124183,1,2,0:0:0:0:
410,0,124254,1,0,0:0:0:0:
410,0,124325,2,0,L|378:115,1,119.999996337891,8|0,0:0|0:0,0:0:0:0:
64,120,124611,6,0,B|38:81|38:81|-14:75|-14:75|12:121|12:121|58:130,1,200,2|0,0:0|0:0,0:0:0:0:
196,171,124825,2,0,B|239:187|239:187|285:160|285:160|236:139|236:139|194:159,1,200,2|0,0:0|0:0,0:0:0:0:
61,209,125040,2,0,B|16:221|16:221|-5:270|-5:270|46:258|46:258|68:217,1,200,2|0,0:0|0:0,0:0:0:0:
148,102,125254,2,0,B|176:65|176:65|165:13|165:13|130:53|130:53|136:99,1,200,2|0,0:0|0:0,0:0:0:0:
143,239,125468,2,0,B|141:285|141:285|180:321|180:321|185:267|185:267|153:234,1,200,10|0,0:0|0:0,0:0:0:0:
63,0,125754,5,12,1:2:0:0:
0,384,125897,1,12,1:2:0:0:
492,19,126183,1,12,1:2:0:0:
512,3,126468,1,12,1:2:0:0:
512,384,126754,6,0,B|491:302|491:302|518:253|518:253|497:171,1,225.000008583069,6|0,1:2|0:0,0:0:0:0:
422,124,127040,6,0,L|407:67,1,59.9999981689454,2|2,0:0|0:0,0:0:0:0:
369,226,127183,2,0,L|427:242,1,59.9999981689454,10|0,0:0|0:0,0:0:0:0:
307,128,127325,2,0,L|264:170,1,59.9999981689454,2|0,0:0|0:0,0:0:0:0:
429,140,127468,6,0,L|429:80,1,59.9999981689454,2|0,0:0|0:0,0:0:0:0:
351,224,127611,2,0,L|403:254,1,59.9999981689454,0|0,0:0|0:0,0:0:0:0:
317,113,127753,2,0,L|265:143,1,59.9999981689454,8|0,0:0|0:0,0:0:0:0:
0,287,127897,1,0,0:0:0:0:
0,287,127968,1,0,0:0:0:0:
0,287,128040,5,6,3:2:0:0:
29,331,128111,1,0,3:2:0:0:
79,346,128183,1,0,3:2:0:0:
128,323,128254,1,0,3:2:0:0:
148,274,128325,1,8,3:2:0:0:
129,224,128397,1,0,3:2:0:0:
84,199,128468,1,0,3:2:0:0:
39,172,128540,1,0,3:2:0:0:
21,122,128611,1,2,3:2:0:0:
42,73,128683,1,0,3:2:0:0:
90,51,128754,1,0,3:2:0:0:
140,66,128825,1,0,3:2:0:0:
171,110,128897,2,0,P|177:139|172:168,1,59.9999981689454,8|0,3:2|3:2,0:0:0:0:
0,287,129040,2,0,P|-6:257|-1:228,1,59.9999981689454,0|0,3:2|3:2,0:0:0:0:
329,15,129183,5,6,3:2:0:0:
368,61,129254,1,0,3:2:0:0:
376,121,129325,1,0,3:2:0:0:
350,175,129397,1,0,3:2:0:0:
300,207,129468,1,10,3:2:0:0:
274,261,129540,1,0,3:2:0:0:
282,321,129611,1,0,3:2:0:0:
321,367,129683,1,0,3:2:0:0:
379,384,129754,1,2,3:2:0:0:
437,368,129825,1,0,3:2:0:0:
476,322,129897,1,0,3:2:0:0:
485,263,129968,1,0,3:2:0:0:
461,208,130040,2,0,P|439:186|412:176,1,59.9999981689454,10|0,3:2|3:2,0:0:0:0:
270,101,130183,2,0,P|241:108|218:127,1,59.9999981689454,0|0,3:2|3:2,0:0:0:0:
38,348,130325,6,0,L|20:270,2,79.9999975585938,6|2|2,3:2|3:2|3:2,0:0:0:0:
131,259,130611,2,0,L|148:181,2,79.9999975585938,2|2|2,3:2|3:2|3:2,0:0:0:0:
38,170,130897,5,6,3:2:0:0:
38,170,130992,2,0,L|20:92,1,79.9999975585938,2|2,3:2|3:2,0:0:0:0:
131,81,131183,1,2,3:2:0:0:
131,81,131278,2,0,L|148:3,1,79.9999975585938,2|2,3:2|3:2,0:0:0:0:
239,153,131468,5,6,3:2:0:0:
295,196,131563,1,2,3:2:0:0:
365,210,131659,1,2,3:2:0:0:
434,191,131754,1,6,3:2:0:0:
488,144,131849,1,2,3:2:0:0:
512,78,131944,1,2,3:2:0:0:
510,7,132039,5,6,3:2:0:0:
452,51,132135,1,2,3:2:0:0:
445,122,132230,1,2,3:2:0:0:
471,188,132325,1,6,3:2:0:0:
497,254,132421,1,2,3:2:0:0:
490,325,132516,1,2,3:2:0:0:
449,381,132611,1,6,3:2:0:0:
256,192,132683,12,0,134897,0:0:0:0:
