osu file format v14

[General]
AudioFilename: audio.mp3
AudioLeadIn: 0
PreviewTime: 95897
Countdown: 0
SampleSet: Soft
StackLeniency: 0.2
Mode: 0
LetterboxInBreaks: 0
WidescreenStoryboard: 1

[Editor]
DistanceSpacing: 0.9
BeatDivisor: 4
GridSize: 4
TimelineZoom: 2.799999

[Metadata]
Title:WoRLd Tempest
TitleUnicode:WoRLd Tempest
Artist:sak remixed by LeaF
ArtistUnicode:sak remixed by LeaF
Creator:Kroytz
Version:GRAND DIVIDE
Source:K-Shoot MANIA
Tags:Hard Renaissance Artcore Piano Stream Deathstream Anxient Nerova Riuz GX toybot mithew
BeatmapID:2141415
BeatmapSetID:490916

[Difficulty]
HPDrainRate:5
CircleSize:5
OverallDifficulty:10
ApproachRate:10
SliderMultiplier:2.22
SliderTickRate:1

[Events]
//Background and Video events
0,0,"BG.png",0,0
//Break Periods
2,76811,84611
//Storyboard Layer 0 (Background)
//Storyboard Layer 1 (Fail)
//Storyboard Layer 2 (Pass)
//Storyboard Layer 3 (Foreground)
//Storyboard Layer 4 (Overlay)
//Storyboard Sound Samples

[TimingPoints]
1183,285.714285714286,4,2,2,75,1,0
10325,-285.714285714286,4,2,2,40,0,0
14897,-166.666666666667,4,2,2,40,0,0
17183,-500,4,2,2,40,0,0
18254,-500,4,2,20,5,0,0
18325,-500,4,2,2,40,0,0
19468,-1000,4,2,20,5,0,0
20325,-222.222222222222,4,2,1,5,0,0
20397,-222.222222222222,4,2,1,6,0,0
20468,-222.222222222222,4,2,1,7,0,0
20540,-222.222222222222,4,2,1,8,0,0
20611,-222.222222222222,4,2,1,9,0,0
20683,-400,4,2,1,10,0,0
20754,-400,4,2,1,13,0,0
20825,-400,4,2,1,17,0,0
20897,-400,4,2,1,21,0,0
20968,-400,4,2,1,25,0,0
21040,-400,4,2,1,29,0,0
21111,-400,4,2,1,33,0,0
21183,-400,4,2,1,37,0,0
21254,-400,4,2,1,41,0,0
21325,-400,4,2,1,45,0,0
21397,-400,4,2,1,49,0,0
21468,-400,4,2,1,53,0,0
21540,-400,4,2,1,57,0,0
21611,-400,4,2,1,61,0,0
21683,-400,4,2,1,65,0,0
21754,-133.333333333333,4,2,1,70,0,0
24040,-133.333333333333,4,2,1,70,0,0
27468,-125,4,2,1,70,0,0
28611,-111.111111111111,4,2,1,70,0,0
30325,-90.9090909090909,4,2,1,70,0,0
30897,-90.9090909090909,4,2,1,70,0,0
39468,-90.9090909090909,4,2,10,70,0,0
39540,-90.9090909090909,4,2,1,70,0,0
40040,-66.6666666666667,4,2,1,80,0,1
43468,-66.6666666666667,4,2,1,80,0,1
48611,-66.6666666666667,4,2,10,80,0,1
48683,-66.6666666666667,4,2,1,80,0,1
58611,-86.9565217391304,4,2,1,60,0,0
59397,-86.9565217391304,4,2,1,5,0,0
59468,-86.9565217391304,4,2,1,60,0,0
59683,-86.9565217391304,4,2,20,5,0,0
59754,-86.9565217391304,4,2,1,60,0,0
61683,-86.9565217391304,4,2,2,5,0,0
61754,-86.9565217391304,4,2,1,60,0,0
69968,-86.9565217391304,4,2,20,5,0,0
70040,-86.9565217391304,4,2,1,60,0,0
72254,-86.9565217391304,4,2,20,5,0,0
72325,-86.9565217391304,4,2,1,60,0,0
73397,-86.9565217391304,4,2,20,5,0,0
73468,-86.9565217391304,4,2,1,60,0,0
73683,-86.9565217391304,4,2,20,5,0,0
73754,-86.9565217391304,4,2,1,60,0,0
74540,-86.9565217391304,4,2,20,5,0,0
74611,-86.9565217391304,4,2,1,60,0,0
74825,-86.9565217391304,4,2,20,5,0,0
74897,-86.9565217391304,4,2,1,60,0,0
85754,-133.333333333333,4,2,1,60,0,0
89468,-166.666666666667,4,2,1,60,0,0
89754,-222.222222222222,4,2,1,60,0,0
90040,-333.333333333333,4,2,1,60,0,0
90325,-133.333333333333,4,2,1,60,0,0
95611,-133.333333333333,4,2,20,5,0,0
95754,-50,4,2,1,80,0,0
95968,-50,4,2,1,5,0,0
96040,-66.6666666666667,4,2,1,80,0,1
104611,-66.6666666666667,4,2,10,80,0,1
104683,-66.6666666666667,4,2,1,80,0,1
108683,-66.6666666666667,4,2,20,5,0,1
108754,-66.6666666666667,4,2,1,80,0,1
113754,-66.6666666666667,4,2,10,80,0,1
113825,-66.6666666666667,4,2,1,80,0,1
114254,-66.6666666666667,4,2,1,80,0,0
114325,-66.6666666666667,4,2,1,80,0,1
122897,-66.6666666666667,4,2,10,80,0,1
122968,-66.6666666666667,4,2,1,80,0,1
124611,-50,4,2,1,80,0,1
125754,-66.6666666666667,4,2,1,80,0,1
126968,-66.6666666666667,4,2,20,5,0,1
127040,-66.6666666666667,4,2,1,80,0,1
132611,-66.6666666666667,4,2,1,80,0,0
134897,-66.6666666666667,4,2,1,5,0,0

[Colours]
Combo1 : 32,123,52
Combo2 : 183,183,183
Combo3 : 88,199,207
Combo4 : 46,152,160

[HitObjects]
56,111,10325,6,0,B|168:155|168:63|281:109,1,233.099992886353,6|2,0:0|0:0,0:0:0:0:
449,163,11468,1,2,0:0:0:0:
281,218,11754,1,2,0:0:0:0:
385,75,12040,1,2,0:0:0:0:
386,252,12325,1,2,0:0:0:0:
281,109,12611,6,0,P|263:54|281:-1,2,116.549996443176,6|2|2,0:0|0:0|0:0,0:0:0:0:
386,252,13754,1,2,0:0:0:0:
385,75,14039,1,2,0:0:0:0:
281,218,14325,1,2,0:0:0:0:
449,163,14611,1,2,0:0:0:0:
281,109,14897,6,0,L|217:88,2,66.5999979675294,2|0|0,0:0|0:0|0:0,0:0:0:0:
449,163,15325,2,0,L|512:183,2,66.5999979675294,2|0|0,0:0|0:0|0:0,0:0:0:0:
385,75,15754,2,0,L|405:11,1,66.5999979675294,2|0,0:0|0:0,0:0:0:0:
305,326,16040,5,2,0:0:0:0:
299,344,16468,5,2,0:0:0:0:
293,362,16896,5,2,0:0:0:0:
378,329,17183,6,0,P|319:274|240:287,1,166.5,2|0,0:0|0:0,0:0:0:0:
55,384,18325,6,0,P|132:360|154:273,1,177.6,2|0,0:0|0:0,0:0:0:0:
54,31,20325,6,0,L|50:18,38,12.4874996189118,0|0|0|0|0|0|0|0|0|0|0|0|0|0|0|0|0|0|0|0|0|0|0|0|0|0|0|0|0|0|0|0|0|0|0|0|0|0|0,0:0|0:0|0:0|0:0|0:0|0:0|0:0|0:0|0:0|0:0|0:0|0:0|0:0|0:0|0:0|0:0|0:0|0:0|0:0|0:0|0:0|0:0|0:0|0:0|0:0|0:0|0:0|0:0|0:0|0:0|0:0|0:0|0:0|0:0|0:0|0:0|0:0|0:0|0:0,0:0:0:0:
146,0,21754,6,0,L|102:160,1,166.500006351471,10|0,1:2|3:0,0:0:0:0:
43,383,22183,2,0,L|0:222,1,166.500006351471,2|0,3:2|3:0,0:0:0:0:
204,101,22611,2,0,L|284:122,1,83.2500031757356,2|0,3:2|3:0,0:0:0:0:
141,271,22897,6,0,L|101:282,3,41.6250015878678,2|0|0|0,3:2|3:0|3:0|3:0,0:0:0:0:
245,349,23183,2,0,L|205:339,3,41.6250015878678,2|0|0|0,3:2|3:0|3:0|3:0,0:0:0:0:
347,271,23468,2,0,L|307:282,3,41.6250015878678,2|0|0|0,3:2|3:0|3:0|3:0,0:0:0:0:
451,349,23754,2,0,L|410:338,3,41.6250015878678,2|0|0|0,3:2|3:0|3:0|3:0,0:0:0:0:
467,220,24040,6,0,B|497:107|497:107|471:64,1,166.500006351471,10|2,1:2|3:2,0:0:0:0:
252,220,24468,2,0,B|221:107|221:107|247:64,1,166.500006351471,2|2,3:2|3:2,0:0:0:0:
394,121,24897,2,0,B|353:131|353:131|313:120,1,83.2500031757356,2|0,3:2|3:0,0:0:0:0:
130,0,25183,6,0,L|119:40,3,41.6250015878678,2|0|0|0,3:2|3:0|3:0|3:0,0:0:0:0:
18,104,25468,2,0,L|28:144,3,41.6250015878678,2|0|0|0,3:2|3:0|3:0|3:0,0:0:0:0:
130,208,25754,2,0,L|119:248,3,41.6250015878678,2|0|0|0,3:2|3:0|3:0|3:0,0:0:0:0:
18,312,26040,2,0,L|28:352,3,41.6250015878678,2|0|0|0,3:2|3:0|3:0|3:0,0:0:0:0:
164,380,26325,5,10,1:2:0:0:
185,362,26397,1,0,3:0:0:0:
210,351,26468,1,0,3:0:0:0:
237,347,26540,1,0,3:0:0:0:
265,350,26611,1,0,3:0:0:0:
290,361,26682,1,0,3:0:0:0:
312,379,26754,6,0,L|322:339,5,41.6250015878678,2|0|0|0|0|0,3:2|3:0|3:0|3:0|3:0|3:0,0:0:0:0:
389,272,27183,2,0,L|429:261,1,41.6250015878678,2|0,3:2|3:0,0:0:0:0:
297,246,27325,2,0,L|268:218,1,41.6250015878678,0|0,3:0|3:0,0:0:0:0:
365,179,27468,5,10,1:2:0:0:
372,149,27540,1,0,3:0:0:0:
379,120,27611,1,0,3:0:0:0:
386,91,27683,1,0,3:0:0:0:
394,62,27754,1,0,3:0:0:0:
401,33,27825,1,0,3:0:0:0:
408,4,27897,6,0,L|419:46,5,44.4,2|0|0|0|0|0,3:2|3:0|3:0|3:0|3:0|3:0,0:0:0:0:
365,179,28325,2,0,L|354:137,1,44.4,2|0,3:2|3:0,0:0:0:0:
239,47,28468,2,0,L|250:89,1,44.4,0|0,3:0|3:0,0:0:0:0:
195,221,28611,5,10,1:2:0:0:
163,230,28682,1,0,3:0:0:0:
131,239,28753,1,0,3:0:0:0:
98,247,28825,1,0,3:0:0:0:
66,256,28897,6,0,L|17:269,1,49.949998475647,2|2,3:2|3:2,0:0:0:0:
195,221,29040,2,0,L|243:209,1,49.949998475647,2|2,3:2|3:2,0:0:0:0:
160,351,29183,1,10,1:2:0:0:
101,126,29325,5,0,3:0:0:0:
96,109,29396,1,0,3:0:0:0:
92,93,29467,1,0,3:0:0:0:
88,77,29539,1,0,3:0:0:0:
83,61,29610,1,0,3:0:0:0:
79,45,29682,1,0,3:0:0:0:
75,29,29753,5,2,1:2:0:0:
113,80,29824,1,2,1:2:0:0:
177,97,29897,1,2,1:2:0:0:
239,81,29968,1,2,1:2:0:0:
279,29,30040,1,2,1:2:0:0:
346,28,30111,1,2,1:2:0:0:
386,79,30183,1,2,1:2:0:0:
373,143,30255,1,2,1:2:0:0:
313,171,30325,6,0,P|283:164|255:141,1,61.0500018630982,6|0,1:2|3:0,0:0:0:0:
459,43,30468,2,0,P|483:24|512:18,1,61.0500018630982,6|0,1:2|3:0,0:0:0:0:
497,234,30611,5,6,1:2:0:0:
492,250,30683,1,2,3:2:0:0:
488,266,30754,1,2,3:2:0:0:
483,282,30825,1,2,3:2:0:0:
478,297,30897,6,0,P|408:241|320:255,1,183.150005589295,6|0,0:2|0:0,0:0:0:0:
299,271,31183,1,8,0:0:0:0:
415,355,31325,2,0,P|389:306|342:334,1,122.100003726196,0|0,0:0|0:0,0:0:0:0:
165,384,31611,1,2,0:0:0:0:
165,384,31683,1,0,0:0:0:0:
165,384,31754,2,0,P|199:335|194:275,1,122.100003726196,8|0,0:0|0:0,0:0:0:0:
22,269,31968,5,0,0:0:0:0:
0,281,32040,2,0,L|117:312,1,122.100003726196,2|0,0:0|0:0,0:0:0:0:
218,180,32254,5,0,0:0:0:0:
240,192,32326,2,0,L|122:223,1,122.100003726196,8|2,0:0|0:0,0:0:0:0:
22,91,32539,5,0,0:0:0:0:
0,103,32611,2,0,L|117:134,1,122.100003726196,0|2,0:0|0:0,0:0:0:0:
218,2,32825,5,0,0:0:0:0:
240,14,32897,2,0,L|122:45,1,122.100003726196,8|0,0:0|0:0,0:0:0:0:
512,170,33183,6,0,B|543:116|543:116|512:0,1,183.150005589295,2|0,0:0|0:0,0:0:0:0:
431,45,33468,2,0,L|446:103,1,61.0500018630982,8|0,0:0|0:0,0:0:0:0:
364,210,33611,2,0,L|423:194,1,61.0500018630982,0|0,0:0|0:0,0:0:0:0:
487,259,33754,1,0,0:0:0:0:
494,288,33825,1,0,0:0:0:0:
502,317,33897,2,0,L|517:376,1,61.0500018630982,2|0,0:0|0:0,0:0:0:0:
512,170,34040,1,8,0:0:0:0:
355,326,34183,1,0,0:0:0:0:
141,268,34325,6,0,B|101:245|101:245|27:265,1,122.100003726196,2|0,0:0|0:0,0:0:0:0:
167,186,34540,2,0,L|284:154,1,122.100003726196,0|0,0:0|0:0,0:0:0:0:
103,127,34754,2,0,B|79:166|79:166|5:186,1,122.100003726196,2|0,0:0|0:0,0:0:0:0:
176,194,34968,2,0,L|293:162,1,122.100003726196,0|0,0:0|0:0,0:0:0:0:
313,378,35183,5,8,0:0:0:0:
250,353,35254,1,0,0:0:0:0:
254,286,35325,1,2,0:0:0:0:
319,270,35397,1,0,0:0:0:0:
355,326,35468,6,0,L|472:294,1,122.100003726196,2|0,0:0|0:0,0:0:0:0:
194,317,35683,1,0,0:0:0:0:
194,317,35754,2,0,L|77:349,1,122.100003726196,8|0,0:0|0:0,0:0:0:0:
364,334,35968,5,0,0:0:0:0:
364,334,36040,2,0,L|485:333,1,122.100003726196,0|2,0:0|0:0,0:0:0:0:
185,309,36254,1,0,0:0:0:0:
185,309,36326,2,0,L|63:309,1,122.100003726196,8|2,0:0|0:0,0:0:0:0:
369,199,36539,5,0,0:0:0:0:
369,199,36611,2,0,P|373:139|338:91,1,122.100003726196,0|2,0:0|0:0,0:0:0:0:
72,19,36825,1,0,0:0:0:0:
72,19,36897,2,0,P|67:78|102:126,1,122.100003726196,8|0,0:0|0:0,0:0:0:0:
404,137,37111,5,0,0:0:0:0:
404,137,37183,2,0,P|365:91|306:82,1,122.100003726196,2|2,0:0|0:0,0:0:0:0:
37,81,37396,1,0,0:0:0:0:
37,81,37468,2,0,P|76:127|135:136,1,122.100003726196,8|0,0:0|0:0,0:0:0:0:
329,1,37754,5,2,0:0:0:0:
286,0,37825,1,0,0:0:0:0:
248,20,37897,1,0,0:0:0:0:
225,57,37968,1,0,0:0:0:0:
223,100,38040,1,8,0:0:0:0:
243,138,38111,1,0,0:0:0:0:
279,161,38183,1,2,0:0:0:0:
322,164,38254,1,0,0:0:0:0:
358,188,38325,1,0,0:0:0:0:
378,226,38396,1,0,0:0:0:0:
377,269,38468,1,2,0:0:0:0:
354,305,38539,1,0,0:0:0:0:
316,326,38611,2,0,P|285:327|254:315,1,61.0500018630982,8|0,0:0|0:0,0:0:0:0:
453,166,38754,2,0,P|481:155|511:157,1,61.0500018630982,0|0,0:0|0:0,0:0:0:0:
299,244,38897,5,2,0:0:0:0:
457,5,39040,1,2,0:0:0:0:
512,281,39183,1,8,0:0:0:0:
457,5,39325,1,2,0:0:0:0:
387,369,39468,1,10,0:0:0:0:
101,288,39611,5,2,0:0:0:0:
134,237,39682,1,2,0:0:0:0:
187,210,39753,1,8,0:0:0:0:
247,212,39825,1,8,0:0:0:0:
299,244,39897,2,0,P|316:270|321:300,1,61.0500018630982,2|0,0:0|0:0,0:0:0:0:
152,2,40040,5,6,0:0:0:0:
117,39,40111,1,0,0:0:0:0:
105,88,40182,1,0,0:0:0:0:
117,138,40254,1,0,0:0:0:0:
152,174,40325,1,8,0:0:0:0:
187,210,40397,1,0,0:0:0:0:
199,260,40469,1,0,0:0:0:0:
187,309,40540,1,0,0:0:0:0:
152,346,40611,1,0,0:0:0:0:
102,356,40682,1,0,0:0:0:0:
54,339,40754,1,2,0:0:0:0:
24,299,40825,1,0,0:0:0:0:
16,249,40897,2,0,P|29:211|59:183,1,83.2500031757356,8|0,0:0|0:0,0:0:0:0:
152,2,41040,2,0,P|178:33|187:73,1,83.2500031757356,0|0,0:0|0:0,0:0:0:0:
107,260,41183,5,2,0:0:0:0:
0,0,41325,1,0,0:0:0:0:
116,280,41468,5,8,0:0:0:0:
376,173,41610,1,2,0:0:0:0:
212,348,41754,5,0,0:0:0:0:
105,88,41896,1,2,0:0:0:0:
221,368,42039,5,8,0:0:0:0:
468,266,42183,1,0,0:0:0:0:
481,261,42256,1,0,0:0:0:0:
494,256,42326,5,2,0:0:0:0:
484,279,42398,1,0,0:0:0:0:
474,302,42468,1,0,0:0:0:0:
464,325,42540,1,0,0:0:0:0:
454,348,42611,1,8,0:0:0:0:
437,307,42683,1,0,0:0:0:0:
418,259,42754,1,0,0:0:0:0:
398,210,42825,1,0,0:0:0:0:
379,162,42897,1,0,0:0:0:0:
359,114,42968,1,0,0:0:0:0:
340,66,43040,1,2,0:0:0:0:
320,112,43111,1,0,0:0:0:0:
300,158,43183,2,0,L|268:81,1,83.2500031757356,8|0,0:0|0:0,0:0:0:0:
73,10,43325,2,0,L|105:87,1,83.2500031757356,0|0,0:0|0:0,0:0:0:0:
221,368,43468,6,0,P|261:363|295:338,1,83.2500031757356,2|0,0:0|0:0,0:0:0:0:
116,280,43611,2,0,P|75:284|41:309,1,83.2500031757356,0|0,0:0|0:0,0:0:0:0:
292,383,43754,6,0,P|317:350|323:309,1,83.2500031757356,8|0,0:0|0:0,0:0:0:0:
45,265,43897,2,0,P|19:297|13:338,1,83.2500031757356,2|0,0:0|0:0,0:0:0:0:
392,370,44040,5,0,0:0:0:0:
412,334,44111,1,0,0:0:0:0:
414,293,44182,1,2,0:0:0:0:
397,255,44254,1,0,0:0:0:0:
365,229,44325,1,8,0:0:0:0:
325,218,44397,1,0,0:0:0:0:
285,227,44468,1,2,0:0:0:0:
253,252,44540,1,0,0:0:0:0:
234,289,44611,6,0,L|203:211,3,83.2500031757356,2|0|0|0,0:0|0:0|0:0|0:0,0:0:0:0:
31,180,44897,2,0,L|0:102,1,83.2500031757356,8|0,0:0|0:0,0:0:0:0:
133,109,45040,6,0,B|164:122|164:122|210:104,3,83.2500031757356,0|0|0|0,0:0|0:0|0:0|0:0,0:0:0:0:
311,32,45325,2,0,B|357:14|357:14|389:28,1,83.2500031757356,2|0,0:0|0:0,0:0:0:0:
420,252,45468,5,8,0:0:0:0:
405,214,45540,1,0,0:0:0:0:
390,177,45611,1,2,0:0:0:0:
375,140,45683,1,0,0:0:0:0:
360,103,45754,6,0,L|328:180,3,83.2500031757356,0|0|2|0,0:0|0:0|0:0|0:0,0:0:0:0:
480,77,46040,2,0,L|512:0,1,83.2500031757356,8|0,0:0|0:0,0:0:0:0:
485,305,46183,6,0,P|452:330|411:335,3,83.2500031757356,0|0|2|0,0:0|0:0|0:0|0:0,0:0:0:0:
292,299,46468,2,0,P|251:303|218:329,1,83.2500031757356,2|0,0:0|0:0,0:0:0:0:
68,384,46611,5,8,0:0:0:0:
92,350,46683,1,0,0:0:0:0:
101,310,46754,1,0,0:0:0:0:
93,269,46825,1,0,0:0:0:0:
68,235,46897,5,2,0:0:0:0:
68,253,46968,1,0,0:0:0:0:
68,272,47039,1,0,0:0:0:0:
68,290,47111,1,0,0:0:0:0:
68,309,47182,1,8,0:0:0:0:
68,327,47254,1,0,0:0:0:0:
68,346,47325,1,2,0:0:0:0:
68,365,47397,1,0,0:0:0:0:
68,384,47468,5,0,0:0:0:0:
107,324,47540,1,0,0:0:0:0:
103,253,47611,1,2,0:0:0:0:
71,188,47683,1,0,0:0:0:0:
37,124,47754,1,8,0:0:0:0:
77,65,47825,1,0,0:0:0:0:
149,67,47897,1,0,0:0:0:0:
180,131,47968,1,0,0:0:0:0:
143,192,48040,5,6,1:2:0:0:
507,18,48183,1,6,1:2:0:0:
6,60,48468,5,6,1:2:0:0:
507,180,48754,1,6,1:2:0:0:
507,18,48897,5,2,0:0:0:0:
504,27,48968,1,2,0:0:0:0:
502,36,49040,1,10,0:0:0:0:
500,45,49111,1,2,0:0:0:0:
497,55,49183,5,6,0:2:0:0:
456,24,49254,1,0,0:0:0:0:
407,7,49325,1,0,0:0:0:0:
355,7,49397,1,0,0:0:0:0:
306,24,49468,1,8,0:0:0:0:
263,55,49540,1,0,0:0:0:0:
220,86,49612,1,0,0:0:0:0:
171,103,49683,1,0,0:0:0:0:
119,103,49755,1,0,0:0:0:0:
70,86,49826,1,0,0:0:0:0:
29,55,49897,1,2,0:0:0:0:
61,112,49968,1,0,0:0:0:0:
94,168,50040,2,0,B|124:219|124:219|117:242,1,83.2500031757356,8|0,0:0|0:0,0:0:0:0:
0,384,50183,2,0,B|30:332|30:332|52:326,1,83.2500031757356,0|0,0:0|0:0,0:0:0:0:
234,358,50325,5,2,0:0:0:0:
12,226,50468,1,0,0:0:0:0:
312,312,50611,5,8,0:0:0:0:
12,226,50754,1,2,0:0:0:0:
388,234,50897,5,0,0:0:0:0:
12,226,51040,1,2,0:0:0:0:
429,135,51183,5,8,0:0:0:0:
12,226,51325,1,0,0:0:0:0:
13,234,51397,1,0,0:0:0:0:
15,242,51468,5,2,0:0:0:0:
65,231,51540,1,0,0:0:0:0:
116,220,51611,1,0,0:0:0:0:
167,209,51683,1,0,0:0:0:0:
218,198,51754,5,8,0:0:0:0:
196,244,51825,1,0,0:0:0:0:
206,294,51896,1,0,0:0:0:0:
245,329,51968,1,0,0:0:0:0:
296,334,52039,1,0,0:0:0:0:
340,308,52111,1,0,0:0:0:0:
361,261,52182,1,2,0:0:0:0:
350,211,52254,1,0,0:0:0:0:
312,176,52325,5,8,0:0:0:0:
332,239,52396,1,0,0:0:0:0:
386,274,52467,1,0,0:0:0:0:
451,265,52539,1,0,0:0:0:0:
492,215,52611,6,0,P|503:175|492:135,1,83.2500031757356,2|0,0:0|0:0,0:0:0:0:
379,64,52754,2,0,P|350:35|311:24,1,83.2500031757356,0|0,0:0|0:0,0:0:0:0:
132,288,52897,6,0,P|121:248|132:208,1,83.2500031757356,8|0,0:0|0:0,0:0:0:0:
243,138,53040,2,0,P|273:109|313:98,1,83.2500031757356,2|0,0:0|0:0,0:0:0:0:
51,47,53183,6,0,P|81:75|120:86,1,83.2500031757356,0|0,0:0|0:0,0:0:0:0:
312,176,53325,2,0,P|282:204|242:216,1,83.2500031757356,2|0,0:0|0:0,0:0:0:0:
61,330,53468,2,0,P|91:358|131:370,1,83.2500031757356,8|0,0:0|0:0,0:0:0:0:
405,356,53611,1,2,0:0:0:0:
405,356,53683,1,0,0:0:0:0:
405,356,53754,5,6,0:0:0:0:
434,350,53825,1,0,0:0:0:0:
458,334,53897,1,0,0:0:0:0:
474,309,53968,1,0,0:0:0:0:
480,281,54040,1,8,0:0:0:0:
474,252,54111,1,0,0:0:0:0:
458,228,54183,1,0,0:0:0:0:
434,212,54254,1,0,0:0:0:0:
405,206,54325,1,0,0:0:0:0:
377,212,54397,1,0,0:0:0:0:
353,228,54468,1,0,0:0:0:0:
337,252,54540,1,0,0:0:0:0:
331,281,54611,1,8,0:0:0:0:
337,309,54683,1,0,0:0:0:0:
352,334,54754,1,0,0:0:0:0:
377,350,54825,1,0,0:0:0:0:
405,356,54897,5,6,0:0:0:0:
362,328,54968,1,0,0:0:0:0:
311,318,55040,1,2,0:0:0:0:
260,328,55111,1,0,0:0:0:0:
215,354,55183,1,10,0:0:0:0:
170,380,55254,1,0,0:0:0:0:
119,381,55325,1,2,0:0:0:0:
72,357,55397,1,0,0:0:0:0:
49,310,55468,1,2,0:0:0:0:
52,258,55540,1,0,0:0:0:0:
82,217,55611,1,2,0:0:0:0:
130,198,55683,1,0,0:0:0:0:
180,206,55754,2,0,P|212:232|229:273,1,83.2500031757356,10|0,0:0|0:0,0:0:0:0:
0,189,55897,2,0,P|6:147|33:113,1,83.2500031757356,0|0,0:0|0:0,0:0:0:0:
404,0,56040,5,6,0:0:0:0:
454,45,56111,1,0,0:0:0:0:
468,111,56183,1,2,0:0:0:0:
440,172,56254,1,0,0:0:0:0:
382,206,56325,1,10,0:0:0:0:
315,199,56397,1,0,0:0:0:0:
265,154,56468,1,2,0:0:0:0:
251,88,56540,1,0,0:0:0:0:
278,26,56611,5,6,0:0:0:0:
328,71,56683,1,0,0:0:0:0:
342,137,56754,1,2,0:0:0:0:
315,199,56825,1,0,0:0:0:0:
288,261,56897,1,10,0:0:0:0:
302,327,56968,1,0,0:0:0:0:
352,371,57040,1,0,0:0:0:0:
418,374,57111,1,0,0:0:0:0:
475,338,57183,5,6,0:0:0:0:
419,301,57254,1,0,0:0:0:0:
355,283,57325,1,2,0:0:0:0:
290,301,57397,1,0,0:0:0:0:
235,338,57468,1,8,0:0:0:0:
180,377,57540,1,0,0:0:0:0:
113,377,57611,1,2,0:0:0:0:
58,338,57683,1,0,0:0:0:0:
37,273,57754,1,6,0:0:0:0:
58,209,57825,1,0,0:0:0:0:
113,170,57897,1,0,0:0:0:0:
180,170,57968,1,0,0:0:0:0:
235,209,58040,5,2,0:0:0:0:
235,200,58111,1,2,0:0:0:0:
235,191,58183,1,2,0:0:0:0:
235,182,58254,1,2,0:0:0:0:
235,173,58325,6,0,L|235:131,6,41.6250015878678,0|0|0|0|0|0|0,3:0|3:0|3:0|3:0|3:0|3:0|3:0,0:0:0:0:
146,273,58611,5,12,0:0:0:0:
432,148,58897,5,2,0:0:0:0:
177,69,59040,2,0,P|235:45|293:68,1,127.650002434731,2|8,0:0|0:0,0:0:0:0:
432,148,59254,2,0,P|375:171|317:149,1,127.650002434731,0|0,0:0|0:0,0:0:0:0:
478,65,59468,2,0,L|438:252,1,191.475003652096,2|0,0:0|0:0,0:0:0:0:
423,323,59754,1,8,0:0:0:0:
374,87,59897,1,0,0:0:0:0:
278,379,60040,1,2,3:2:0:0:
278,379,60111,1,0,3:2:0:0:
278,379,60183,1,2,3:2:0:0:
44,272,60325,5,10,0:0:0:0:
0,326,60397,1,2,0:0:0:0:
36,384,60468,1,2,0:0:0:0:
104,366,60540,1,2,0:0:0:0:
108,294,60611,2,0,B|170:204|108:132|108:132|82:171|106:218,1,255.300004869461,2|8,0:0|0:0,0:0:0:0:
278,379,61040,1,0,0:0:0:0:
0,326,61183,1,2,0:0:0:0:
0,326,61325,1,2,0:0:0:0:
190,76,61468,6,0,P|108:33|25:76,1,191.475003652096,8|0,0:0|0:0,0:0:0:0:
238,144,61754,2,0,P|273:92|261:31,1,127.650002434731,2|0,0:0|0:0,0:0:0:0:
177,263,62040,2,0,P|142:211|154:150,1,127.650002434731,8|0,0:0|3:2,0:0:0:0:
156,162,62254,1,0,3:2:0:0:
159,174,62325,1,2,3:2:0:0:
162,186,62397,1,0,3:2:0:0:
166,197,62468,1,2,3:2:0:0:
321,276,62611,6,0,P|290:268|258:274,1,63.8250012173653,8|0,0:0|0:0,0:0:0:0:
145,341,62754,2,0,P|176:347|207:341,1,63.8250012173653,2|2,0:0|0:0,0:0:0:0:
451,355,62897,2,0,B|369:421|288:354|288:354|327:369|373:346,1,255.300004869461,2|8,0:0|0:0,0:0:0:0:
488,0,63468,6,0,P|522:51|512:113,1,127.650002434731,2|2,0:0|0:0,0:0:0:0:
391,139,63683,1,0,0:0:0:0:
391,139,63754,2,0,P|357:87|368:26,1,127.650002434731,8|0,0:0|0:0,0:0:0:0:
474,230,64040,5,2,0:0:0:0:
440,70,64183,1,0,0:0:0:0:
474,230,64325,5,8,3:2:0:0:
478,253,64397,1,0,3:2:0:0:
483,276,64468,1,0,3:2:0:0:
488,300,64540,1,0,3:2:0:0:
493,323,64611,2,0,L|521:266,1,63.8250012173653,2|0,3:2|3:2,0:0:0:0:
391,139,64754,1,2,3:2:0:0:
264,269,64897,1,8,0:0:0:0:
264,269,65040,6,0,L|272:227,2,42.5500008115769,0|0|0,0:0|0:0|0:0,0:0:0:0:
197,142,65183,6,0,B|229:192|229:192|359:220,1,191.475003652096,2|0,0:0|0:0,0:0:0:0:
184,76,65468,2,0,L|157:200,1,127.650002434731,8|0,0:0|0:0,0:0:0:0:
118,384,65754,5,2,0:0:0:0:
0,267,65897,1,2,0:0:0:0:
62,114,66040,1,8,0:0:0:0:
16,267,66183,5,0,0:0:0:0:
132,384,66325,5,2,0:0:0:0:
76,114,66468,1,2,0:0:0:0:
346,58,66611,1,8,0:0:0:0:
402,328,66754,1,2,3:2:0:0:
402,328,66825,1,0,3:2:0:0:
402,328,66897,1,2,3:2:0:0:
402,328,66968,1,0,3:2:0:0:
402,328,67040,6,0,L|388:265,1,63.8250012173653,2|0,3:2|3:2,0:0:0:0:
265,176,67183,1,8,3:2:0:0:
265,176,67254,2,0,L|325:195,1,63.8250012173653,2|0,3:2|3:2,0:0:0:0:
512,90,67397,1,0,3:2:0:0:
512,90,67468,6,0,L|417:175,1,127.650002434731,6|0,0:0|0:0,0:0:0:0:
202,371,67754,1,8,0:0:0:0:
189,383,68040,5,2,0:0:0:0:
296,283,68183,1,2,0:0:0:0:
156,240,68325,1,8,0:0:0:0:
49,340,68468,1,0,0:0:0:0:
123,97,68611,1,2,0:0:0:0:
189,383,68897,5,8,3:2:0:0:
189,383,68968,1,0,3:2:0:0:
189,383,69040,1,0,3:2:0:0:
189,383,69111,1,0,3:2:0:0:
189,383,69183,2,0,L|174:319,1,63.8250012173653,2|0,3:2|3:2,0:0:0:0:
23,120,69325,6,0,B|15:183|15:183|52:236,1,127.650002434731,2|8,0:0|0:0,0:0:0:0:
247,190,69540,2,0,B|257:126|257:126|222:73,1,127.650002434731,0|0,0:0|0:0,0:0:0:0:
101,0,69754,2,0,L|144:189,1,191.475003652096,2|0,0:0|0:0,0:0:0:0:
169,298,70040,1,8,0:0:0:0:
439,1,70325,5,2,0:0:0:0:
512,127,70468,1,2,0:0:0:0:
439,253,70611,1,8,0:0:0:0:
512,379,70754,1,0,0:0:0:0:
293,253,70897,1,2,0:0:0:0:
512,127,71183,5,8,3:2:0:0:
512,127,71254,1,0,3:2:0:0:
512,127,71325,1,0,3:2:0:0:
512,127,71397,1,0,3:2:0:0:
512,127,71468,2,0,L|470:199,1,63.8250012173653,2|0,3:2|3:2,0:0:0:0:
366,379,71611,6,0,B|333:346|333:346|251:346,1,127.650002434731,2|8,0:0|0:0,0:0:0:0:
137,290,71825,2,0,B|169:323|169:323|252:323,1,127.650002434731,0|0,0:0|0:0,0:0:0:0:
439,253,72040,2,0,B|307:253|307:253|264:210,1,191.475003652096,2|0,0:0|0:0,0:0:0:0:
183,127,72325,1,8,0:0:0:0:
39,378,72611,5,2,0:0:0:0:
39,127,72754,1,2,0:0:0:0:
39,127,72825,1,0,0:0:0:0:
39,127,72897,2,0,L|39:-18,1,127.650002434731,8|0,0:0|0:0,0:0:0:0:
8,198,73183,6,0,B|51:156|51:156|183:156,1,191.475003652096,2|0,0:0|0:0,0:0:0:0:
357,84,73468,2,0,B|315:127|315:127|183:127,1,191.475003652096,8|0,0:0|0:0,0:0:0:0:
39,127,73754,5,2,0:0:0:0:
280,43,73897,1,2,0:0:0:0:
280,43,73968,1,0,0:0:0:0:
280,43,74040,1,8,0:0:0:0:
232,293,74183,1,0,0:0:0:0:
473,209,74325,6,0,B|533:188|533:188|477:302,1,191.475003652096,2|0,0:0|0:0,0:0:0:0:
398,353,74611,2,0,B|337:373|337:373|393:259,1,191.475003652096,8|0,0:0|0:0,0:0:0:0:
470,115,74897,5,2,0:0:0:0:
298,53,75040,1,2,0:0:0:0:
512,0,75183,1,8,0:0:0:0:
256,168,75325,1,0,0:0:0:0:
387,63,75468,5,2,0:0:0:0:
210,327,75611,1,2,0:0:0:0:
199,9,75754,1,8,0:0:0:0:
393,258,75897,1,2,0:0:0:0:
88,173,76040,1,2,0:0:0:0:
76,170,76111,1,0,0:0:0:0:
65,167,76183,1,2,0:0:0:0:
54,164,76254,1,0,0:0:0:0:
43,161,76325,1,8,0:0:0:0:
32,158,76397,1,2,0:0:0:0:
21,155,76468,1,0,0:0:0:0:
10,152,76540,1,0,0:0:0:0:
29,187,76611,5,6,0:0:0:0:
0,176,85754,6,0,P|62:124|142:136,1,166.500006351471,2|2,1:2|1:2,0:0:0:0:
142,136,86183,1,0,0:0:0:0:
88,220,86325,2,0,P|167:231|230:180,1,166.500006351471,2|2,1:2|1:2,0:0:0:0:
279,0,86897,6,0,L|323:161,1,166.500006351471,2|2,1:2|1:2,0:0:0:0:
347,249,87325,1,0,0:0:0:0:
366,22,87468,2,0,L|410:183,1,166.500006351471,2|2,1:2|1:2,0:0:0:0:
440,296,88040,6,0,B|392:268|392:268|284:297,1,166.500006351471,2|2,1:2|1:2,0:0:0:0:
196,320,88468,1,0,0:0:0:0:
379,358,88611,2,0,B|427:386|427:386|535:357,1,166.500006351471,2|2,1:2|1:2,0:0:0:0:
216,228,89183,6,0,L|136:250,1,83.2500031757356,2|0,1:2|0:0,0:0:0:0:
296,156,89468,2,0,L|360:138,1,66.5999979675294,2|0,1:2|0:0,0:0:0:0:
190,133,89754,2,0,L|141:145,1,49.949998475647,2|0,1:2|0:0,0:0:0:0:
270,61,90040,2,0,L|302:52,1,33.2999989837647,2|0,1:2|0:0,0:0:0:0:
21,20,90325,6,0,B|-7:68|-7:68|22:176,1,166.500006351471,2|2,1:2|1:2,0:0:0:0:
21,175,90754,1,0,0:0:0:0:
84,81,90897,2,0,B|113:189|113:189|85:237,1,166.500006351471,2|2,1:2|1:2,0:0:0:0:
0,344,91468,6,0,B|72:344|72:344|92:364|92:364|158:364,3,166.500006351471,2|2|2|2,1:2|1:2|1:2|1:2,0:0:0:0:
301,362,92611,5,2,1:2:0:0:
86,237,92897,1,2,1:2:0:0:
210,21,93183,1,2,1:2:0:0:
426,146,93468,1,2,1:2:0:0:
256,192,93754,5,2,1:2:0:0:
256,192,94040,1,2,1:2:0:0:
301,362,94325,5,2,1:2:0:0:
426,146,94468,1,2,1:2:0:0:
210,21,94611,1,2,1:2:0:0:
86,237,94754,1,2,1:2:0:0:
256,192,94897,12,0,95611,0:0:0:0:
413,352,95754,6,0,P|532:313|412:277,1,333,2|0,0:2|0:0,0:0:0:0:
346,315,96040,5,6,0:0:0:0:
312,362,96111,1,0,0:0:0:0:
257,381,96182,1,0,0:0:0:0:
201,363,96254,1,0,0:0:0:0:
167,316,96325,1,8,0:0:0:0:
166,258,96397,1,0,0:0:0:0:
200,210,96468,1,0,0:0:0:0:
256,192,96540,1,0,0:0:0:0:
290,144,96611,1,0,0:0:0:0:
289,86,96682,1,0,0:0:0:0:
254,38,96754,1,2,0:0:0:0:
198,21,96825,1,0,0:0:0:0:
142,40,96897,2,0,P|113:69|106:110,1,83.2500031757356,8|0,0:0|0:0,0:0:0:0:
0,139,97040,2,0,P|11:178|43:204,1,83.2500031757356,0|0,0:0|0:0,0:0:0:0:
256,285,97183,5,2,0:0:0:0:
341,0,97325,1,0,0:0:0:0:
413,352,97468,5,8,0:0:0:0:
341,0,97611,1,2,0:0:0:0:
172,358,97754,5,0,0:0:0:0:
512,283,97897,1,2,0:0:0:0:
43,204,98040,1,8,0:0:0:0:
512,283,98183,1,0,0:0:0:0:
193,8,98325,5,2,0:0:0:0:
152,49,98397,1,0,0:0:0:0:
137,106,98468,1,0,0:0:0:0:
152,162,98540,1,0,0:0:0:0:
193,203,98611,1,8,0:0:0:0:
218,257,98683,1,0,0:0:0:0:
211,315,98754,1,0,0:0:0:0:
172,358,98825,1,0,0:0:0:0:
116,374,98897,1,0,0:0:0:0:
61,358,98968,1,0,0:0:0:0:
24,313,99040,1,2,0:0:0:0:
17,256,99111,1,0,0:0:0:0:
43,203,99183,2,0,P|66:170|71:129,1,83.2500031757356,8|0,0:0|0:0,0:0:0:0:
0,0,99325,2,0,P|-23:33|-28:74,1,83.2500031757356,0|0,0:0|0:0,0:0:0:0:
117,270,99468,5,2,0:0:0:0:
193,8,99611,1,0,0:0:0:0:
309,384,99754,1,8,0:0:0:0:
193,203,99897,1,2,0:0:0:0:
418,109,100040,5,0,0:0:0:0:
43,203,100183,1,2,0:0:0:0:
447,21,100325,1,8,0:0:0:0:
482,43,100397,1,0,0:0:0:0:
504,78,100468,1,2,0:0:0:0:
508,119,100540,1,0,0:0:0:0:
494,156,100611,6,0,P|464:186|425:198,3,83.2500031757356,2|0|0|0,0:0|0:0|0:0|0:0,0:0:0:0:
339,63,100897,2,0,P|325:102|333:143,1,83.2500031757356,8|0,0:0|0:0,0:0:0:0:
506,221,101040,2,0,P|466:231|426:222,3,83.2500031757356,0|0|0|0,0:0|0:0|0:0|0:0,0:0:0:0:
275,79,101325,2,0,P|282:119|307:151,1,83.2500031757356,2|0,0:0|0:0,0:0:0:0:
256,371,101468,1,8,0:0:0:0:
278,335,101540,1,0,0:0:0:0:
299,300,101611,1,2,0:0:0:0:
321,264,101683,1,0,0:0:0:0:
343,228,101754,6,0,L|262:249,3,83.2500031757356,0|0|2|0,0:0|0:0|0:0|0:0,0:0:0:0:
172,332,102040,2,0,L|91:353,1,83.2500031757356,8|0,0:0|0:0,0:0:0:0:
202,186,102183,2,0,B|225:199|225:199|240:253,3,83.2500031757356,0|0|2|0,0:0|0:0|0:0|0:0,0:0:0:0:
68,357,102468,2,0,B|44:343|44:343|29:289,1,83.2500031757356,2|0,0:0|0:0,0:0:0:0:
40,72,102611,5,8,0:0:0:0:
50,110,102682,1,0,0:0:0:0:
60,149,102754,1,0,0:0:0:0:
71,187,102825,1,0,0:0:0:0:
81,226,102897,5,2,0:0:0:0:
96,171,102968,1,0,0:0:0:0:
111,113,103040,1,0,0:0:0:0:
126,55,103112,1,0,0:0:0:0:
141,1,103183,5,8,0:0:0:0:
132,9,103254,1,0,0:0:0:0:
124,17,103325,1,2,0:0:0:0:
115,26,103397,1,0,0:0:0:0:
106,35,103468,5,0,0:0:0:0:
164,35,103540,1,0,0:0:0:0:
221,35,103611,1,2,0:0:0:0:
279,35,103683,1,0,0:0:0:0:
336,35,103754,2,0,B|396:35|396:35|412:51,1,83.2500031757356,8|0,0:0|0:0,0:0:0:0:
240,131,103897,2,0,B|179:131|179:131|163:147,1,83.2500031757356,0|0,0:0|0:0,0:0:0:0:
336,227,104040,5,2,0:0:0:0:
359,233,104111,1,0,0:0:0:0:
382,239,104183,1,2,0:0:0:0:
405,245,104254,1,0,0:0:0:0:
474,263,104325,5,8,0:0:0:0:
439,272,104397,1,0,0:0:0:0:
404,281,104468,1,2,0:0:0:0:
369,290,104540,1,0,0:0:0:0:
292,311,104611,5,10,0:0:0:0:
340,323,104682,1,0,0:0:0:0:
388,336,104753,1,2,0:0:0:0:
437,350,104825,1,2,0:0:0:0:
486,364,104897,6,0,L|405:385,1,83.2500031757356,8|0,0:0|0:0,0:0:0:0:
211,332,105040,2,0,L|292:311,1,83.2500031757356,2|0,0:0|0:0,0:0:0:0:
507,176,105183,5,6,0:0:0:0:
453,125,105254,1,0,0:0:0:0:
384,97,105325,1,0,0:0:0:0:
310,97,105397,1,0,0:0:0:0:
241,126,105468,1,8,0:0:0:0:
189,179,105540,1,0,0:0:0:0:
124,216,105611,1,0,0:0:0:0:
50,203,105683,1,0,0:0:0:0:
2,146,105754,1,0,0:0:0:0:
2,71,105825,1,0,0:0:0:0:
50,13,105897,1,2,0:0:0:0:
124,0,105968,1,0,0:0:0:0:
187,36,106040,2,0,P|209:72|213:113,3,83.2500031757356,8|0|0|0,0:0|0:0|0:0|0:0,0:0:0:0:
106,108,106325,5,2,0:0:0:0:
487,173,106468,1,0,0:0:0:0:
86,105,106611,5,8,0:0:0:0:
512,0,106755,1,2,0:0:0:0:
66,102,106896,5,0,0:0:0:0:
507,176,107040,1,2,0:0:0:0:
46,99,107183,5,8,0:0:0:0:
187,36,107325,2,0,P|209:72|213:113,1,83.2500031757356,0|0,0:0|0:0,0:0:0:0:
38,368,107468,5,12,1:2:0:0:
19,376,107754,5,12,1:2:0:0:
507,176,107897,1,12,1:2:0:0:
0,384,108183,5,12,1:2:0:0:
396,0,108468,6,0,B|432:63|432:63|387:233,1,249.750009527207,6|0,1:2|0:0,0:0:0:0:
321,157,108754,6,0,L|343:77,1,83.2500031757356,0|0,0:0|0:0,0:0:0:0:
419,221,108897,2,0,L|397:301,1,83.2500031757356,8|0,0:0|0:0,0:0:0:0:
258,384,109040,2,0,L|280:304,1,83.2500031757356,2|0,0:0|0:0,0:0:0:0:
333,157,109183,6,0,L|355:77,1,83.2500031757356,0|0,0:0|0:0,0:0:0:0:
431,221,109325,2,0,L|409:301,1,83.2500031757356,2|0,0:0|0:0,0:0:0:0:
270,384,109469,2,0,L|292:304,1,83.2500031757356,8|0,0:0|0:0,0:0:0:0:
187,36,109611,1,0,0:0:0:0:
187,36,109683,1,0,0:0:0:0:
187,36,109754,5,2,0:0:0:0:
167,72,109825,1,0,0:0:0:0:
184,111,109897,1,0,0:0:0:0:
225,121,109968,1,0,0:0:0:0:
258,96,110040,1,8,0:0:0:0:
259,54,110111,1,0,0:0:0:0:
228,28,110183,5,0,0:0:0:0:
216,68,110254,1,0,0:0:0:0:
205,108,110325,1,0,0:0:0:0:
194,149,110397,1,0,0:0:0:0:
183,190,110468,1,2,0:0:0:0:
173,230,110540,1,0,0:0:0:0:
162,271,110611,6,0,L|140:190,1,83.2500031757356,8|0,0:0|0:0,0:0:0:0:
0,88,110754,2,0,L|21:168,1,83.2500031757356,2|0,0:0|0:0,0:0:0:0:
105,334,110897,5,0,0:0:0:0:
142,353,110968,1,0,0:0:0:0:
183,353,111040,1,2,0:0:0:0:
219,332,111111,1,0,0:0:0:0:
241,298,111183,5,8,0:0:0:0:
245,314,111254,1,0,0:0:0:0:
250,329,111325,1,0,0:0:0:0:
255,344,111397,1,0,0:0:0:0:
260,359,111468,5,2,0:0:0:0:
282,324,111540,1,0,0:0:0:0:
318,304,111611,1,2,0:0:0:0:
359,304,111683,1,0,0:0:0:0:
396,323,111754,6,0,P|437:322|473:302,1,83.2500031757356,8|0,0:0|0:0,0:0:0:0:
390,153,111897,2,0,L|412:233,1,83.2500031757356,0|0,0:0|0:0,0:0:0:0:
512,68,112040,5,2,0:0:0:0:
496,64,112111,1,0,0:0:0:0:
481,60,112183,1,0,0:0:0:0:
465,56,112254,1,0,0:0:0:0:
506,37,112325,5,8,0:0:0:0:
449,52,112397,1,0,0:0:0:0:
392,67,112468,1,2,0:0:0:0:
335,82,112540,1,0,0:0:0:0:
278,97,112611,5,0,0:0:0:0:
294,101,112683,1,0,0:0:0:0:
309,105,112754,1,2,0:0:0:0:
325,109,112825,1,0,0:0:0:0:
398,98,112897,5,8,0:0:0:0:
341,113,112968,1,0,0:0:0:0:
284,128,113040,1,0,0:0:0:0:
227,143,113111,1,0,0:0:0:0:
170,158,113183,5,2,0:0:0:0:
174,141,113254,1,0,0:0:0:0:
178,125,113325,1,2,0:0:0:0:
183,108,113397,1,0,0:0:0:0:
187,92,113468,6,0,L|106:113,1,83.2500031757356,8|0,0:0|0:0,0:0:0:0:
331,211,113611,2,0,L|411:232,1,83.2500031757356,2|0,0:0|0:0,0:0:0:0:
136,368,113754,6,0,L|157:287,1,83.2500031757356,10|0,0:0|0:0,0:0:0:0:
376,16,113897,2,0,L|397:96,1,83.2500031757356,2|2,0:0|0:0,0:0:0:0:
45,172,114040,6,0,P|25:136|25:95,1,83.2500031757356,8|0,0:0|0:0,0:0:0:0:
491,213,114183,2,0,P|491:255|471:290,1,83.2500031757356,0|0,0:0|0:0,0:0:0:0:
274,384,114325,5,6,0:0:0:0:
239,338,114397,1,0,0:0:0:0:
225,282,114468,1,0,0:0:0:0:
237,225,114540,1,0,0:0:0:0:
273,180,114611,1,8,0:0:0:0:
306,134,114683,1,0,0:0:0:0:
306,76,114754,1,0,0:0:0:0:
272,27,114825,1,0,0:0:0:0:
217,9,114897,1,0,0:0:0:0:
161,28,114968,1,0,0:0:0:0:
127,76,115040,1,2,0:0:0:0:
127,134,115111,1,0,0:0:0:0:
161,180,115183,2,0,P|199:196|240:194,1,83.2500031757356,8|0,0:0|0:0,0:0:0:0:
449,35,115325,2,0,P|415:59|396:96,1,83.2500031757356,0|0,0:0|0:0,0:0:0:0:
431,357,115468,5,2,0:0:0:0:
217,103,115611,1,0,0:0:0:0:
512,384,115754,5,8,0:0:0:0:
203,89,115897,1,2,0:0:0:0:
479,114,116040,5,0,0:0:0:0:
69,234,116183,1,2,0:0:0:0:
499,108,116325,5,8,0:0:0:0:
3,310,116468,1,0,0:0:0:0:
273,374,116611,5,2,0:0:0:0:
329,384,116682,1,0,0:0:0:0:
379,356,116753,1,0,0:0:0:0:
400,303,116825,1,0,0:0:0:0:
383,249,116896,1,8,0:0:0:0:
335,217,116968,1,0,0:0:0:0:
278,223,117039,1,0,0:0:0:0:
221,229,117111,1,0,0:0:0:0:
173,197,117183,1,0,0:0:0:0:
156,143,117254,1,0,0:0:0:0:
177,90,117326,1,2,0:0:0:0:
227,62,117397,1,0,0:0:0:0:
283,72,117468,2,0,P|312:100|325:139,1,83.2500031757356,8|0,0:0|0:0,0:0:0:0:
273,374,117611,2,0,P|285:334|315:306,1,83.2500031757356,0|0,0:0|0:0,0:0:0:0:
464,231,117754,5,2,0:0:0:0:
242,145,117897,1,0,0:0:0:0:
499,108,118040,5,8,0:0:0:0:
106,258,118183,1,2,0:0:0:0:
499,354,118325,5,0,0:0:0:0:
19,58,118468,1,2,0:0:0:0:
59,336,118611,5,8,0:0:0:0:
98,349,118683,1,0,0:0:0:0:
139,342,118754,1,2,0:0:0:0:
173,319,118825,1,0,0:0:0:0:
193,282,118897,6,0,P|196:241|179:204,3,83.2500031757356,2|0|0|0,0:0|0:0|0:0|0:0,0:0:0:0:
72,19,119183,2,0,P|54:56|57:97,1,83.2500031757356,8|0,0:0|0:0,0:0:0:0:
229,228,119325,6,0,P|202:196|163:182,3,83.2500031757356,0|0|0|0,0:0|0:0|0:0|0:0,0:0:0:0:
19,58,119611,2,0,P|33:96|64:123,1,83.2500031757356,2|0,0:0|0:0,0:0:0:0:
258,285,119754,5,8,0:0:0:0:
296,274,119825,1,0,0:0:0:0:
335,264,119897,1,2,0:0:0:0:
373,253,119968,1,0,0:0:0:0:
412,243,120040,6,0,L|331:221,3,83.2500031757356,0|0|2|0,0:0|0:0|0:0|0:0,0:0:0:0:
469,375,120325,2,0,L|388:353,1,83.2500031757356,8|0,0:0|0:0,0:0:0:0:
451,233,120468,6,0,L|370:211,3,83.2500031757356,0|0|2|0,0:0|0:0|0:0|0:0,0:0:0:0:
508,365,120754,2,0,L|427:343,1,83.2500031757356,2|0,0:0|0:0,0:0:0:0:
106,258,120897,1,8,0:0:0:0:
80,251,120968,1,0,0:0:0:0:
55,244,121040,1,0,0:0:0:0:
30,237,121111,1,0,0:0:0:0:
5,231,121183,5,2,0:0:0:0:
61,215,121254,1,0,0:0:0:0:
117,200,121325,1,0,0:0:0:0:
173,185,121397,1,0,0:0:0:0:
230,170,121468,1,8,0:0:0:0:
213,165,121540,1,0,0:0:0:0:
197,161,121611,1,2,0:0:0:0:
181,157,121683,1,0,0:0:0:0:
165,152,121754,5,0,0:0:0:0:
180,208,121825,1,0,0:0:0:0:
195,264,121897,1,2,0:0:0:0:
210,320,121968,1,0,0:0:0:0:
225,377,122040,2,0,L|246:296,1,83.2500031757356,8|0,0:0|0:0,0:0:0:0:
310,54,122183,2,0,L|331:134,1,83.2500031757356,0|0,0:0|0:0,0:0:0:0:
466,361,122325,5,2,0:0:0:0:
484,324,122396,1,0,0:0:0:0:
452,296,122468,1,2,0:0:0:0:
415,316,122540,1,0,0:0:0:0:
424,356,122611,1,8,0:0:0:0:
485,364,122683,1,0,0:0:0:0:
510,307,122754,1,2,0:0:0:0:
463,263,122825,1,0,0:0:0:0:
410,294,122897,6,0,P|369:303|329:293,1,83.2500031757356,8|0,0:0|0:0,0:0:0:0:
191,18,123040,2,0,P|228:34|255:66,1,83.2500031757356,2|2,0:0|0:0,0:0:0:0:
205,368,123183,2,0,P|185:333|181:292,1,83.2500031757356,8|0,0:0|0:0,0:0:0:0:
401,76,123325,2,0,P|397:117|375:152,1,83.2500031757356,2|0,0:0|0:0,0:0:0:0:
61,280,123468,6,0,P|71:199|136:153,1,166.500006351471,6|0,0:0|0:0,0:0:0:0:
410,294,123754,1,8,0:0:0:0:
104,345,123897,2,0,P|39:296|31:215,1,166.500006351471,0|0,0:0|0:0,0:0:0:0:
512,0,124183,1,2,0:0:0:0:
512,0,124254,1,0,0:0:0:0:
512,0,124325,2,0,L|468:160,1,166.500006351471,8|0,0:0|0:0,0:0:0:0:
224,325,124611,6,0,B|200:351|203:389|203:389|166:308|239:253,1,222,2|0,0:0|0:0,0:0:0:0:
360,102,124825,2,0,B|394:95|414:63|414:63|396:149|305:151,1,222,2|0,0:0|0:0,0:0:0:0:
119,203,125040,2,0,B|87:188|52:202|52:202|117:143|192:195,1,222,2|0,0:0|0:0,0:0:0:0:
373,263,125254,2,0,B|390:293|427:303|427:303|339:313|309:226,1,222,2|0,0:0|0:0,0:0:0:0:
203,65,125468,2,0,B|206:30|182:1|182:1|259:44|233:132,1,222,10|0,0:0|0:0,0:0:0:0:
0,384,125754,5,12,1:2:0:0:
360,102,125897,1,12,1:2:0:0:
18,370,126183,5,12,1:2:0:0:
486,73,126468,1,12,1:2:0:0:
0,0,126754,6,0,B|24:92|24:92|73:121|73:121|98:214,1,249.750009527207,6|0,1:2|0:0,0:0:0:0:
144,376,127040,6,0,L|122:295,1,83.2500031757356,2|2,0:0|0:0,0:0:0:0:
22,256,127183,2,0,L|1:176,1,83.2500031757356,10|0,0:0|0:0,0:0:0:0:
190,212,127325,2,0,L|168:131,1,83.2500031757356,2|0,0:0|0:0,0:0:0:0:
155,372,127468,6,0,L|133:291,1,83.2500031757356,2|0,0:0|0:0,0:0:0:0:
33,253,127611,2,0,L|11:172,1,83.2500031757356,0|0,0:0|0:0,0:0:0:0:
200,208,127754,2,0,L|178:127,1,83.2500031757356,8|0,0:0|0:0,0:0:0:0:
434,278,127897,1,0,0:0:0:0:
447,281,127968,1,0,0:0:0:0:
460,284,128040,5,6,3:2:0:0:
443,340,128112,1,0,3:2:0:0:
397,376,128183,1,0,3:2:0:0:
338,377,128255,1,0,3:2:0:0:
290,344,128326,1,8,3:2:0:0:
271,291,128397,1,0,3:2:0:0:
286,234,128469,1,0,3:2:0:0:
332,198,128540,1,0,3:2:0:0:
391,196,128612,1,2,3:2:0:0:
451,194,128683,1,0,3:2:0:0:
496,158,128754,1,0,3:2:0:0:
512,101,128826,1,0,3:2:0:0:
492,48,128897,1,8,3:2:0:0:
443,15,128968,1,0,3:2:0:0:
385,17,129040,1,0,3:2:0:0:
340,51,129111,1,0,3:2:0:0:
323,109,129183,5,6,3:2:0:0:
386,73,129254,1,0,3:2:0:0:
460,86,129325,1,0,3:2:0:0:
508,144,129397,1,0,3:2:0:0:
508,219,129468,1,10,3:2:0:0:
460,276,129540,1,0,3:2:0:0:
386,289,129611,1,0,3:2:0:0:
321,252,129683,1,0,3:2:0:0:
269,199,129754,1,2,3:2:0:0:
200,170,129825,1,0,3:2:0:0:
126,170,129897,1,0,3:2:0:0:
56,197,129968,1,0,3:2:0:0:
3,249,130040,2,0,P|-15:197|4:147,1,111.000004234314,10|0,3:2|3:2,0:0:0:0:
161,3,130230,1,0,3:2:0:0:
161,3,130325,6,0,P|180:53|162:104,1,111.000004234314,6|2,3:2|3:2,0:0:0:0:
3,249,130516,1,2,3:2:0:0:
3,249,130611,2,0,P|-15:197|4:147,1,111.000004234314,2|2,3:2|3:2,0:0:0:0:
259,124,130802,1,2,3:2:0:0:
259,124,130897,6,0,L|366:95,1,111.000004234314,6|2,3:2|3:2,0:0:0:0:
56,197,131087,1,2,3:2:0:0:
56,197,131183,2,0,L|163:225,1,111.000004234314,2|2,3:2|3:2,0:0:0:0:
512,314,131373,1,2,3:2:0:0:
512,314,131468,5,6,3:2:0:0:
450,261,131563,1,2,3:2:0:0:
368,261,131659,1,2,3:2:0:0:
307,314,131754,1,6,3:2:0:0:
246,367,131849,1,2,3:2:0:0:
164,367,131945,1,2,3:2:0:0:
102,314,132040,6,0,L|209:286,1,111.000004234314,6|2,3:2|3:2,0:0:0:0:
503,199,132230,2,0,L|396:171,1,111.000004234314,2|6,3:2|3:2,0:0:0:0:
102,84,132421,2,0,L|209:56,1,111.000004234314,2|2,3:2|3:2,0:0:0:0:
408,372,132611,5,6,3:2:0:0:
256,192,132683,12,0,134897,0:0:0:0:
