osu file format v14

[General]
AudioFilename: audio.mp3
AudioLeadIn: 0
PreviewTime: 95897
Countdown: 0
SampleSet: Soft
StackLeniency: 0.5
Mode: 0
LetterboxInBreaks: 0
WidescreenStoryboard: 0

[Editor]
DistanceSpacing: 1.5
BeatDivisor: 4
GridSize: 4
TimelineZoom: 1.2

[Metadata]
Title:WoRLd Tempest
TitleUnicode:WoRLd Tempest
Artist:sak remixed by LeaF
ArtistUnicode:sak remixed by LeaF
Creator:Kroytz
Version:ADVANCED
Source:K-Shoot MANIA
Tags:Hard Renaissance Artcore Piano Stream Deathstream Anxient Nerova Riuz GX toybot mithew
BeatmapID:1829185
BeatmapSetID:490916

[Difficulty]
HPDrainRate:4.5
CircleSize:3.5
OverallDifficulty:6
ApproachRate:8
SliderMultiplier:1.2
SliderTickRate:1

[Events]
//Background and Video events
0,0,"BG.png",0,0
//Break Periods
2,18525,20325
2,76811,85004
//Storyboard Layer 0 (Background)
//Storyboard Layer 1 (Fail)
//Storyboard Layer 2 (Pass)
//Storyboard Layer 3 (Foreground)
//Storyboard Layer 4 (Overlay)
//Storyboard Sound Samples

[TimingPoints]
1183,285.714285714286,4,2,2,75,1,0
10325,-200,4,2,2,40,0,0
18325,-200,4,2,2,40,0,0
19397,-200,4,2,20,5,0,0
19468,-200,4,2,1,5,0,0
20397,-200,4,2,1,6,0,0
20468,-200,4,2,1,7,0,0
20540,-200,4,2,1,8,0,0
20611,-200,4,2,1,9,0,0
20683,-200,4,2,1,10,0,0
20754,-200,4,2,1,13,0,0
20825,-200,4,2,1,17,0,0
20897,-200,4,2,1,21,0,0
20968,-200,4,2,1,25,0,0
21040,-200,4,2,1,29,0,0
21111,-200,4,2,1,33,0,0
21183,-200,4,2,1,37,0,0
21254,-200,4,2,1,41,0,0
21325,-200,4,2,1,45,0,0
21397,-200,4,2,1,49,0,0
21468,-200,4,2,1,53,0,0
21540,-200,4,2,1,57,0,0
21611,-200,4,2,1,61,0,0
21683,-200,4,2,1,65,0,0
21754,-111.111111111111,4,2,1,70,0,0
30897,-100,4,2,1,70,0,0
39468,-100,4,2,10,70,0,0
39540,-100,4,2,1,70,0,0
40040,-100,4,2,1,80,0,0
48611,-100,4,2,10,80,0,0
48683,-100,4,2,1,80,0,0
58611,-100,4,2,1,60,0,0
59397,-100,4,2,1,5,0,0
59468,-100,4,2,1,60,0,0
59683,-100,4,2,20,5,0,0
59754,-100,4,2,1,60,0,0
61683,-100,4,2,2,5,0,0
61754,-100,4,2,1,60,0,0
69968,-100,4,2,20,5,0,0
70040,-100,4,2,1,60,0,0
72254,-100,4,2,20,5,0,0
72325,-100,4,2,1,60,0,0
73397,-100,4,2,20,5,0,0
73468,-100,4,2,1,60,0,0
73683,-100,4,2,20,5,0,0
73754,-100,4,2,1,60,0,0
74540,-100,4,2,20,5,0,0
74611,-100,4,2,1,60,0,0
74825,-100,4,2,20,5,0,0
74897,-100,4,2,1,60,0,0
85754,-125,4,2,1,60,0,0
95611,-125,4,2,20,5,0,0
95754,-125,4,2,1,80,0,0
95968,-125,4,2,1,5,0,0
96040,-100,4,2,1,80,0,1
104611,-100,4,2,10,80,0,1
104683,-100,4,2,1,80,0,1
108683,-100,4,2,20,5,0,1
108754,-100,4,2,1,80,0,1
113754,-100,4,2,10,80,0,1
113825,-100,4,2,1,80,0,1
114254,-100,4,2,1,80,0,0
114325,-100,4,2,1,80,0,1
122897,-100,4,2,10,80,0,1
122968,-100,4,2,1,80,0,1
126968,-100,4,2,20,5,0,1
127040,-100,4,2,1,80,0,1
132611,-100,4,2,1,80,0,0
134897,-100,4,2,1,5,0,0

[Colours]
Combo1 : 32,123,52
Combo2 : 183,183,183
Combo3 : 88,199,207
Combo4 : 46,152,160

[HitObjects]
61,41,10325,6,0,B|17:127|97:127|55:212,1,180,6|2,0:0|0:0,0:0:0:0:
82,296,11468,2,0,P|53:301|24:296,1,60,2|2,0:0|0:0,0:0:0:0:
142,230,12040,2,0,P|171:225|200:230,1,60,2|2,0:0|0:0,0:0:0:0:
296,332,12611,6,0,L|296:144,1,180,6|2,0:0|0:0,0:0:0:0:
250,73,13754,2,0,L|198:43,1,60,2|2,0:0|0:0,0:0:0:0:
341,74,14325,2,0,L|392:44,1,60,2|2,0:0|0:0,0:0:0:0:
489,175,14897,6,0,P|499:218|488:261,2,90,2|2|2,0:0|0:0|0:0,0:0:0:0:
411,304,16040,2,0,P|400:261|411:218,2,90,2|2|2,0:0|0:0|0:0,0:0:0:0:
495,367,17183,6,0,P|380:339|265:368,1,240,2|2,0:0|0:0,0:0:0:0:
48,256,21754,6,0,P|32:307|47:358,1,107.999996704102,10|0,1:2|3:0,0:0:0:0:
122,307,22183,2,0,P|137:255|121:204,1,107.999996704102,2|0,3:2|3:0,0:0:0:0:
75,128,22611,1,2,3:2:0:0:
75,128,22897,6,0,L|183:128,1,107.999996704102,2|2,3:2|3:2,0:0:0:0:
344,52,23468,2,0,L|236:52,1,107.999996704102,2|2,3:2|3:2,0:0:0:0:
418,102,24040,6,0,P|433:50|418:0,1,107.999996704102,10|2,1:2|3:2,0:0:0:0:
344,52,24469,2,0,P|328:103|344:154,1,107.999996704102,2|2,3:2|3:2,0:0:0:0:
391,231,24897,1,2,3:2:0:0:
391,231,25183,2,0,B|471:231|471:231|490:211,1,107.999996704102,2|2,3:2|3:2,0:0:0:0:
491,383,25754,2,0,B|472:364|472:364|392:364,1,107.999996704102,2|2,3:2|3:2,0:0:0:0:
212,363,26325,5,10,1:2:0:0:
212,363,26754,2,0,P|243:291|212:219,1,161.999995056153,2|2,3:2|3:2,0:0:0:0:
24,249,27468,1,10,1:2:0:0:
24,249,27897,2,0,B|24:291|24:291|144:291,1,161.999995056153,2|2,3:2|3:2,0:0:0:0:
287,185,28611,6,0,L|179:185,1,107.999996704102,10|2,1:2|3:2,0:0:0:0:
102,140,29040,1,2,3:2:0:0:
179,95,29183,2,0,L|287:95,1,107.999996704102,10|0,1:2|3:0,0:0:0:0:
476,53,29754,6,0,B|485:44|485:44|485:-2,3,53.9999983520508,2|2|2|2,1:2|1:2|1:2|1:2,0:0:0:0:
378,3,30325,2,0,B|378:44|378:44|388:53,3,53.9999983520508,6|6|6|2,1:2|1:2|1:2|3:2,0:0:0:0:
431,129,30897,6,0,L|431:249,1,120,6|8,0:2|0:0,0:0:0:0:
376,308,31325,2,0,P|432:288|488:306,1,120,0|2,0:0|0:0,0:0:0:0:
433,383,31754,1,8,0:0:0:0:
222,381,32040,6,0,L|206:323,1,60,2|0,0:0|0:0,0:0:0:0:
76,243,32325,2,0,L|91:300,1,60,8|2,0:0|0:0,0:0:0:0:
218,239,32611,2,0,L|160:254,1,60,0|2,0:0|0:0,0:0:0:0:
80,384,32897,2,0,L|137:368,1,60,8|0,0:0|0:0,0:0:0:0:
301,274,33183,6,0,P|303:215|271:166,1,120,2|8,0:0|0:0,0:0:0:0:
218,239,33611,2,0,P|185:189|188:131,1,120,0|2,0:0|0:0,0:0:0:0:
271,166,34040,2,0,L|328:150,1,60,8|0,0:0|0:0,0:0:0:0:
392,97,34325,6,0,L|305:120,2,90,2|0|2,0:0|0:0|0:0,0:0:0:0:
468,22,34968,1,0,0:0:0:0:
496,125,35183,2,0,L|518:208,1,60,8|2,0:0|0:0,0:0:0:0:
500,266,35468,6,0,P|455:269|414:288,1,90,2|0,0:0|0:0,0:0:0:0:
394,325,35754,2,0,P|349:321|308:302,1,90,8|0,0:0|0:0,0:0:0:0:
288,266,36040,2,0,P|243:269|202:288,1,90,0|0,0:0|0:0,0:0:0:0:
182,325,36325,2,0,P|137:321|96:302,1,90,8|0,0:0|0:0,0:0:0:0:
70,269,36611,6,0,L|47:356,1,90,0|0,0:0|0:0,0:0:0:0:
39,384,36897,1,8,0:0:0:0:
150,218,37183,2,0,L|127:131,1,90,2|0,0:0|0:0,0:0:0:0:
119,103,37469,1,8,0:0:0:0:
280,60,37754,6,0,B|344:43|344:43|382:65|382:65|450:47,2,180,2|2|8,0:0|0:0|0:0,0:0:0:0:
197,25,38754,1,0,0:0:0:0:
197,25,38897,2,0,P|195:84|227:133,1,120,2|8,0:0|0:0,0:0:0:0:
318,142,39325,1,2,0:0:0:0:
265,215,39468,2,0,L|207:230,1,60,10|2,0:0|0:0,0:0:0:0:
355,223,39754,2,0,L|412:207,1,60,8|2,0:0|0:0,0:0:0:0:
512,272,40040,6,0,L|396:303,1,120,6|8,0:0|0:0,0:0:0:0:
304,296,40468,2,0,L|188:327,1,120,0|2,0:0|0:0,0:0:0:0:
96,320,40897,2,0,L|117:401,1,60,8|0,0:0|0:0,0:0:0:0:
131,236,41183,6,0,P|72:234|23:266,1,120,2|8,0:0|0:0,0:0:0:0:
22,266,41611,1,2,0:0:0:0:
51,145,41754,2,0,L|18:25,1,120,0|8,0:0|0:0,0:0:0:0:
19,29,42183,1,0,0:0:0:0:
139,60,42325,6,0,B|170:78|170:78|251:56,1,120,2|8,0:0|0:0,0:0:0:0:
340,32,42754,2,0,B|421:10|421:10|452:28,1,120,0|2,0:0|0:0,0:0:0:0:
406,106,43183,2,0,L|421:163,1,60,8|0,0:0|0:0,0:0:0:0:
504,253,43468,6,0,P|444:251|395:283,1,120,2|8,0:0|0:0,0:0:0:0:
395,283,43897,1,2,0:0:0:0:
472,347,44040,2,0,P|422:379|363:377,1,120,0|8,0:0|0:0,0:0:0:0:
363,377,44468,1,2,0:0:0:0:
297,302,44611,6,0,L|281:244,2,60,2|0|8,0:0|0:0|0:0,0:0:0:0:
208,300,45040,2,0,L|192:357,2,60,0|0|2,0:0|0:0|0:0,0:0:0:0:
119,302,45468,2,0,L|103:244,1,60,8|2,0:0|0:0,0:0:0:0:
34,176,45754,6,0,B|-8:187|-8:187|-16:202,2,60,0|2|8,0:0|0:0|0:0,0:0:0:0:
130,150,46183,2,0,B|172:138|172:138|187:147,2,60,0|2|2,0:0|0:0|0:0,0:0:0:0:
60,80,46611,2,0,L|44:22,1,60,8|0,0:0|0:0,0:0:0:0:
159,32,46897,6,0,L|274:0,1,120,2|8,0:0|0:0,0:0:0:0:
274,0,47325,1,2,0:0:0:0:
251,88,47468,2,0,L|266:145,1,60,0|2,0:0|0:0,0:0:0:0:
339,64,47754,2,0,L|354:121,1,60,8|0,0:0|0:0,0:0:0:0:
332,208,48040,5,6,1:2:0:0:
395,272,48183,1,6,1:2:0:0:
308,295,48325,1,0,0:0:0:0:
420,184,48468,2,0,B|512:184|512:184|512:212,1,120,6|6,1:2|1:2,0:0:0:0:
512,324,48897,2,0,L|512:355,3,30,2|2|10|2,0:0|0:0|0:0|0:0,0:0:0:0:
512,384,49183,6,0,B|488:360|488:360|401:360,1,120,6|8,0:2|0:0,0:0:0:0:
312,360,49611,2,0,B|225:360|225:360|201:336,1,120,0|2,0:0|0:0,0:0:0:0:
116,310,50040,2,0,P|139:272|178:249,1,90,8|0,0:0|0:0,0:0:0:0:
212,221,50325,6,0,L|140:222,1,60,2|0,0:0|0:0,0:0:0:0:
36,149,50611,2,0,L|109:149,1,60,8|2,0:0|0:0,0:0:0:0:
212,77,50897,2,0,L|139:77,1,60,0|2,0:0|0:0,0:0:0:0:
36,5,51183,2,0,L|109:5,1,60,8|0,0:0|0:0,0:0:0:0:
282,22,51468,6,0,P|301:77|282:133,1,120,2|8,0:0|0:0,0:0:0:0:
212,77,51897,2,0,P|192:132|211:188,1,120,0|2,0:0|0:0,0:0:0:0:
294,222,52325,2,0,P|337:212|381:221,1,90,8|0,0:0|0:0,0:0:0:0:
417,194,52611,6,0,L|417:254,1,60,2|0,0:0|0:0,0:0:0:0:
495,299,52897,2,0,L|495:359,1,60,8|2,0:0|0:0,0:0:0:0:
405,343,53183,2,0,B|393:331|393:331|349:330,1,60,0|2,0:0|0:0,0:0:0:0:
259,330,53468,2,0,B|215:330|215:330|203:342,1,60,8|2,0:0|0:0,0:0:0:0:
113,357,53754,6,0,L|113:237,1,120,6|8,0:0|0:0,0:0:0:0:
113,237,54183,1,0,0:0:0:0:
64,160,54325,2,0,B|20:160|20:160|8:148,1,60,0|0,0:0|0:0,0:0:0:0:
158,158,54611,2,0,B|201:158|201:158|213:146,1,60,8|0,0:0|0:0,0:0:0:0:
308,0,54897,6,0,L|308:120,1,120,6|10,0:0|0:0,0:0:0:0:
308,214,55325,1,2,0:0:0:0:
389,166,55468,2,0,P|418:161|448:164,1,60,2|2,0:0|0:0,0:0:0:0:
448,261,55754,2,0,P|418:264|388:259,1,60,10|0,0:0|0:0,0:0:0:0:
308,214,56040,5,6,0:0:0:0:
256,192,56111,12,0,58325,3:0:0:0:
34,341,58611,6,0,P|91:357|147:340,1,120,12|2,0:0|0:0,0:0:0:0:
225,298,59040,2,0,P|236:341|225:384,2,90,2|0|2,0:0|0:0|0:0,0:0:0:0:
150,253,59611,1,0,0:0:0:0:
150,253,59754,2,0,L|90:253,1,60,8|0,0:0|0:0,0:0:0:0:
226,211,60040,2,0,L|286:211,1,60,2|2,3:2|3:2,0:0:0:0:
152,167,60325,2,0,L|112:168,3,30,10|2|2|2,0:0|0:0|0:0|0:0,0:0:0:0:
76,167,60611,6,0,B|100:143|100:143|100:56,1,120,2|8,0:0|0:0,0:0:0:0:
192,0,61040,2,0,B|192:87|192:87|216:111,1,120,0|2,0:0|0:0,0:0:0:0:
304,128,61468,2,0,L|364:128,1,60,8|0,0:0|0:0,0:0:0:0:
434,183,61754,2,0,P|453:127|434:71,2,120,2|8|2,0:0|0:0|3:2,0:0:0:0:
351,216,62468,1,2,3:2:0:0:
420,272,62611,2,0,L|420:303,3,30,8|0|2|2,0:0|0:0|0:0|0:0,0:0:0:0:
420,332,62897,6,0,B|396:308|396:308|309:308,1,120,2|8,0:0|0:0,0:0:0:0:
219,308,63325,1,0,0:0:0:0:
264,229,63468,2,0,P|274:185|262:142,2,90,2|0|0,0:0|0:0|0:0,0:0:0:0:
219,308,64040,2,0,B|132:308|132:308|108:284,1,120,2|8,0:0|3:2,0:0:0:0:
108,284,64468,1,0,3:2:0:0:
25,252,64611,2,0,P|19:287|25:319,1,60,2|2,3:2|3:2,0:0:0:0:
95,197,64897,2,0,P|101:162|95:130,1,60,8|0,0:0|0:0,0:0:0:0:
85,117,65111,1,0,0:0:0:0:
69,99,65183,6,0,L|158:98,1,90,2|0,0:0|0:0,0:0:0:0:
184,60,65468,2,0,L|274:60,1,90,8|0,0:0|0:0,0:0:0:0:
299,21,65754,2,0,L|371:21,1,60,2|2,0:0|0:0,0:0:0:0:
512,121,66183,2,0,B|425:121|425:121|401:145,1,120,0|2,0:0|0:0,0:0:0:0:
315,172,66611,2,0,B|402:172|402:172|426:196,1,120,8|2,0:0|3:2,0:0:0:0:
508,232,67040,2,0,B|489:250|489:250|489:314,1,90,2|2,3:2|3:2,0:0:0:0:
360,354,67468,6,0,B|229:355,1,120,6|8,0:0|0:0,0:0:0:0:
240,355,67897,1,0,0:0:0:0:
157,324,68040,2,0,P|152:354|156:384,2,60,2|2|8,0:0|0:0|0:0,0:0:0:0:
224,267,68468,2,0,P|242:212|224:156,1,120,0|0,0:0|0:0,0:0:0:0:
154,99,68897,2,0,P|136:155|155:211,1,120,8|2,3:2|3:2,0:0:0:0:
223,154,69325,2,0,L|313:154,1,90,2|0,0:0|0:0,0:0:0:0:
216,56,69754,6,0,L|96:56,2,120,2|8|2,0:0|0:0|0:0,0:0:0:0:
287,0,70468,1,2,0:0:0:0:
357,56,70611,1,8,0:0:0:0:
427,0,70754,2,0,P|446:55|428:112,1,120,0|0,0:0|0:0,0:0:0:0:
371,170,71183,2,0,P|427:152|483:171,1,120,8|2,3:2|3:2,0:0:0:0:
426,241,71611,2,0,L|426:331,1,90,2|0,0:0|0:0,0:0:0:0:
272,331,72040,6,0,B|185:331|185:331|161:355,2,120,2|8|2,0:0|0:0|0:0,0:0:0:0:
272,331,72755,1,2,0:0:0:0:
345,292,72897,1,8,0:0:0:0:
275,248,73040,2,0,B|188:248|188:248|164:224,1,120,0|0,0:0|0:0,0:0:0:0:
84,266,73468,2,0,P|75:223|86:180,1,90,8|0,0:0|0:0,0:0:0:0:
101,152,73754,2,0,L|11:152,2,90,2|0|0,0:0|0:0|0:0,0:0:0:0:
164,79,74325,6,0,L|284:79,1,120,2|8,0:0|0:0,0:0:0:0:
284,79,74754,1,0,0:0:0:0:
357,37,74897,2,0,B|368:25|368:25|412:25,1,60,2|2,0:0|0:0,0:0:0:0:
412,132,75183,2,0,B|368:132|368:132|357:121,1,60,8|0,0:0|0:0,0:0:0:0:
488,76,75468,6,0,P|505:133|487:189,1,120,2|8,0:0|0:0,0:0:0:0:
487,189,75897,1,2,0:0:0:0:
397,225,76040,2,0,P|410:251|432:271,1,60,2|2,0:0|0:0,0:0:0:0:
512,328,76325,2,0,P|492:350|465:363,1,60,8|0,0:0|0:0,0:0:0:0:
368,345,76611,1,6,0:0:0:0:
116,41,85754,6,0,P|69:29|23:41,1,96,2|2,1:2|1:2,0:0:0:0:
69,117,86325,2,0,P|115:128|161:116,1,96,2|2,1:2|1:2,0:0:0:0:
238,164,86897,2,0,P|250:118|239:72,1,96,2|2,1:2|1:2,0:0:0:0:
161,116,87468,2,0,P|148:161|160:208,1,96,2|2,1:2|1:2,0:0:0:0:
240,252,88040,6,0,B|304:252|304:252|326:274,1,96,2|2,1:2|1:2,0:0:0:0:
393,344,88611,2,0,B|415:366|415:366|479:366,1,96,2|2,1:2|1:2,0:0:0:0:
509,275,89183,2,0,L|461:275,1,48,2|0,1:2|0:0,0:0:0:0:
380,200,89468,2,0,L|428:200,1,48,2|0,1:2|0:0,0:0:0:0:
509,125,89754,2,0,L|461:125,1,48,2|0,1:2|0:0,0:0:0:0:
380,50,90040,2,0,L|428:50,1,48,2|0,1:2|0:0,0:0:0:0:
303,4,90325,6,0,P|290:50|303:96,1,96,2|2,1:2|1:2,0:0:0:0:
330,137,90754,2,0,L|222:137,1,96,0|0,0:0|0:0,0:0:0:0:
196,106,91183,2,0,L|133:106,1,48,2|0,1:2|0:0,0:0:0:0:
70,82,91468,2,0,P|66:105|68:129,1,48,2|0,1:2|0:0,0:0:0:0:
129,186,91754,2,0,P|132:209|130:233,1,48,2|0,1:2|0:0,0:0:0:0:
104,312,92040,2,0,L|152:312,1,48,2|0,1:2|0:0,0:0:0:0:
233,312,92325,2,0,L|281:312,1,48,2|0,1:2|0:0,0:0:0:0:
363,312,92611,1,2,1:2:0:0:
256,192,92683,12,0,94897,0:0:0:0:
2,297,96040,6,0,P|58:280|115:298,1,120,6|8,0:0|0:0,0:0:0:0:
193,342,96468,2,0,P|249:360|306:344,1,120,0|2,0:0|0:0,0:0:0:0:
388,301,96897,1,8,0:0:0:0:
467,347,97040,1,0,0:0:0:0:
467,258,97183,6,0,L|500:199,1,60,2|0,0:0|0:0,0:0:0:0:
388,212,97468,2,0,L|354:153,1,60,8|2,0:0|0:0,0:0:0:0:
467,116,97754,2,0,L|500:57,1,60,0|2,0:0|0:0,0:0:0:0:
388,68,98040,2,0,L|353:7,1,60,8|0,0:0|0:0,0:0:0:0:
294,89,98325,6,0,P|237:106|181:89,1,120,2|8,0:0|0:0,0:0:0:0:
238,18,98754,2,0,P|181:1|125:17,1,120,0|2,0:0|0:0,0:0:0:0:
91,102,99183,1,8,0:0:0:0:
33,29,99325,1,0,0:0:0:0:
0,114,99468,6,0,L|15:171,1,60,2|0,0:0|0:0,0:0:0:0:
112,201,99754,2,0,L|127:258,1,60,8|2,0:0|0:0,0:0:0:0:
11,118,100040,2,0,L|26:175,1,60,0|2,0:0|0:0,0:0:0:0:
123,205,100326,2,0,L|138:262,1,60,8|2,0:0|0:0,0:0:0:0:
116,364,100611,6,0,B|73:375|73:375|59:367,2,60,2|0|8,0:0|0:0|0:0,0:0:0:0:
208,339,101040,2,0,B|250:327|250:327|258:313,2,60,0|0|2,0:0|0:0|0:0,0:0:0:0:
138,262,101468,2,0,L|122:204,1,60,8|2,0:0|0:0,0:0:0:0:
52,128,101754,6,0,B|9:139|9:139|1:153,2,60,0|2|8,0:0|0:0|0:0,0:0:0:0:
144,102,102183,2,0,B|186:90|186:90|200:98,2,60,0|2|2,0:0|0:0|0:0,0:0:0:0:
122,204,102611,2,0,L|138:261,1,60,8|0,0:0|0:0,0:0:0:0:
232,216,102897,6,0,B|248:188|248:188|333:165,1,120,2|8,0:0|0:0,0:0:0:0:
333,165,103325,1,2,0:0:0:0:
411,209,103468,2,0,B|496:186|496:186|512:158,1,120,0|8,0:0|0:0,0:0:0:0:
512,157,103896,1,0,0:0:0:0:
508,68,104040,6,0,L|495:21,7,30,2|0|2|0|8|0|2|0,0:0|0:0|0:0|0:0|0:0|0:0|0:0|0:0,0:0:0:0:
472,41,104611,2,0,L|459:-5,7,30,10|0|2|2|8|0|2|0,0:0|0:0|0:0|0:0|0:0|0:0|0:0|0:0,0:0:0:0:
436,14,105183,6,0,L|320:45,1,120,6|8,0:0|0:0,0:0:0:0:
240,3,105611,2,0,L|124:34,1,120,0|2,0:0|0:0,0:0:0:0:
33,9,106040,1,8,0:0:0:0:
33,9,106183,1,0,0:0:0:0:
58,100,106325,6,0,L|73:158,1,60,2|0,0:0|0:0,0:0:0:0:
147,226,106611,2,0,L|163:168,1,60,8|2,0:0|0:0,0:0:0:0:
43,253,106897,2,0,L|0:210,1,60,0|2,0:0|0:0,0:0:0:0:
116,320,107183,2,0,L|131:378,1,60,8|0,0:0|0:0,0:0:0:0:
272,327,107468,5,12,1:2:0:0:
272,327,107754,5,12,1:2:0:0:
322,226,107897,1,12,1:2:0:0:
384,320,108183,5,12,1:2:0:0:
384,320,108468,6,0,B|408:334|408:334|468:318,1,90,6|0,1:2|0:0,0:0:0:0:
496,314,108754,2,0,L|511:371,2,60,0|8|2,0:0|0:0|0:0,0:0:0:0:
434,220,109183,2,0,L|449:162,2,60,0|2|8,0:0|0:0|0:0,0:0:0:0:
384,320,109611,1,0,0:0:0:0:
322,226,109754,6,0,B|294:209|294:209|209:232,1,120,2|8,0:0|0:0,0:0:0:0:
127,198,110183,2,0,P|122:256|156:305,1,120,0|2,0:0|0:0,0:0:0:0:
261,372,110611,2,0,P|258:342|246:314,1,60,8|2,0:0|0:0,0:0:0:0:
127,198,110897,6,0,L|69:213,1,60,0|2,0:0|0:0,0:0:0:0:
209,232,111183,2,0,L|266:216,1,60,8|0,0:0|0:0,0:0:0:0:
116,110,111468,2,0,L|58:125,1,60,2|2,0:0|0:0,0:0:0:0:
198,144,111754,2,0,L|255:128,1,60,8|0,0:0|0:0,0:0:0:0:
372,18,112040,6,0,B|355:45|355:45|378:130,1,120,2|8,0:0|0:0,0:0:0:0:
470,18,112468,2,0,B|486:45|486:45|463:130,1,120,2|2,0:0|0:0,0:0:0:0:
419,204,112897,2,0,L|419:280,1,60,8|0,0:0|0:0,0:0:0:0:
476,324,113183,6,0,P|419:307|362:323,1,120,2|8,0:0|0:0,0:0:0:0:
280,364,113611,2,0,P|222:380|166:363,1,120,2|2,0:0|0:0,0:0:0:0:
105,296,114040,1,8,0:0:0:0:
76,382,114183,1,0,0:0:0:0:
223,280,114325,6,0,P|242:225|224:168,1,120,6|8,0:0|0:0,0:0:0:0:
154,111,114754,2,0,P|135:167|152:223,1,120,0|2,0:0|0:0,0:0:0:0:
224,168,115183,1,8,0:0:0:0:
154,111,115325,1,0,0:0:0:0:
239,81,115468,6,0,L|299:81,1,60,2|0,0:0|0:0,0:0:0:0:
382,50,115754,2,0,P|387:79|382:108,1,60,8|2,0:0|0:0,0:0:0:0:
314,167,116040,2,0,P|309:196|314:225,1,60,0|2,0:0|0:0,0:0:0:0:
398,198,116325,2,0,L|458:198,1,60,8|0,0:0|0:0,0:0:0:0:
489,307,116611,6,0,B|468:283|468:283|380:284,1,120,2|8,0:0|0:0,0:0:0:0:
318,350,117040,2,0,B|229:350|229:350|208:326,1,120,0|2,0:0|0:0,0:0:0:0:
164,248,117468,1,8,0:0:0:0:
120,327,117611,1,0,0:0:0:0:
75,248,117754,6,0,L|45:196,1,60,2|0,0:0|0:0,0:0:0:0:
164,248,118040,2,0,L|194:196,1,60,8|2,0:0|0:0,0:0:0:0:
64,244,118325,2,0,L|34:192,1,60,0|2,0:0|0:0,0:0:0:0:
175,244,118611,2,0,L|205:192,1,60,8|2,0:0|0:0,0:0:0:0:
120,108,118897,6,0,L|120:168,2,60,2|0|8,0:0|0:0|0:0,0:0:0:0:
80,28,119325,2,0,L|28:-2,2,60,0|0|2,0:0|0:0|0:0,0:0:0:0:
160,28,119754,2,0,L|211:-2,1,60,8|2,0:0|0:0,0:0:0:0:
274,129,120040,6,0,B|255:123|255:123|235:87,2,60,0|2|8,0:0|0:0|0:0,0:0:0:0:
351,84,120468,2,0,B|355:65|355:65|334:30,2,60,0|2|2,0:0|0:0|0:0,0:0:0:0:
351,173,120897,2,0,L|383:229,1,60,8|0,0:0|0:0,0:0:0:0:
480,264,121183,6,0,L|376:324,1,120,2|8,0:0|0:0,0:0:0:0:
376,324,121611,1,2,0:0:0:0:
293,270,121754,2,0,L|189:330,1,120,0|8,0:0|0:0,0:0:0:0:
189,329,122183,1,0,0:0:0:0:
100,300,122325,6,0,L|100:348,7,30,2|0|2|0|8|0|2|0,0:0|0:0|0:0|0:0|0:0|0:0|0:0|0:0,0:0:0:0:
100,356,122897,2,0,L|27:314,1,60,8|2,0:0|0:0,0:0:0:0:
176,248,123183,2,0,L|227:218,1,60,8|2,0:0|0:0,0:0:0:0:
99,139,123468,6,0,B|68:108|68:108|68:31,1,120,6|8,0:0|0:0,0:0:0:0:
153,63,123897,2,0,P|210:48|267:64,1,120,0|2,0:0|0:0,0:0:0:0:
339,118,124325,1,8,0:0:0:0:
339,118,124468,1,0,0:0:0:0:
416,71,124611,6,0,L|430:11,1,60,2|0,0:0|0:0,0:0:0:0:
466,125,124825,2,0,L|452:66,1,60,2|0,0:0|0:0,0:0:0:0:
416,179,125040,2,0,L|430:119,1,60,2|0,0:0|0:0,0:0:0:0:
466,233,125254,2,0,L|452:173,1,60,2|0,0:0|0:0,0:0:0:0:
416,287,125468,2,0,L|430:227,1,60,10|0,0:0|0:0,0:0:0:0:
468,340,125754,5,12,1:2:0:0:
320,270,125897,1,12,1:2:0:0:
472,354,126183,5,12,1:2:0:0:
324,284,126468,1,12,1:2:0:0:
190,378,126754,2,0,B|120:378|120:378|105:363,1,90,6|0,1:2|0:0,0:0:0:0:
72,333,127040,2,0,L|12:332,2,60,2|10|2,0:0|0:0|0:0,0:0:0:0:
113,253,127468,2,0,L|173:253,2,60,2|0|8,0:0|0:0|0:0,0:0:0:0:
31,253,127897,1,0,0:0:0:0:
71,171,128040,6,0,P|66:142|72:113,3,60,6|0|8|0,3:2|3:2|3:2|3:2,0:0:0:0:
156,145,128611,2,0,P|161:115|156:86,3,60,2|0|8|0,3:2|3:2|3:2|3:2,0:0:0:0:
125,0,129183,2,0,L|210:0,3,60,6|0|10|0,3:2|3:2|3:2|3:2,0:0:0:0:
244,67,129754,2,0,L|329:67,3,60,2|0|10|0,3:2|3:2|3:2|0:0,0:0:0:0:
368,128,130325,6,0,L|348:162,2,40,6|2|2,3:2|3:2|3:2,0:0:0:0:
434,186,130611,2,0,L|454:220,2,40,2|2|2,3:2|3:2|3:2,0:0:0:0:
368,243,130897,2,0,L|348:277,2,40,6|2|2,3:2|3:2|3:2,0:0:0:0:
434,301,131183,2,0,L|454:335,2,40,2|2|2,3:2|3:2|3:2,0:0:0:0:
256,192,131468,12,6,132611,3:2:0:0:
