osu file format v14

[General]
AudioFilename: audio.mp3
AudioLeadIn: 0
PreviewTime: 50963
Countdown: 0
SampleSet: Soft
StackLeniency: 0.7
Mode: 3
LetterboxInBreaks: 0
SpecialStyle: 0
WidescreenStoryboard: 1

[Editor]
Bookmarks: 17869,34421,42687,50963,75791,84066,96480,119239
DistanceSpacing: 1
BeatDivisor: 8
GridSize: 16
TimelineZoom: 1.8

[Metadata]
Title:Unleashed World
TitleUnicode:Unleashed World
Artist:sak feat. Myui
ArtistUnicode:sak feat. みゅい
Creator:keksikosu
Version:Another
Source:G2R2018 Climax
Tags:bms of fighters bof go back 2 your roots 2018 piano jumpstream js handstream hs electronic english video game 音ゲーがうまい Aufheben female vocal albionshallah randelman4ik katagiri k_a_t_a_g_i_r_i
BeatmapID:3829281
BeatmapSetID:1859895

[Difficulty]
HPDrainRate:8
CircleSize:4
OverallDifficulty:8
ApproachRate:5
SliderMultiplier:1.4
SliderTickRate:1

[Events]
//Background and Video events
0,0,"Devochka.jpg",0,0
Video,-90,"Nya.mp4"
//Break Periods
//Storyboard Layer 0 (Background)
//Storyboard Layer 1 (Fail)
//Storyboard Layer 2 (Pass)
//Storyboard Layer 3 (Foreground)
//Storyboard Layer 4 (Overlay)
//Storyboard Sound Samples

[TimingPoints]
3120,258.620689655172,4,2,1,40,1,0
17861,258.620689655172,4,2,1,40,1,0
50964,-100,4,2,1,40,0,1
67516,-100,4,2,1,40,0,0
71654,-100,4,2,1,40,0,1
75792,-100,4,2,1,40,0,0
96481,-100,4,2,1,40,0,1
108895,-100,4,2,1,40,0,0
113033,-100,4,2,1,40,0,1
121309,-100,4,2,1,40,0,0

[HitObjects]
320,192,3119,128,0,3766:0:0:0:0:
448,192,3119,1,0,0:0:0:0:
192,192,3895,128,0,5188:0:0:0:0:
64,192,4154,1,0,0:0:0:0:
448,192,4154,1,0,0:0:0:0:
320,192,4671,1,0,0:0:0:0:
64,192,5188,1,0,0:0:0:0:
448,192,5447,128,0,5706:0:0:0:0:
64,192,5706,128,0,6223:0:0:0:0:
320,192,5706,1,0,0:0:0:0:
448,192,5964,128,0,6223:0:0:0:0:
192,192,6223,1,0,0:0:0:0:
320,192,6223,128,0,6740:0:0:0:0:
64,192,6482,1,0,0:0:0:0:
448,192,6740,1,0,0:0:0:0:
192,192,6999,1,0,0:0:0:0:
448,192,7214,1,0,0:0:0:0:
64,192,7257,1,0,0:0:0:0:
192,192,7257,128,0,7904:0:0:0:0:
320,192,8033,1,0,0:0:0:0:
64,192,8163,1,0,0:0:0:0:
192,192,8227,1,0,0:0:0:0:
320,192,8292,1,0,0:0:0:0:
448,192,8292,128,0,8809:0:0:0:0:
64,192,8809,128,0,9068:0:0:0:0:
448,192,9068,1,0,0:0:0:0:
320,192,9132,1,0,0:0:0:0:
64,192,9197,1,0,0:0:0:0:
192,192,9262,1,0,0:0:0:0:
320,192,9326,128,0,9973:0:0:0:0:
448,192,9326,1,0,0:0:0:0:
64,192,9585,1,0,0:0:0:0:
192,192,9714,1,0,0:0:0:0:
448,192,9844,1,0,0:0:0:0:
192,192,9973,1,0,0:0:0:0:
64,192,10102,1,0,0:0:0:0:
320,192,10232,1,0,0:0:0:0:
64,192,10361,1,0,0:0:0:0:
192,192,10361,128,0,10749:0:0:0:0:
448,192,10490,1,0,0:0:0:0:
320,192,10619,1,0,0:0:0:0:
64,192,10749,1,0,0:0:0:0:
320,192,10878,1,0,0:0:0:0:
448,192,10878,128,0,11137:0:0:0:0:
64,192,11007,1,0,0:0:0:0:
192,192,11137,1,0,0:0:0:0:
320,192,11266,1,0,0:0:0:0:
64,192,11395,128,0,12947:0:0:0:0:
448,192,11395,1,0,0:0:0:0:
192,192,11525,1,0,0:0:0:0:
320,192,11654,1,0,0:0:0:0:
448,192,11783,1,0,0:0:0:0:
320,192,11913,1,0,0:0:0:0:
192,192,12042,1,0,0:0:0:0:
448,192,12171,1,0,0:0:0:0:
320,192,12301,1,0,0:0:0:0:
192,192,12430,1,0,0:0:0:0:
320,192,12559,1,0,0:0:0:0:
448,192,12688,1,0,0:0:0:0:
192,192,12818,1,0,0:0:0:0:
320,192,12947,1,0,0:0:0:0:
448,192,13076,1,0,0:0:0:0:
64,192,13206,1,0,0:0:0:0:
192,192,13206,1,0,0:0:0:0:
320,192,13335,1,0,0:0:0:0:
192,192,13464,1,0,0:0:0:0:
448,192,13464,128,0,15533:0:0:0:0:
64,192,13594,1,0,0:0:0:0:
320,192,13723,1,0,0:0:0:0:
192,192,13852,1,0,0:0:0:0:
64,192,13982,1,0,0:0:0:0:
192,192,14111,1,0,0:0:0:0:
320,192,14240,1,0,0:0:0:0:
64,192,14369,1,0,0:0:0:0:
192,192,14499,1,0,0:0:0:0:
320,192,14628,1,0,0:0:0:0:
192,192,14757,1,0,0:0:0:0:
64,192,14887,1,0,0:0:0:0:
320,192,15016,1,0,0:0:0:0:
192,192,15145,1,0,0:0:0:0:
64,192,15275,1,0,0:0:0:0:
320,192,15404,1,0,0:0:0:0:
64,192,15533,1,0,0:0:0:0:
192,192,15598,1,0,0:0:0:0:
320,192,15663,128,0,16568:0:0:0:0:
192,192,16826,1,0,0:0:0:0:
64,192,16956,1,0,0:0:0:0:
320,192,17085,1,0,0:0:0:0:
192,192,17214,1,0,0:0:0:0:
448,192,17344,1,0,0:0:0:0:
320,192,17473,1,0,0:0:0:0:
64,192,17602,1,0,0:0:0:0:
192,192,17732,1,0,0:0:0:0:
320,192,17861,1,0,0:0:0:0:
448,192,17904,128,0,18378:0:0:0:0:
64,192,18378,128,0,18895:0:0:0:0:
320,192,18895,128,0,19154:0:0:0:0:
448,192,18895,1,0,0:0:0:0:
192,192,19154,128,0,19412:0:0:0:0:
64,192,19412,1,0,0:0:0:0:
448,192,19412,128,0,19671:0:0:0:0:
320,192,19671,128,0,19929:0:0:0:0:
64,192,19929,1,0,0:0:0:0:
192,192,19973,128,0,20964:0:0:0:0:
448,192,20964,1,0,0:0:0:0:
448,192,21223,1,0,0:0:0:0:
192,192,21287,1,0,0:0:0:0:
448,192,21352,1,0,0:0:0:0:
64,192,21417,1,0,0:0:0:0:
320,192,21481,1,0,0:0:0:0:
192,192,21546,1,0,0:0:0:0:
448,192,21610,1,0,0:0:0:0:
64,192,21675,1,0,0:0:0:0:
448,192,21740,1,0,0:0:0:0:
192,192,21804,1,0,0:0:0:0:
320,192,21869,1,0,0:0:0:0:
64,192,21934,1,0,0:0:0:0:
192,192,21998,1,0,0:0:0:0:
448,192,22042,128,0,22516:0:0:0:0:
192,192,22516,128,0,23033:0:0:0:0:
64,192,23033,128,0,23292:0:0:0:0:
448,192,23033,1,0,0:0:0:0:
320,192,23292,128,0,23550:0:0:0:0:
64,192,23550,1,0,0:0:0:0:
192,192,23550,128,0,23809:0:0:0:0:
448,192,23809,128,0,24067:0:0:0:0:
320,192,24067,1,0,0:0:0:0:
64,192,24110,128,0,24843:0:0:0:0:
320,192,24843,128,0,25102:0:0:0:0:
448,192,25102,1,0,0:0:0:0:
192,192,25145,128,0,26136:0:0:0:0:
64,192,25360,1,0,0:0:0:0:
320,192,25490,1,0,0:0:0:0:
64,192,25748,1,0,0:0:0:0:
320,192,25878,1,0,0:0:0:0:
64,192,26136,1,0,0:0:0:0:
320,192,26179,128,0,26654:0:0:0:0:
448,192,26654,128,0,27171:0:0:0:0:
64,192,27171,1,0,0:0:0:0:
192,192,27171,128,0,27429:0:0:0:0:
320,192,27429,128,0,27688:0:0:0:0:
64,192,27688,128,0,27947:0:0:0:0:
448,192,27688,1,0,0:0:0:0:
192,192,27947,128,0,28205:0:0:0:0:
448,192,28205,1,0,0:0:0:0:
320,192,28248,128,0,29240:0:0:0:0:
64,192,29240,1,0,0:0:0:0:
64,192,29498,1,0,0:0:0:0:
320,192,29563,1,0,0:0:0:0:
64,192,29628,1,0,0:0:0:0:
448,192,29692,1,0,0:0:0:0:
192,192,29757,1,0,0:0:0:0:
320,192,29822,1,0,0:0:0:0:
64,192,29886,1,0,0:0:0:0:
448,192,29951,1,0,0:0:0:0:
64,192,30016,1,0,0:0:0:0:
320,192,30080,1,0,0:0:0:0:
192,192,30145,1,0,0:0:0:0:
448,192,30210,1,0,0:0:0:0:
320,192,30274,1,0,0:0:0:0:
64,192,30317,128,0,30792:0:0:0:0:
192,192,30792,128,0,31309:0:0:0:0:
64,192,31309,1,0,0:0:0:0:
448,192,31309,128,0,31567:0:0:0:0:
320,192,31567,128,0,31826:0:0:0:0:
64,192,31826,128,0,32085:0:0:0:0:
448,192,31826,1,0,0:0:0:0:
192,192,32085,128,0,32343:0:0:0:0:
64,192,32343,1,0,0:0:0:0:
320,192,32386,128,0,33119:0:0:0:0:
448,192,33119,1,0,0:0:0:0:
64,192,33378,1,0,0:0:0:0:
192,192,33378,1,0,0:0:0:0:
320,192,33507,1,0,0:0:0:0:
448,192,33636,1,0,0:0:0:0:
192,192,33766,1,0,0:0:0:0:
320,192,33895,1,0,0:0:0:0:
64,192,34024,1,0,0:0:0:0:
192,192,34154,1,0,0:0:0:0:
448,192,34283,1,0,0:0:0:0:
64,192,34412,1,2,0:0:0:0:
192,192,34412,1,4,0:0:0:0:
320,192,34412,1,0,0:0:0:0:
448,192,34542,1,0,0:0:0:0:
64,192,34671,1,2,0:0:0:0:
192,192,34671,1,8,0:0:0:0:
64,192,34800,1,0,0:0:0:0:
320,192,34929,1,2,0:0:0:0:
448,192,34929,1,0,0:0:0:0:
192,192,35059,1,0,0:0:0:0:
64,192,35188,1,2,0:0:0:0:
320,192,35188,1,8,0:0:0:0:
320,192,35317,1,0,0:0:0:0:
192,192,35447,1,2,0:0:0:0:
448,192,35447,1,0,0:0:0:0:
64,192,35576,1,0,0:0:0:0:
320,192,35705,1,2,0:0:0:0:
448,192,35705,1,8,0:0:0:0:
448,192,35835,1,0,0:0:0:0:
64,192,35964,1,2,0:0:0:0:
192,192,35964,1,0,0:0:0:0:
320,192,36093,1,0,0:0:0:0:
192,192,36223,1,2,0:0:0:0:
448,192,36223,1,8,0:0:0:0:
192,192,36352,1,0,0:0:0:0:
64,192,36481,1,2,0:0:0:0:
320,192,36481,1,0,0:0:0:0:
448,192,36610,1,0,0:0:0:0:
64,192,36740,1,2,0:0:0:0:
192,192,36740,1,8,0:0:0:0:
64,192,36869,1,0,0:0:0:0:
320,192,36998,1,2,0:0:0:0:
448,192,36998,1,0,0:0:0:0:
192,192,37128,1,0,0:0:0:0:
64,192,37257,1,2,0:0:0:0:
448,192,37257,1,8,0:0:0:0:
448,192,37386,1,0,0:0:0:0:
320,192,37451,1,0,0:0:0:0:
64,192,37516,1,2,0:0:0:0:
192,192,37516,1,0,0:0:0:0:
448,192,37645,1,0,0:0:0:0:
192,192,37774,1,2,0:0:0:0:
320,192,37774,1,8,0:0:0:0:
192,192,37904,1,0,0:0:0:0:
64,192,38033,1,2,0:0:0:0:
320,192,38033,1,0,0:0:0:0:
448,192,38162,1,0,0:0:0:0:
64,192,38292,1,2,0:0:0:0:
192,192,38292,1,8,0:0:0:0:
192,192,38421,1,2,0:0:0:0:
320,192,38421,1,0,0:0:0:0:
64,192,38550,1,2,0:0:0:0:
448,192,38550,1,0,0:0:0:0:
192,192,38615,1,0,0:0:0:0:
320,192,38679,1,0,0:0:0:0:
192,192,38809,1,8,0:0:0:0:
448,192,38809,1,2,0:0:0:0:
448,192,38938,1,0,0:0:0:0:
64,192,39067,1,2,0:0:0:0:
320,192,39067,1,0,0:0:0:0:
192,192,39197,1,0,0:0:0:0:
64,192,39326,1,8,0:0:0:0:
448,192,39326,1,2,0:0:0:0:
64,192,39455,1,0,0:0:0:0:
192,192,39520,1,0,0:0:0:0:
320,192,39585,1,2,0:0:0:0:
448,192,39585,1,0,0:0:0:0:
64,192,39714,1,0,0:0:0:0:
192,192,39843,1,8,0:0:0:0:
320,192,39843,1,2,0:0:0:0:
320,192,39973,1,0,0:0:0:0:
192,192,40102,1,2,0:0:0:0:
448,192,40102,1,0,0:0:0:0:
64,192,40231,1,0,0:0:0:0:
320,192,40360,1,8,0:0:0:0:
448,192,40360,1,2,0:0:0:0:
448,192,40490,1,0,0:0:0:0:
64,192,40619,1,2,0:0:0:0:
192,192,40619,1,0,0:0:0:0:
320,192,40684,1,0,0:0:0:0:
448,192,40748,1,0,0:0:0:0:
64,192,40878,1,2,0:0:0:0:
192,192,40878,1,8,0:0:0:0:
192,192,41007,1,0,0:0:0:0:
64,192,41136,1,2,0:0:0:0:
320,192,41136,1,0,0:0:0:0:
448,192,41266,1,0,0:0:0:0:
64,192,41395,1,2,0:0:0:0:
192,192,41395,1,8,0:0:0:0:
64,192,41524,1,0,0:0:0:0:
320,192,41654,1,2,0:0:0:0:
448,192,41654,1,0,0:0:0:0:
192,192,41783,1,0,0:0:0:0:
64,192,41912,1,2,0:0:0:0:
320,192,41912,1,8,0:0:0:0:
320,192,42042,1,0,0:0:0:0:
64,192,42171,1,2,0:0:0:0:
448,192,42171,1,0,0:0:0:0:
192,192,42300,1,2,0:0:0:0:
320,192,42300,1,0,0:0:0:0:
64,192,42365,1,2,0:0:0:0:
448,192,42365,1,0,0:0:0:0:
192,192,42429,1,2,0:0:0:0:
320,192,42429,1,8,0:0:0:0:
192,192,42559,1,2,0:0:0:0:
448,192,42559,1,0,0:0:0:0:
64,192,42688,1,2,0:0:0:0:
320,192,42688,1,4,0:0:0:0:
448,192,42688,1,0,0:0:0:0:
192,192,42817,1,0,0:0:0:0:
64,192,42947,1,8,0:0:0:0:
320,192,42947,1,2,0:0:0:0:
448,192,43011,1,0,0:0:0:0:
192,192,43076,1,0,0:0:0:0:
320,192,43141,1,0,0:0:0:0:
64,192,43205,1,2,0:0:0:0:
448,192,43205,1,0,0:0:0:0:
192,192,43270,1,0,0:0:0:0:
320,192,43335,1,0,0:0:0:0:
64,192,43399,1,0,0:0:0:0:
192,192,43464,1,8,0:0:0:0:
448,192,43464,1,2,0:0:0:0:
320,192,43529,1,0,0:0:0:0:
64,192,43593,1,0,0:0:0:0:
192,192,43658,1,0,0:0:0:0:
320,192,43723,1,2,0:0:0:0:
448,192,43723,1,0,0:0:0:0:
192,192,43787,1,0,0:0:0:0:
64,192,43852,1,0,0:0:0:0:
448,192,43917,1,0,0:0:0:0:
192,192,43981,1,8,0:0:0:0:
320,192,43981,1,2,0:0:0:0:
64,192,44046,1,0,0:0:0:0:
448,192,44110,1,0,0:0:0:0:
320,192,44175,1,0,0:0:0:0:
64,192,44240,1,2,0:0:0:0:
192,192,44240,1,0,0:0:0:0:
448,192,44304,1,0,0:0:0:0:
320,192,44369,1,0,0:0:0:0:
64,192,44434,1,2,0:0:0:0:
192,192,44434,1,0,0:0:0:0:
320,192,44498,1,8,0:0:0:0:
448,192,44498,1,2,0:0:0:0:
192,192,44628,1,2,0:0:0:0:
448,192,44628,1,0,0:0:0:0:
64,192,44757,1,2,0:0:0:0:
192,192,44757,1,4,0:0:0:0:
320,192,44757,1,0,0:0:0:0:
448,192,44886,1,0,0:0:0:0:
64,192,45016,1,2,0:0:0:0:
192,192,45016,1,8,0:0:0:0:
320,192,45080,1,0,0:0:0:0:
448,192,45145,1,0,0:0:0:0:
64,192,45210,1,0,0:0:0:0:
192,192,45274,1,2,0:0:0:0:
320,192,45274,1,0,0:0:0:0:
448,192,45339,1,0,0:0:0:0:
64,192,45404,1,0,0:0:0:0:
192,192,45468,1,0,0:0:0:0:
320,192,45533,1,2,0:0:0:0:
448,192,45533,1,8,0:0:0:0:
64,192,45598,1,0,0:0:0:0:
192,192,45662,1,0,0:0:0:0:
320,192,45727,1,0,0:0:0:0:
64,192,45792,1,2,0:0:0:0:
448,192,45792,1,0,0:0:0:0:
320,192,45856,1,0,0:0:0:0:
192,192,45921,1,0,0:0:0:0:
448,192,45985,1,0,0:0:0:0:
64,192,46050,1,2,0:0:0:0:
320,192,46050,1,8,0:0:0:0:
192,192,46115,1,0,0:0:0:0:
448,192,46179,1,0,0:0:0:0:
320,192,46244,1,0,0:0:0:0:
64,192,46309,1,2,0:0:0:0:
192,192,46309,1,0,0:0:0:0:
448,192,46373,1,0,0:0:0:0:
320,192,46438,1,0,0:0:0:0:
64,192,46503,1,2,0:0:0:0:
192,192,46503,1,0,0:0:0:0:
320,192,46567,1,2,0:0:0:0:
448,192,46567,1,8,0:0:0:0:
64,192,46697,1,2,0:0:0:0:
448,192,46697,1,0,0:0:0:0:
64,192,46826,1,2,0:0:0:0:
192,192,46826,1,4,0:0:0:0:
320,192,46826,1,0,0:0:0:0:
320,192,46955,1,2,0:0:0:0:
448,192,46955,1,0,0:0:0:0:
64,192,47085,1,2,0:0:0:0:
192,192,47085,1,8,0:0:0:0:
192,192,47214,1,2,0:0:0:0:
448,192,47214,1,0,0:0:0:0:
64,192,47343,1,2,0:0:0:0:
320,192,47343,1,8,0:0:0:0:
64,192,47473,1,2,0:0:0:0:
192,192,47473,1,0,0:0:0:0:
320,192,47602,1,2,0:0:0:0:
448,192,47602,1,8,0:0:0:0:
192,192,47731,1,2,0:0:0:0:
320,192,47731,1,0,0:0:0:0:
64,192,47860,1,2,0:0:0:0:
192,192,47860,1,4,0:0:0:0:
448,192,47860,1,0,0:0:0:0:
320,192,47925,1,2,0:0:0:0:
64,192,47990,1,2,0:0:0:0:
448,192,47990,1,0,0:0:0:0:
192,192,48054,1,2,0:0:0:0:
320,192,48119,1,2,0:0:0:0:
448,192,48119,1,0,0:0:0:0:
64,192,48184,1,2,0:0:0:0:
192,192,48248,1,2,0:0:0:0:
320,192,48248,1,0,0:0:0:0:
448,192,48313,1,2,0:0:0:0:
64,192,48378,1,2,0:0:0:0:
192,192,48378,1,0,0:0:0:0:
320,192,48442,1,2,0:0:0:0:
448,192,48442,1,0,0:0:0:0:
64,192,48507,1,2,0:0:0:0:
192,192,48507,1,0,0:0:0:0:
320,192,48572,1,2,0:0:0:0:
448,192,48572,1,0,0:0:0:0:
64,192,48636,1,2,0:0:0:0:
192,192,48636,1,0,0:0:0:0:
320,192,48701,1,2,0:0:0:0:
448,192,48701,1,0,0:0:0:0:
64,192,48766,1,2,0:0:0:0:
192,192,48830,1,2,0:0:0:0:
320,192,48895,128,2,48960:0:0:0:0:
448,192,48895,128,0,48960:0:0:0:70:HHOpen.wav
320,192,49024,128,2,49089:0:0:0:0:
448,192,49024,128,0,49089:0:0:0:70:HHOpen.wav
192,192,49283,128,2,49348:0:0:0:0:
320,192,49283,128,0,49348:0:0:0:70:HHOpen.wav
192,192,49412,128,2,49477:0:0:0:0:
320,192,49412,128,0,49477:0:0:0:70:HHOpen.wav
64,192,49671,128,2,49735:0:0:0:0:
192,192,49671,128,0,49735:0:0:0:70:HHOpen.wav
64,192,49800,128,2,49865:0:0:0:0:
192,192,49800,128,0,49865:0:0:0:70:HHOpen.wav
64,192,50059,128,2,50123:0:0:0:0:
448,192,50059,128,0,50123:0:0:0:70:HHOpen.wav
64,192,50188,128,2,50253:0:0:0:0:
448,192,50188,128,0,50253:0:0:0:70:HHOpen.wav
64,192,50317,128,2,50382:0:0:0:0:
448,192,50317,128,0,50382:0:0:0:70:HHOpen.wav
64,192,50447,128,2,50511:0:0:0:0:
448,192,50447,128,0,50511:0:0:0:70:HHOpen.wav
320,192,50705,1,2,0:0:0:0:
448,192,50705,1,0,0:0:0:0:
64,192,50770,1,2,0:0:0:0:
192,192,50770,1,0,0:0:0:0:
320,192,50835,1,2,0:0:0:0:
448,192,50835,1,0,0:0:0:0:
192,192,50899,1,2,0:0:0:0:
64,192,50964,1,2,0:0:0:0:
320,192,50964,1,4,0:0:0:0:
448,192,50964,1,0,0:0:0:0:
192,192,51093,1,0,0:0:0:0:
64,192,51223,1,8,0:0:0:0:
448,192,51223,1,2,0:0:0:0:
320,192,51352,1,0,0:0:0:0:
192,192,51417,1,0,0:0:0:0:
64,192,51481,1,2,0:0:0:0:
448,192,51481,1,0,0:0:0:0:
320,192,51546,1,0,0:0:0:0:
192,192,51610,1,0,0:0:0:0:
64,192,51740,1,8,0:0:0:0:
320,192,51740,1,2,0:0:0:0:
448,192,51869,1,0,0:0:0:0:
64,192,51998,1,2,0:0:0:0:
192,192,51998,1,0,0:0:0:0:
320,192,52128,1,0,0:0:0:0:
64,192,52257,1,8,0:0:0:0:
448,192,52257,1,2,0:0:0:0:
192,192,52386,1,0,0:0:0:0:
320,192,52451,1,0,0:0:0:0:
64,192,52516,1,2,0:0:0:0:
448,192,52516,1,0,0:0:0:0:
192,192,52580,1,0,0:0:0:0:
320,192,52645,1,0,0:0:0:0:
192,192,52774,1,8,0:0:0:0:
448,192,52774,1,2,0:0:0:0:
64,192,52904,1,0,0:0:0:0:
320,192,53033,1,2,0:0:0:0:
448,192,53033,1,0,0:0:0:0:
192,192,53162,1,0,0:0:0:0:
64,192,53292,1,2,0:0:0:0:
320,192,53292,1,8,0:0:0:0:
320,192,53421,1,0,0:0:0:0:
192,192,53550,1,2,0:0:0:0:
448,192,53550,1,0,0:0:0:0:
64,192,53679,1,0,0:0:0:0:
64,192,53809,1,2,0:0:0:0:
320,192,53809,1,8,0:0:0:0:
448,192,53938,1,0,0:0:0:0:
64,192,54067,1,2,0:0:0:0:
192,192,54067,1,0,0:0:0:0:
320,192,54197,1,0,0:0:0:0:
192,192,54326,1,2,0:0:0:0:
448,192,54326,1,8,0:0:0:0:
320,192,54455,1,0,0:0:0:0:
192,192,54520,1,0,0:0:0:0:
64,192,54585,1,2,0:0:0:0:
448,192,54585,1,0,0:0:0:0:
320,192,54649,1,0,0:0:0:0:
192,192,54714,1,0,0:0:0:0:
64,192,54843,1,2,0:0:0:0:
448,192,54843,1,8,0:0:0:0:
192,192,54908,1,0,0:0:0:0:
320,192,54973,1,0,0:0:0:0:
64,192,55016,1,0,0:0:0:0:
192,192,55059,1,0,0:0:0:0:
320,192,55102,1,2,0:0:0:0:
448,192,55102,1,0,0:0:0:50:HHOpen.wav
192,192,55231,1,0,0:0:0:0:
320,192,55296,1,0,0:0:0:0:
64,192,55360,1,8,0:0:0:0:
448,192,55360,1,2,0:0:0:0:
192,192,55425,1,0,0:0:0:0:
320,192,55490,1,0,0:0:0:0:
64,192,55554,1,0,0:0:0:0:
192,192,55619,1,2,0:0:0:0:
448,192,55619,1,0,0:0:0:0:
320,192,55684,1,0,0:0:0:0:
64,192,55748,1,0,0:0:0:0:
448,192,55813,1,0,0:0:0:0:
192,192,55878,1,8,0:0:0:0:
320,192,55878,1,2,0:0:0:0:
64,192,55942,1,0,0:0:0:0:
448,192,56007,1,0,0:0:0:0:
320,192,56072,1,0,0:0:0:0:
64,192,56136,1,2,0:0:0:0:
192,192,56136,1,0,0:0:0:0:
448,192,56201,1,0,0:0:0:0:
320,192,56266,1,0,0:0:0:0:
192,192,56330,1,0,0:0:0:0:
64,192,56395,1,8,0:0:0:0:
448,192,56395,1,2,0:0:0:0:
320,192,56460,1,0,0:0:0:0:
192,192,56524,1,0,0:0:0:0:
448,192,56589,1,0,0:0:0:0:
64,192,56654,1,2,0:0:0:0:
320,192,56654,1,0,0:0:0:0:
192,192,56718,1,0,0:0:0:0:
448,192,56783,1,0,0:0:0:0:
64,192,56848,1,0,0:0:0:0:
192,192,56912,1,8,0:0:0:0:
320,192,56912,1,2,0:0:0:0:
448,192,56977,1,0,0:0:0:0:
64,192,57042,1,0,0:0:0:0:
192,192,57106,1,0,0:0:0:0:
320,192,57171,1,2,0:0:0:0:
448,192,57171,1,0,0:0:0:0:
64,192,57235,1,0,0:0:0:0:
192,192,57300,1,0,0:0:0:0:
448,192,57365,1,0,0:0:0:0:
64,192,57429,1,2,0:0:0:0:
320,192,57429,1,8,0:0:0:0:
192,192,57494,1,0,0:0:0:0:
448,192,57559,1,0,0:0:0:0:
320,192,57623,1,0,0:0:0:0:
64,192,57688,1,2,0:0:0:0:
192,192,57688,1,0,0:0:0:0:
448,192,57753,1,0,0:0:0:0:
320,192,57817,1,0,0:0:0:0:
64,192,57882,1,0,0:0:0:0:
192,192,57947,1,2,0:0:0:0:
448,192,57947,1,8,0:0:0:0:
320,192,58011,1,0,0:0:0:0:
64,192,58076,1,0,0:0:0:0:
192,192,58141,1,0,0:0:0:0:
320,192,58205,1,2,0:0:0:0:
448,192,58205,128,0,58464:0:0:0:0:
64,192,58335,1,0,0:0:0:0:
192,192,58464,1,2,0:0:0:0:
320,192,58464,1,8,0:0:0:0:
448,192,58593,1,0,0:0:0:0:
64,192,58723,1,2,0:0:0:0:
192,192,58723,1,0,0:0:0:0:
320,192,58787,1,0,0:0:0:0:
192,192,58852,1,2,0:0:0:0:
320,192,58917,1,2,0:0:0:0:
64,192,58981,1,8,0:0:0:0:
448,192,58981,1,2,0:0:0:0:
192,192,59046,1,0,0:0:0:0:
320,192,59110,1,2,0:0:0:0:
448,192,59110,1,0,0:0:0:0:
64,192,59175,1,0,0:0:0:0:
192,192,59240,1,2,0:0:0:0:
320,192,59240,1,4,0:0:0:0:
448,192,59240,1,0,0:0:0:0:
64,192,59369,1,0,0:0:0:0:
320,192,59498,1,8,0:0:0:0:
448,192,59498,1,2,0:0:0:0:
192,192,59628,1,0,0:0:0:0:
320,192,59692,1,0,0:0:0:0:
64,192,59757,1,2,0:0:0:0:
448,192,59757,1,0,0:0:0:0:
192,192,59822,1,0,0:0:0:0:
320,192,59886,1,0,0:0:0:0:
64,192,60016,1,8,0:0:0:0:
192,192,60016,1,2,0:0:0:0:
448,192,60145,1,0,0:0:0:0:
64,192,60274,1,2,0:0:0:0:
320,192,60274,1,0,0:0:0:0:
192,192,60404,1,0,0:0:0:0:
64,192,60533,1,8,0:0:0:0:
448,192,60533,1,2,0:0:0:0:
320,192,60662,1,0,0:0:0:0:
192,192,60727,1,0,0:0:0:0:
64,192,60792,1,2,0:0:0:0:
448,192,60792,1,0,0:0:0:0:
320,192,60856,1,0,0:0:0:0:
192,192,60921,1,0,0:0:0:0:
320,192,61050,1,8,0:0:0:0:
448,192,61050,1,2,0:0:0:0:
64,192,61179,1,0,0:0:0:0:
192,192,61309,1,2,0:0:0:0:
448,192,61309,1,0,0:0:0:0:
320,192,61438,1,0,0:0:0:0:
64,192,61567,1,2,0:0:0:0:
448,192,61567,1,8,0:0:0:0:
64,192,61697,1,0,0:0:0:0:
192,192,61826,1,2,0:0:0:0:
320,192,61826,1,0,0:0:0:0:
320,192,61955,1,0,0:0:0:0:
192,192,62085,1,2,0:0:0:0:
448,192,62085,1,8,0:0:0:0:
192,192,62214,1,0,0:0:0:0:
64,192,62343,1,2,0:0:0:0:
448,192,62343,1,0,0:0:0:0:
448,192,62473,1,0,0:0:0:0:
64,192,62602,1,2,0:0:0:0:
320,192,62602,1,8,0:0:0:0:
192,192,62731,1,0,0:0:0:0:
320,192,62796,1,0,0:0:0:0:
64,192,62860,1,2,0:0:0:0:
448,192,62860,1,0,0:0:0:0:
192,192,62925,1,0,0:0:0:0:
320,192,62990,1,0,0:0:0:0:
64,192,63119,1,2,0:0:0:0:
192,192,63119,1,8,0:0:0:0:
320,192,63184,1,0,0:0:0:0:
448,192,63248,1,0,0:0:0:0:
64,192,63292,1,0,0:0:0:0:
192,192,63335,1,0,0:0:0:0:
320,192,63378,1,2,0:0:0:0:
448,192,63378,1,0,0:0:0:50:HHOpen.wav
64,192,63507,1,0,0:0:0:0:
448,192,63572,1,0,0:0:0:0:
192,192,63636,1,8,0:0:0:0:
320,192,63636,1,2,0:0:0:0:
64,192,63701,1,0,0:0:0:0:
448,192,63766,1,0,0:0:0:0:
320,192,63830,1,0,0:0:0:0:
64,192,63895,1,2,0:0:0:0:
192,192,63895,1,0,0:0:0:0:
448,192,63960,1,0,0:0:0:0:
320,192,64024,1,0,0:0:0:0:
192,192,64089,1,0,0:0:0:0:
64,192,64154,1,8,0:0:0:0:
448,192,64154,1,2,0:0:0:0:
320,192,64218,1,0,0:0:0:0:
192,192,64283,1,0,0:0:0:0:
448,192,64348,1,0,0:0:0:0:
64,192,64412,1,2,0:0:0:0:
320,192,64412,1,0,0:0:0:0:
192,192,64477,1,0,0:0:0:0:
448,192,64542,1,0,0:0:0:0:
64,192,64606,1,0,0:0:0:0:
192,192,64671,1,8,0:0:0:0:
320,192,64671,1,2,0:0:0:0:
448,192,64735,1,0,0:0:0:0:
64,192,64800,1,0,0:0:0:0:
192,192,64865,1,0,0:0:0:0:
320,192,64929,1,2,0:0:0:0:
448,192,64929,1,0,0:0:0:0:
64,192,64994,1,0,0:0:0:0:
192,192,65059,1,0,0:0:0:0:
320,192,65123,1,0,0:0:0:0:
64,192,65188,1,8,0:0:0:0:
448,192,65188,1,2,0:0:0:0:
192,192,65253,1,0,0:0:0:0:
320,192,65317,1,0,0:0:0:0:
64,192,65382,1,0,0:0:0:0:
192,192,65447,1,2,0:0:0:0:
448,192,65447,1,0,0:0:0:0:
320,192,65511,1,0,0:0:0:0:
64,192,65576,1,0,0:0:0:0:
448,192,65641,1,0,0:0:0:0:
192,192,65705,1,2,0:0:0:0:
320,192,65705,1,8,0:0:0:0:
64,192,65770,1,0,0:0:0:0:
448,192,65835,1,0,0:0:0:0:
320,192,65899,1,0,0:0:0:0:
64,192,65964,1,2,0:0:0:0:
192,192,65964,1,0,0:0:0:0:
448,192,66029,1,0,0:0:0:0:
320,192,66093,1,0,0:0:0:0:
64,192,66158,1,0,0:0:0:0:
192,192,66223,1,2,0:0:0:0:
448,192,66223,1,8,0:0:0:0:
320,192,66287,1,0,0:0:0:0:
64,192,66352,1,0,0:0:0:0:
192,192,66417,1,0,0:0:0:0:
320,192,66481,128,2,66740:0:0:0:0:
448,192,66481,1,0,0:0:0:0:
192,192,66610,1,0,0:0:0:0:
64,192,66740,1,2,0:0:0:0:
448,192,66740,1,8,0:0:0:0:
320,192,66869,1,0,0:0:0:0:
64,192,66998,1,2,0:0:0:0:
192,192,66998,1,0,0:0:0:0:
320,192,67128,1,2,0:0:0:0:
448,192,67128,1,0,0:0:0:0:
64,192,67192,1,2,0:0:0:0:
192,192,67192,1,0,0:0:0:0:
320,192,67257,1,8,0:0:0:0:
448,192,67257,1,2,0:0:0:0:
192,192,67386,1,2,0:0:0:0:
448,192,67386,1,0,0:0:0:0:
64,192,67516,128,2,68421:0:0:0:0:
192,192,67516,1,4,0:0:0:0:
320,192,67516,1,0,0:0:0:0:
448,192,67774,1,0,0:0:0:0:
320,192,68033,1,8,0:0:0:0:
448,192,68033,1,0,0:0:0:0:
192,192,68292,1,0,0:0:0:0:
320,192,68421,1,2,0:0:0:0:
448,192,68421,1,0,0:0:0:0:
64,192,68550,1,8,0:0:0:0:
192,192,68550,1,0,0:0:0:0:
64,192,68809,1,2,0:0:0:0:
320,192,68809,128,0,69067:0:0:0:0:
192,192,69067,128,8,69326:0:0:0:0:
448,192,69067,1,0,0:0:0:0:
64,192,69326,1,2,0:0:0:0:
448,192,69326,128,0,69498:0:0:0:0:
320,192,69585,1,8,0:0:0:0:
448,192,69585,128,0,69843:0:0:0:0:
64,192,69843,1,0,0:0:0:0:
192,192,69973,1,0,0:0:0:0:
64,192,70102,1,8,0:0:0:0:
320,192,70102,128,0,70360:0:0:0:0:
192,192,70360,1,0,0:0:0:0:
320,192,70490,1,2,0:0:0:0:
448,192,70490,1,0,0:0:0:0:
64,192,70619,128,8,70878:0:0:0:0:
192,192,70619,1,0,0:0:0:0:
320,192,70878,1,2,0:0:0:0:
448,192,70878,1,0,0:0:0:0:
192,192,70942,1,2,0:0:0:0:
64,192,71007,1,2,0:0:0:0:
448,192,71007,1,0,0:0:0:0:
320,192,71072,1,2,0:0:0:0:
64,192,71136,1,8,0:0:0:0:
192,192,71136,1,0,0:0:0:0:
448,192,71266,1,0,0:0:0:0:
64,192,71395,1,2,0:0:0:0:
320,192,71395,1,0,0:0:0:0:
448,192,71460,1,2,0:0:0:0:
64,192,71524,1,2,0:0:0:0:
192,192,71524,1,0,0:0:0:0:
320,192,71589,1,2,0:0:0:0:
64,192,71654,1,4,0:0:0:0:
192,192,71654,1,2,0:0:0:0:
448,192,71654,1,0,0:0:0:0:
320,192,71783,1,0,0:0:0:0:
192,192,71912,1,8,0:0:0:0:
448,192,71912,1,2,0:0:0:0:
192,192,72042,1,0,0:0:0:0:
64,192,72171,1,2,0:0:0:0:
320,192,72171,1,0,0:0:0:0:
448,192,72300,1,0,0:0:0:0:
64,192,72429,1,8,0:0:0:0:
192,192,72429,1,2,0:0:0:0:
64,192,72559,1,0,0:0:0:0:
320,192,72688,1,2,0:0:0:0:
448,192,72688,1,0,0:0:0:0:
192,192,72817,1,0,0:0:0:0:
64,192,72947,1,8,0:0:0:0:
448,192,72947,1,2,0:0:0:0:
448,192,73076,1,0,0:0:0:0:
192,192,73205,1,2,0:0:0:0:
320,192,73205,1,0,0:0:0:0:
64,192,73335,1,0,0:0:0:0:
320,192,73464,1,8,0:0:0:0:
448,192,73464,1,2,0:0:0:0:
320,192,73593,1,0,0:0:0:0:
64,192,73723,1,2,0:0:0:0:
192,192,73723,1,0,0:0:0:0:
448,192,73787,1,0,0:0:0:0:
320,192,73852,1,0,0:0:0:0:
64,192,73917,1,0,0:0:0:0:
192,192,73981,1,2,0:0:0:0:
448,192,73981,1,8,0:0:0:0:
320,192,74046,1,0,0:0:0:0:
64,192,74110,1,0,0:0:0:0:
192,192,74175,1,0,0:0:0:0:
320,192,74240,1,2,0:0:0:0:
448,192,74240,1,0,0:0:0:0:
64,192,74304,1,0,0:0:0:0:
192,192,74369,1,0,0:0:0:0:
448,192,74434,1,0,0:0:0:0:
64,192,74498,1,2,0:0:0:0:
320,192,74498,1,8,0:0:0:0:
192,192,74563,1,0,0:0:0:0:
448,192,74628,1,0,0:0:0:0:
320,192,74692,1,0,0:0:0:0:
64,192,74757,1,2,0:0:0:0:
192,192,74757,1,0,0:0:0:0:
448,192,74822,1,0,0:0:0:0:
320,192,74886,1,0,0:0:0:0:
64,192,74951,1,0,0:0:0:0:
192,192,75016,1,2,0:0:0:0:
448,192,75016,1,8,0:0:0:0:
320,192,75080,1,0,0:0:0:0:
64,192,75145,1,0,0:0:0:0:
192,192,75210,1,0,0:0:0:0:
320,192,75274,1,2,0:0:0:0:
448,192,75274,1,0,0:0:0:0:
64,192,75339,1,2,0:0:0:0:
192,192,75404,1,2,0:0:0:0:
320,192,75404,1,0,0:0:0:0:
448,192,75468,1,2,0:0:0:0:
64,192,75533,1,2,0:0:0:0:
192,192,75533,1,0,0:0:0:0:
320,192,75598,1,2,0:0:0:0:
64,192,75662,1,2,0:0:0:0:
448,192,75662,1,0,0:0:0:0:
192,192,75727,1,2,0:0:0:0:
64,192,75792,1,2,0:0:0:0:
320,192,75792,128,4,75856:0:0:0:0:
448,192,75792,128,0,75856:0:0:0:0:
320,192,75921,128,2,75985:0:0:0:0:
448,192,75921,128,0,75985:0:0:0:0:
64,192,76050,1,8,0:0:0:0:
192,192,76179,128,2,76244:0:0:0:0:
320,192,76179,128,0,76244:0:0:0:0:
192,192,76309,128,2,76373:0:0:0:0:
320,192,76309,128,0,76373:0:0:0:0:
448,192,76438,1,8,0:0:0:0:
64,192,76567,128,2,76632:0:0:0:0:
192,192,76567,128,0,76632:0:0:0:0:
64,192,76697,128,2,76761:0:0:0:0:
192,192,76697,128,8,76761:0:0:0:0:
320,192,76826,1,2,0:0:0:0:
448,192,76826,1,0,0:0:0:0:
192,192,76891,1,0,0:0:0:70:amenbreak_kick1.wav
64,192,76955,1,0,0:0:0:70:amenbreak_snare1.wav
320,192,76955,1,0,0:0:0:0:
192,192,77085,1,2,0:0:0:0:
448,192,77085,1,0,0:0:0:0:
64,192,77214,1,2,0:0:0:0:
192,192,77214,1,0,0:0:0:0:
320,192,77279,1,0,0:0:0:70:amenbreak_kick1.wav
64,192,77343,1,0,0:0:0:70:amenbreak_snare1.wav
448,192,77343,1,0,0:0:0:0:
320,192,77473,1,2,0:0:0:0:
192,192,77473,1,0,0:0:0:0:
320,192,77602,1,2,0:0:0:0:
448,192,77602,1,0,0:0:0:0:
192,192,77667,1,0,0:0:0:70:amenbreak_kick1.wav
64,192,77731,1,0,0:0:0:70:amenbreak_snare1.wav
448,192,77731,1,0,0:0:0:0:
64,192,77860,128,2,77925:0:0:0:0:
192,192,77860,128,4,77925:0:0:0:0:
320,192,77860,1,0,0:0:0:0:
64,192,77990,128,2,78054:0:0:0:0:
192,192,77990,128,0,78054:0:0:0:0:
448,192,78119,1,8,0:0:0:0:
192,192,78248,128,2,78313:0:0:0:0:
320,192,78248,128,0,78313:0:0:0:0:
192,192,78378,128,2,78442:0:0:0:0:
320,192,78378,128,0,78442:0:0:0:0:
64,192,78507,1,8,0:0:0:0:
320,192,78636,128,2,78701:0:0:0:0:
448,192,78636,128,0,78701:0:0:0:0:
320,192,78766,128,2,78830:0:0:0:0:
448,192,78766,128,8,78830:0:0:0:0:
64,192,78895,1,2,0:0:0:0:
192,192,78895,1,0,0:0:0:0:
448,192,78960,1,2,0:0:0:0:
192,192,79024,1,0,0:0:0:70:amenbreak_snare1.wav
320,192,79024,1,0,0:0:0:0:
320,192,79154,1,2,0:0:0:0:
448,192,79154,1,0,0:0:0:0:
192,192,79218,1,0,0:0:0:70:amenbreak_snare1.wav
64,192,79283,1,0,0:0:0:70:amenbreak_snare1.wav
448,192,79283,1,0,0:0:0:0:
320,192,79348,1,0,0:0:0:70:amenbreak_snare1.wav
64,192,79412,128,2,79509:0:0:0:0:
192,192,79412,128,4,79509:0:0:0:0:
448,192,79412,128,0,79509:0:0:0:70:amenbreak_snare1.wav
64,192,79606,128,2,79703:0:0:0:0:
192,192,79606,128,4,79703:0:0:0:0:
320,192,79606,128,0,79703:0:0:0:0:
192,192,79800,128,2,79897:0:0:0:0:
320,192,79800,128,4,79897:0:0:0:0:
448,192,79800,128,0,79897:0:0:0:0:
64,192,79929,1,2,0:0:0:0:
192,192,79973,1,0,0:0:0:0:
320,192,80016,1,0,0:0:0:0:
448,192,80059,1,2,0:0:0:0:
64,192,80102,1,0,0:0:0:0:
192,192,80145,1,0,0:0:0:0:
320,192,80188,128,2,80317:0:0:0:0:
448,192,80188,128,4,80317:0:0:0:0:
192,192,80447,128,2,80544:0:0:0:0:
320,192,80447,128,8,80544:0:0:0:0:
192,192,80641,128,2,80738:0:0:0:0:
320,192,80641,128,8,80738:0:0:0:0:
64,192,80835,128,2,80899:0:0:0:0:
192,192,80835,128,8,80899:0:0:0:0:
320,192,80964,1,2,0:0:0:0:
448,192,80964,1,0,0:0:0:0:
64,192,81029,1,0,0:0:0:70:amenbreak_kick1.wav
192,192,81093,1,0,0:0:0:70:amenbreak_snare1.wav
320,192,81093,1,0,0:0:0:0:
64,192,81223,1,2,0:0:0:0:
448,192,81223,1,0,0:0:0:0:
64,192,81352,1,2,0:0:0:0:
192,192,81352,1,0,0:0:0:0:
448,192,81417,1,0,0:0:0:70:amenbreak_kick1.wav
192,192,81481,1,0,0:0:0:70:amenbreak_snare1.wav
320,192,81481,1,0,0:0:0:0:
64,192,81610,1,2,0:0:0:0:
448,192,81610,1,0,0:0:0:0:
320,192,81740,1,2,0:0:0:0:
448,192,81740,1,0,0:0:0:0:
192,192,81804,1,0,0:0:0:70:amenbreak_kick1.wav
64,192,81869,1,0,0:0:0:70:amenbreak_snare1.wav
320,192,81869,1,0,0:0:0:0:
64,192,81998,128,2,82063:0:0:0:0:
192,192,81998,1,4,0:0:0:0:
448,192,81998,128,0,82063:0:0:0:0:
64,192,82128,128,2,82192:0:0:0:0:
448,192,82128,128,0,82192:0:0:0:0:
320,192,82257,1,8,0:0:0:0:
64,192,82386,128,2,82451:0:0:0:0:
192,192,82386,128,0,82451:0:0:0:0:
64,192,82516,128,2,82580:0:0:0:0:
192,192,82516,128,0,82580:0:0:0:0:
448,192,82645,1,8,0:0:0:0:
192,192,82774,128,2,82839:0:0:0:0:
320,192,82774,128,0,82839:0:0:0:0:
192,192,82904,128,2,82968:0:0:0:0:
320,192,82904,128,8,82968:0:0:0:0:
64,192,83033,1,2,0:0:0:0:
448,192,83033,1,0,0:0:0:0:
192,192,83098,1,0,0:0:0:70:amenbreak_kick1.wav
320,192,83162,1,2,0:0:0:0:
448,192,83227,1,2,0:0:0:0:
64,192,83292,1,2,0:0:0:0:
192,192,83292,1,0,0:0:0:0:
320,192,83356,1,0,0:0:0:70:amenbreak_snare1.wav
448,192,83421,1,2,0:0:0:0:
192,192,83485,1,2,0:0:0:0:
64,192,83550,1,0,0:0:0:70:amenbreak_snare1.wav
320,192,83550,1,0,0:0:0:0:
448,192,83615,1,0,0:0:0:70:amenbreak_snare1.wav
64,192,83679,1,0,0:0:0:70:amenbreak_snare1.wav
192,192,83679,1,0,0:0:0:0:
320,192,83744,1,0,0:0:0:70:amenbreak_snare1.wav
192,192,83809,1,0,0:0:0:70:amenbreak_snare1.wav
448,192,83809,1,0,0:0:0:0:
64,192,83873,1,0,0:0:0:70:amenbreak_snare1.wav
320,192,83938,1,0,0:0:0:70:amenbreak_snare1.wav
448,192,83938,1,0,0:0:0:0:
192,192,84003,1,0,0:0:0:70:amenbreak_snare1.wav
64,192,84067,1,4,0:0:0:0:
320,192,84067,128,2,84132:0:0:0:0:
448,192,84067,128,0,84132:0:0:0:0:
320,192,84197,128,0,84261:0:0:0:0:
448,192,84197,128,0,84261:0:0:0:0:
192,192,84326,1,8,0:0:0:0:
320,192,84326,1,2,0:0:0:0:
64,192,84455,128,0,84520:0:0:0:0:
448,192,84455,128,0,84520:0:0:0:0:
64,192,84585,128,2,84649:0:0:0:0:
448,192,84585,128,0,84649:0:0:0:0:
320,192,84714,1,0,0:0:0:0:
64,192,84843,128,8,84908:0:0:0:0:
192,192,84843,128,2,84908:0:0:0:0:
64,192,84973,128,0,85037:0:0:0:0:
192,192,84973,128,0,85037:0:0:0:0:
64,192,85102,1,2,0:0:0:0:
448,192,85102,1,0,0:0:0:0:
192,192,85231,128,0,85296:0:0:0:0:
320,192,85231,128,0,85296:0:0:0:0:
192,192,85360,128,8,85425:0:0:0:0:
320,192,85360,128,2,85425:0:0:0:0:
64,192,85490,1,0,0:0:0:0:
320,192,85619,128,2,85748:0:0:0:0:
448,192,85619,128,0,85748:0:0:0:0:
192,192,85748,1,0,0:0:0:0:
64,192,85878,128,8,86007:0:0:0:0:
320,192,85878,128,2,86007:0:0:0:0:
448,192,86007,1,0,0:0:0:0:
64,192,86136,128,2,86201:0:0:0:0:
192,192,86136,128,0,86201:0:0:0:0:
64,192,86266,128,0,86330:0:0:0:0:
192,192,86266,128,0,86330:0:0:0:0:
192,192,86395,1,2,0:0:0:0:
448,192,86395,1,8,0:0:0:0:
64,192,86524,128,0,86589:0:0:0:0:
320,192,86524,128,0,86589:0:0:0:0:
64,192,86654,128,2,86718:0:0:0:0:
320,192,86654,128,0,86718:0:0:0:0:
192,192,86783,1,0,0:0:0:0:
320,192,86912,128,2,86977:0:0:0:0:
448,192,86912,128,8,86977:0:0:0:0:
320,192,87042,128,0,87106:0:0:0:0:
448,192,87042,128,0,87106:0:0:0:0:
192,192,87171,1,2,0:0:0:0:
320,192,87171,1,0,0:0:0:0:
64,192,87300,128,0,87365:0:0:0:0:
448,192,87300,128,0,87365:0:0:0:0:
64,192,87429,128,2,87494:0:0:0:0:
448,192,87429,128,8,87494:0:0:0:0:
320,192,87559,1,0,0:0:0:0:
64,192,87688,128,2,87817:0:0:0:0:
192,192,87688,128,0,87817:0:0:0:0:
448,192,87817,1,0,0:0:0:0:
320,192,87882,1,2,0:0:0:0:
64,192,87947,1,8,0:0:0:0:
192,192,87947,1,2,0:0:0:0:
64,192,88076,1,2,0:0:0:0:
448,192,88076,1,0,0:0:0:0:
192,192,88205,128,2,88270:0:0:0:0:
320,192,88205,128,4,88270:0:0:0:0:
448,192,88205,1,0,0:0:0:0:
192,192,88335,128,0,88399:0:0:0:0:
320,192,88335,128,0,88399:0:0:0:0:
64,192,88464,1,8,0:0:0:0:
320,192,88464,1,2,0:0:0:0:
192,192,88593,128,0,88658:0:0:0:0:
448,192,88593,128,0,88658:0:0:0:0:
192,192,88723,128,2,88787:0:0:0:0:
448,192,88723,128,8,88787:0:0:0:0:
320,192,88852,1,0,0:0:0:0:
64,192,88981,128,8,89046:0:0:0:0:
448,192,88981,128,2,89046:0:0:0:0:
64,192,89110,128,0,89175:0:0:0:0:
448,192,89110,128,0,89175:0:0:0:0:
320,192,89240,1,2,0:0:0:0:
448,192,89240,1,8,0:0:0:0:
64,192,89369,128,0,89434:0:0:0:0:
192,192,89369,128,0,89434:0:0:0:0:
64,192,89498,128,8,89563:0:0:0:0:
192,192,89498,128,2,89563:0:0:0:0:
448,192,89628,1,0,0:0:0:0:
192,192,89757,128,2,89886:0:0:0:0:
320,192,89757,128,8,89886:0:0:0:0:
64,192,89886,1,0,0:0:0:0:
320,192,90016,128,8,90145:0:0:0:0:
448,192,90016,128,2,90145:0:0:0:0:
64,192,90145,1,2,0:0:0:0:
192,192,90145,1,8,0:0:0:0:
192,192,90274,128,2,90339:0:0:0:0:
448,192,90274,128,0,90339:0:0:0:70:HHOpen.wav
192,192,90404,128,2,90468:0:0:0:0:
448,192,90404,128,0,90468:0:0:0:70:HHOpen.wav
192,192,90662,128,2,90727:0:0:0:0:
320,192,90662,128,0,90727:0:0:0:70:HHOpen.wav
192,192,90792,128,2,90856:0:0:0:0:
320,192,90792,128,0,90856:0:0:0:70:HHOpen.wav
64,192,91050,128,2,91115:0:0:0:0:
320,192,91050,128,0,91115:0:0:0:70:HHOpen.wav
64,192,91179,128,2,91244:0:0:0:0:
320,192,91179,128,0,91244:0:0:0:70:HHOpen.wav
64,192,91438,128,2,91503:0:0:0:0:
448,192,91438,128,0,91503:0:0:0:70:HHOpen.wav
64,192,91567,128,2,91632:0:0:0:0:
448,192,91567,128,0,91632:0:0:0:70:HHOpen.wav
192,192,91697,1,2,0:0:0:0:
320,192,91740,1,0,0:0:0:0:
448,192,91783,1,0,0:0:0:0:
64,192,91826,128,2,91955:0:0:0:0:
192,192,91826,1,0,0:0:0:70:HHOpen.wav
320,192,91955,1,2,0:0:0:0:
192,192,92020,1,0,0:0:0:0:
320,192,92085,128,2,92214:0:0:0:0:
448,192,92085,1,0,0:0:0:70:HHOpen.wav
64,192,92214,1,2,0:0:0:0:
192,192,92279,1,0,0:0:0:0:
64,192,92343,1,2,0:0:0:0:
320,192,92343,1,4,0:0:0:0:
448,192,92343,1,0,0:0:0:0:
192,192,92473,1,0,0:0:0:0:
448,192,92602,1,0,0:0:0:0:
64,192,92731,1,0,0:0:0:0:
192,192,92796,1,0,0:0:0:0:
320,192,92860,1,0,0:0:0:0:
64,192,92925,1,0,0:0:0:0:
192,192,92990,1,0,0:0:0:0:
448,192,93119,1,0,0:0:0:0:
64,192,93248,1,0,0:0:0:0:
192,192,93378,1,0,0:0:0:0:
448,192,93378,1,0,0:0:0:0:
320,192,93507,1,0,0:0:0:0:
64,192,93636,1,0,0:0:0:0:
448,192,93766,1,0,0:0:0:0:
320,192,93830,1,0,0:0:0:0:
192,192,93895,1,0,0:0:0:0:
448,192,93960,1,0,0:0:0:0:
320,192,94024,1,0,0:0:0:0:
64,192,94154,1,0,0:0:0:0:
320,192,94283,1,0,0:0:0:0:
64,192,94412,1,0,0:0:0:0:
192,192,94412,1,0,0:0:0:0:
448,192,94542,1,0,0:0:0:0:
192,192,94671,1,0,0:0:0:0:
320,192,94671,1,0,0:0:0:0:
64,192,94800,1,0,0:0:0:0:
320,192,94929,1,0,0:0:0:0:
448,192,94929,1,0,0:0:0:0:
192,192,95059,1,0,0:0:0:0:
64,192,95188,1,0,0:0:0:0:
448,192,95188,1,0,0:0:0:0:
320,192,95317,1,0,0:0:0:0:
64,192,95447,1,0,0:0:0:0:
192,192,95447,1,0,0:0:0:0:
192,192,95576,1,0,0:0:0:0:
448,192,95576,1,0,0:0:0:0:
64,192,95705,1,0,0:0:0:0:
320,192,95705,1,0,0:0:0:0:
320,192,95835,1,0,0:0:0:0:
448,192,95835,1,0,0:0:0:0:
64,192,95964,1,0,0:0:0:0:
320,192,96093,1,2,0:0:0:0:
448,192,96093,1,0,0:0:0:0:
192,192,96158,1,2,0:0:0:0:
64,192,96223,1,8,0:0:0:0:
448,192,96223,1,0,0:0:0:0:
320,192,96287,1,0,0:0:0:0:
192,192,96352,1,0,0:0:0:0:
448,192,96395,1,0,0:0:0:0:
320,192,96438,1,0,0:0:0:0:
64,192,96481,1,2,0:0:0:0:
192,192,96481,1,0,0:0:0:60:HHOpen.wav
320,192,96610,1,0,0:0:0:0:
64,192,96675,1,0,0:0:0:0:
192,192,96740,1,8,0:0:0:0:
448,192,96740,1,2,0:0:0:0:
320,192,96804,1,0,0:0:0:0:
64,192,96869,1,0,0:0:0:0:
192,192,96934,1,0,0:0:0:0:
320,192,96998,1,2,0:0:0:0:
448,192,96998,1,0,0:0:0:0:
64,192,97063,1,0,0:0:0:0:
192,192,97128,1,0,0:0:0:0:
448,192,97192,1,0,0:0:0:0:
64,192,97257,1,8,0:0:0:0:
320,192,97257,1,2,0:0:0:0:
192,192,97322,1,0,0:0:0:0:
448,192,97386,1,0,0:0:0:0:
320,192,97451,1,0,0:0:0:0:
64,192,97516,1,2,0:0:0:0:
192,192,97516,1,0,0:0:0:0:
448,192,97580,1,0,0:0:0:0:
320,192,97645,1,0,0:0:0:0:
192,192,97710,1,0,0:0:0:0:
64,192,97774,1,8,0:0:0:0:
448,192,97774,1,2,0:0:0:0:
320,192,97839,1,0,0:0:0:0:
192,192,97904,1,0,0:0:0:0:
64,192,97968,1,0,0:0:0:0:
320,192,98033,1,2,0:0:0:0:
448,192,98033,1,0,0:0:0:0:
192,192,98098,1,0,0:0:0:0:
64,192,98162,1,0,0:0:0:0:
448,192,98227,1,0,0:0:0:0:
192,192,98292,1,8,0:0:0:0:
320,192,98292,1,2,0:0:0:0:
64,192,98356,1,0,0:0:0:0:
448,192,98421,1,0,0:0:0:0:
320,192,98485,1,0,0:0:0:0:
64,192,98550,1,2,0:0:0:0:
192,192,98550,1,0,0:0:0:0:
320,192,98615,1,0,0:0:0:0:
448,192,98679,1,0,0:0:0:0:
64,192,98744,1,0,0:0:0:0:
192,192,98809,1,2,0:0:0:0:
320,192,98809,1,8,0:0:0:0:
448,192,98873,1,0,0:0:0:0:
64,192,98938,1,0,0:0:0:0:
192,192,99003,1,0,0:0:0:0:
320,192,99067,1,2,0:0:0:0:
448,192,99067,1,0,0:0:0:0:
64,192,99132,1,0,0:0:0:0:
192,192,99197,1,0,0:0:0:0:
448,192,99261,1,0,0:0:0:0:
64,192,99326,1,2,0:0:0:0:
320,192,99326,1,8,0:0:0:0:
192,192,99391,1,0,0:0:0:0:
448,192,99455,1,0,0:0:0:0:
320,192,99520,1,0,0:0:0:0:
64,192,99585,128,2,99843:0:0:0:0:
192,192,99585,1,0,0:0:0:0:
448,192,99714,1,0,0:0:0:0:
192,192,99843,1,2,0:0:0:0:
320,192,99843,1,8,0:0:0:0:
64,192,99973,1,0,0:0:0:0:
320,192,100102,1,2,0:0:0:0:
448,192,100102,1,0,0:0:0:0:
192,192,100167,1,0,0:0:0:0:
320,192,100231,1,2,0:0:0:0:
192,192,100296,1,2,0:0:0:0:
64,192,100360,1,8,0:0:0:0:
448,192,100360,1,2,0:0:0:0:
320,192,100425,1,0,0:0:0:0:
64,192,100490,1,2,0:0:0:0:
192,192,100490,1,0,0:0:0:0:
448,192,100554,1,0,0:0:0:0:
64,192,100619,1,2,0:0:0:0:
192,192,100619,1,4,0:0:0:0:
320,192,100619,1,0,0:0:0:0:
448,192,100748,1,0,0:0:0:0:
64,192,100878,1,8,0:0:0:0:
320,192,100878,1,2,0:0:0:0:
192,192,101007,1,0,0:0:0:0:
320,192,101072,1,0,0:0:0:0:
64,192,101136,1,2,0:0:0:0:
448,192,101136,1,0,0:0:0:0:
192,192,101201,1,0,0:0:0:0:
320,192,101266,1,0,0:0:0:0:
192,192,101395,1,8,0:0:0:0:
448,192,101395,1,2,0:0:0:0:
64,192,101524,1,0,0:0:0:0:
192,192,101654,1,2,0:0:0:0:
320,192,101654,1,0,0:0:0:0:
448,192,101783,1,0,0:0:0:0:
64,192,101912,1,8,0:0:0:0:
192,192,101912,1,2,0:0:0:0:
320,192,102042,1,0,0:0:0:0:
192,192,102106,1,0,0:0:0:0:
64,192,102171,1,2,0:0:0:0:
448,192,102171,1,0,0:0:0:0:
320,192,102235,1,0,0:0:0:0:
192,192,102300,1,0,0:0:0:0:
320,192,102429,1,8,0:0:0:0:
448,192,102429,1,2,0:0:0:0:
64,192,102559,1,0,0:0:0:0:
192,192,102688,1,2,0:0:0:0:
448,192,102688,1,0,0:0:0:0:
320,192,102817,1,0,0:0:0:0:
64,192,102947,1,2,0:0:0:0:
192,192,102947,1,8,0:0:0:0:
64,192,103076,1,0,0:0:0:0:
320,192,103205,1,2,0:0:0:0:
448,192,103205,1,0,0:0:0:0:
320,192,103335,1,0,0:0:0:0:
192,192,103464,1,2,0:0:0:0:
448,192,103464,1,8,0:0:0:0:
192,192,103593,1,0,0:0:0:0:
64,192,103723,1,2,0:0:0:0:
448,192,103723,1,0,0:0:0:0:
448,192,103852,1,0,0:0:0:0:
64,192,103981,1,2,0:0:0:0:
320,192,103981,1,8,0:0:0:0:
192,192,104110,1,0,0:0:0:0:
320,192,104175,1,0,0:0:0:0:
64,192,104240,1,2,0:0:0:0:
448,192,104240,1,0,0:0:0:0:
192,192,104304,1,0,0:0:0:0:
320,192,104369,1,0,0:0:0:0:
64,192,104498,1,2,0:0:0:0:
192,192,104498,1,8,0:0:0:0:
320,192,104563,1,0,0:0:0:0:
448,192,104628,1,0,0:0:0:0:
64,192,104671,1,0,0:0:0:0:
192,192,104714,1,0,0:0:0:0:
320,192,104757,1,2,0:0:0:0:
448,192,104757,1,0,0:0:0:50:HHOpen.wav
192,192,104886,1,0,0:0:0:0:
320,192,104951,1,0,0:0:0:0:
64,192,105016,1,8,0:0:0:0:
448,192,105016,1,2,0:0:0:0:
192,192,105080,1,0,0:0:0:0:
320,192,105145,1,0,0:0:0:0:
64,192,105210,1,0,0:0:0:0:
192,192,105274,1,2,0:0:0:0:
448,192,105274,1,0,0:0:0:0:
320,192,105339,1,0,0:0:0:0:
192,192,105404,1,0,0:0:0:0:
64,192,105468,1,0,0:0:0:0:
320,192,105533,1,8,0:0:0:0:
448,192,105533,1,2,0:0:0:0:
192,192,105598,1,0,0:0:0:0:
64,192,105662,1,0,0:0:0:0:
448,192,105727,1,0,0:0:0:0:
192,192,105792,1,2,0:0:0:0:
320,192,105792,1,0,0:0:0:0:
64,192,105856,1,0,0:0:0:0:
448,192,105921,1,0,0:0:0:0:
320,192,105985,1,0,0:0:0:0:
64,192,106050,1,8,0:0:0:0:
192,192,106050,1,2,0:0:0:0:
448,192,106115,1,0,0:0:0:0:
320,192,106179,1,0,0:0:0:0:
64,192,106244,1,0,0:0:0:0:
192,192,106309,1,2,0:0:0:0:
448,192,106309,1,0,0:0:0:0:
320,192,106373,1,0,0:0:0:0:
64,192,106438,1,0,0:0:0:0:
192,192,106503,1,0,0:0:0:0:
320,192,106567,1,8,0:0:0:0:
448,192,106567,1,2,0:0:0:0:
64,192,106632,1,0,0:0:0:0:
192,192,106697,1,0,0:0:0:0:
448,192,106761,1,0,0:0:0:0:
64,192,106826,1,2,0:0:0:0:
320,192,106826,1,0,0:0:0:0:
192,192,106891,1,0,0:0:0:0:
448,192,106955,1,0,0:0:0:0:
320,192,107020,1,0,0:0:0:0:
64,192,107085,1,2,0:0:0:0:
192,192,107085,1,8,0:0:0:0:
448,192,107149,1,0,0:0:0:0:
320,192,107214,1,0,0:0:0:0:
64,192,107279,1,0,0:0:0:0:
192,192,107343,1,2,0:0:0:0:
448,192,107343,1,0,0:0:0:0:
320,192,107408,1,0,0:0:0:0:
64,192,107473,1,0,0:0:0:0:
192,192,107537,1,0,0:0:0:0:
320,192,107602,1,2,0:0:0:0:
448,192,107602,1,8,0:0:0:0:
64,192,107667,1,0,0:0:0:0:
192,192,107731,1,0,0:0:0:0:
448,192,107796,1,0,0:0:0:0:
64,192,107860,1,2,0:0:0:0:
320,192,107860,128,0,108119:0:0:0:0:
192,192,107990,1,0,0:0:0:0:
64,192,108119,1,2,0:0:0:0:
448,192,108119,1,8,0:0:0:0:
192,192,108248,1,0,0:0:0:0:
320,192,108378,1,2,0:0:0:0:
448,192,108378,1,0,0:0:0:0:
64,192,108507,1,2,0:0:0:0:
192,192,108507,1,0,0:0:0:0:
320,192,108572,1,2,0:0:0:0:
448,192,108572,1,0,0:0:0:0:
64,192,108636,1,8,0:0:0:0:
192,192,108636,1,2,0:0:0:0:
64,192,108766,1,2,0:0:0:0:
320,192,108766,1,0,0:0:0:0:
192,192,108895,1,2,0:0:0:0:
320,192,108895,1,4,0:0:0:0:
448,192,108895,128,0,109800:0:0:0:0:
64,192,109154,1,0,0:0:0:0:
64,192,109412,1,8,0:0:0:0:
192,192,109412,1,0,0:0:0:0:
320,192,109671,1,0,0:0:0:0:
64,192,109800,1,2,0:0:0:0:
192,192,109800,1,0,0:0:0:0:
320,192,109929,1,8,0:0:0:0:
448,192,109929,1,0,0:0:0:0:
192,192,110188,128,2,110447:0:0:0:0:
448,192,110188,1,0,0:0:0:0:
64,192,110447,1,8,0:0:0:0:
320,192,110447,128,0,110705:0:0:0:0:
64,192,110705,128,2,110878:0:0:0:0:
448,192,110705,1,0,0:0:0:0:
64,192,110964,128,8,111223:0:0:0:0:
192,192,110964,1,0,0:0:0:0:
448,192,111223,1,0,0:0:0:0:
320,192,111352,1,0,0:0:0:0:
192,192,111481,128,8,111740:0:0:0:0:
448,192,111481,1,0,0:0:0:0:
320,192,111740,1,0,0:0:0:0:
64,192,111869,1,2,0:0:0:0:
192,192,111869,1,0,0:0:0:0:
320,192,111998,1,8,0:0:0:0:
448,192,111998,128,0,112257:0:0:0:0:
64,192,112257,1,2,0:0:0:0:
192,192,112257,1,0,0:0:0:0:
320,192,112322,1,2,0:0:0:0:
64,192,112386,1,2,0:0:0:0:
448,192,112386,1,0,0:0:0:0:
192,192,112451,1,2,0:0:0:0:
320,192,112516,1,8,0:0:0:0:
448,192,112516,1,0,0:0:0:0:
64,192,112645,1,0,0:0:0:0:
192,192,112774,1,2,0:0:0:0:
448,192,112774,1,0,0:0:0:0:
64,192,112839,1,2,0:0:0:0:
320,192,112904,1,2,0:0:0:0:
448,192,112904,1,0,0:0:0:0:
192,192,112968,1,2,0:0:0:0:
64,192,113033,1,2,0:0:0:0:
320,192,113033,1,4,0:0:0:0:
448,192,113033,1,0,0:0:0:0:
192,192,113162,1,0,0:0:0:0:
64,192,113292,1,8,0:0:0:0:
320,192,113292,1,2,0:0:0:0:
320,192,113421,1,0,0:0:0:0:
192,192,113550,1,2,0:0:0:0:
448,192,113550,1,0,0:0:0:0:
64,192,113679,1,0,0:0:0:0:
320,192,113809,1,8,0:0:0:0:
448,192,113809,1,2,0:0:0:0:
448,192,113938,1,0,0:0:0:0:
64,192,114067,1,2,0:0:0:0:
192,192,114067,1,0,0:0:0:0:
448,192,114197,1,0,0:0:0:0:
192,192,114326,1,8,0:0:0:0:
320,192,114326,1,2,0:0:0:0:
192,192,114455,1,0,0:0:0:0:
64,192,114585,1,2,0:0:0:0:
448,192,114585,1,0,0:0:0:0:
320,192,114714,1,0,0:0:0:0:
64,192,114843,1,8,0:0:0:0:
192,192,114843,1,2,0:0:0:0:
64,192,114973,1,0,0:0:0:0:
320,192,115102,1,2,0:0:0:0:
448,192,115102,1,0,0:0:0:0:
192,192,115167,1,0,0:0:0:0:
64,192,115231,1,0,0:0:0:0:
448,192,115296,1,0,0:0:0:0:
192,192,115360,1,2,0:0:0:0:
320,192,115360,1,8,0:0:0:0:
64,192,115425,1,0,0:0:0:0:
448,192,115490,1,0,0:0:0:0:
320,192,115554,1,0,0:0:0:0:
64,192,115619,1,2,0:0:0:0:
192,192,115619,1,0,0:0:0:0:
448,192,115684,1,0,0:0:0:0:
320,192,115748,1,0,0:0:0:0:
64,192,115813,1,0,0:0:0:0:
192,192,115878,1,2,0:0:0:0:
448,192,115878,1,8,0:0:0:0:
320,192,115942,1,0,0:0:0:0:
64,192,116007,1,0,0:0:0:0:
192,192,116072,1,0,0:0:0:0:
320,192,116136,1,2,0:0:0:0:
448,192,116136,1,0,0:0:0:0:
64,192,116201,1,0,0:0:0:0:
192,192,116266,1,0,0:0:0:0:
448,192,116330,1,0,0:0:0:0:
64,192,116395,1,2,0:0:0:0:
320,192,116395,1,8,0:0:0:0:
192,192,116524,1,0,0:0:0:0:
320,192,116654,1,2,0:0:0:0:
448,192,116654,1,0,0:0:0:0:
64,192,116783,1,0,0:0:0:0:
320,192,116848,1,2,0:0:0:0:
448,192,116848,1,0,0:0:0:0:
64,192,116912,1,2,0:0:0:0:
192,192,116912,1,8,0:0:0:0:
192,192,117042,1,2,0:0:0:0:
448,192,117042,1,0,0:0:0:0:
64,192,117171,1,4,0:0:0:0:
320,192,117171,1,2,0:0:0:0:
448,192,117171,1,0,0:0:0:0:
192,192,117300,1,2,0:0:0:0:
320,192,117300,1,0,0:0:0:0:
64,192,117429,1,2,0:0:0:0:
192,192,117429,1,0,0:0:0:0:
320,192,117559,1,2,0:0:0:0:
448,192,117559,1,0,0:0:0:0:
64,192,117688,1,2,0:0:0:0:
192,192,117688,1,0,0:0:0:0:
192,192,117817,1,2,0:0:0:0:
320,192,117817,1,0,0:0:0:0:
320,192,117947,1,2,0:0:0:0:
448,192,117947,1,0,0:0:0:0:
64,192,118076,1,2,0:0:0:0:
192,192,118076,1,0,0:0:0:0:
64,192,118205,1,2,0:0:0:0:
320,192,118205,1,4,0:0:0:0:
448,192,118205,1,0,0:0:0:0:
192,192,118335,1,2,0:0:0:0:
448,192,118335,1,0,0:0:0:0:
192,192,118464,1,2,0:0:0:0:
320,192,118464,1,0,0:0:0:0:
64,192,118593,1,2,0:0:0:0:
320,192,118593,1,0,0:0:0:0:
192,192,118723,1,2,0:0:0:0:
448,192,118723,1,0,0:0:0:0:
192,192,118852,1,2,0:0:0:0:
320,192,118852,1,0,0:0:0:0:
64,192,118981,1,2,0:0:0:0:
320,192,118981,1,0,0:0:0:0:
64,192,119110,1,2,0:0:0:0:
448,192,119110,1,0,0:0:0:0:
192,192,119240,1,4,0:0:0:0:
320,192,119240,1,2,0:0:0:0:
448,192,119240,1,0,0:0:0:0:
64,192,119326,1,2,0:0:0:0:
320,192,119412,1,2,0:0:0:0:
64,192,119498,1,2,0:0:0:0:
192,192,119498,1,0,0:0:0:0:
448,192,119585,1,2,0:0:0:0:
320,192,119671,1,2,0:0:0:0:
64,192,119757,1,2,0:0:0:0:
192,192,119757,1,4,0:0:0:0:
448,192,119757,1,0,0:0:0:0:
320,192,119843,1,2,0:0:0:0:
192,192,119929,1,2,0:0:0:0:
64,192,120016,1,2,0:0:0:0:
448,192,120016,1,0,0:0:0:0:
320,192,120102,1,2,0:0:0:0:
192,192,120188,1,2,0:0:0:0:
64,192,120274,1,2,0:0:0:0:
320,192,120274,1,4,0:0:0:0:
448,192,120274,1,0,0:0:0:0:
192,192,120339,1,2,0:0:0:0:
64,192,120404,1,2,0:0:0:0:
448,192,120468,1,2,0:0:0:0:
192,192,120533,1,2,0:0:0:0:
320,192,120533,1,4,0:0:0:0:
64,192,120598,1,2,0:0:0:0:
448,192,120662,1,2,0:0:0:0:
320,192,120727,1,2,0:0:0:0:
64,192,120792,1,2,0:0:0:0:
192,192,120792,1,4,0:0:0:0:
448,192,120835,1,2,0:0:0:0:
320,192,120878,1,2,0:0:0:0:
64,192,120921,1,2,0:0:0:0:
192,192,120964,1,2,0:0:0:0:
448,192,121007,1,2,0:0:0:0:
320,192,121050,1,6,0:0:0:0:
64,192,121093,1,2,0:0:0:0:
192,192,121136,1,2,0:0:0:0:
320,192,121179,1,2,0:0:0:0:
448,192,121223,1,2,0:0:0:0:
