osu file format v14

[General]
AudioFilename: audio.mp3
AudioLeadIn: 0
PreviewTime: 82426
Countdown: 0
SampleSet: Soft
StackLeniency: 0.7
Mode: 2
LetterboxInBreaks: 0
WidescreenStoryboard: 0

[Editor]
DistanceSpacing: 0.6
BeatDivisor: 4
GridSize: 16
TimelineZoom: 3.099999

[Metadata]
Title:#curtaincall
TitleUnicode:#curtaincall
Artist:sak + wellow
ArtistUnicode:sak + wellow
Creator:Rocma
Version:#epilogue
Source:
Tags:Instrumental Electronic b4ut Rise'n B4UTy
BeatmapID:3079939
BeatmapSetID:1503349

[Difficulty]
HPDrainRate:5
CircleSize:4.2
OverallDifficulty:9.9
ApproachRate:9.9
SliderMultiplier:1.92
SliderTickRate:2

[Events]
//Background and Video events
0,0,"bg.jpg",0,0
//Break Periods
//Storyboard Layer 0 (Background)
//Storyboard Layer 1 (Fail)
//Storyboard Layer 2 (Pass)
//Storyboard Layer 3 (Foreground)
//Storyboard Layer 4 (Overlay)
//Storyboard Sound Samples

[TimingPoints]
2150,264.31718061674,4,2,2,50,1,0
2150,-200,4,2,2,50,0,0
14837,-100,4,2,2,50,0,0
44440,-100,4,2,2,60,0,1
61357,-100,4,2,2,50,0,0
63471,-150,4,2,2,50,0,0
71929,-100,4,2,2,50,0,0
82502,-46.1538461538462,4,2,2,60,0,1
83031,-100,4,2,2,60,0,1
86731,-46.1538461538462,4,2,2,60,0,1
86995,-100,4,2,2,60,0,1
95189,-46.1538461538462,4,2,2,60,0,1
95453,-100,4,2,2,60,0,1
99418,-100,4,2,2,50,0,0
107876,-100,4,2,2,60,0,1
120564,-100,4,2,2,50,0,0

[Colours]
Combo1 : 140,26,255
Combo2 : 0,230,57
Combo3 : 128,128,255
Combo4 : 227,129,9

[HitObjects]
256,192,35,12,0,2150,0:0:0:0:
256,288,2678,6,0,L|320:288,1,48,2|0,0:0|0:0,0:0:0:0:
256,224,3075,2,0,P|192:208|160:128,1,144,2|0,0:0|0:0,0:0:0:0:
256,96,3735,2,0,L|352:96,1,96,2|0,0:0|0:0,0:0:0:0:
224,144,4264,5,2,0:0:0:0:
160,208,4462,2,0,L|144:288,1,72,0|0,0:0|0:0,0:0:0:0:
288,144,4793,1,2,0:0:0:0:
352,208,4991,2,0,L|368:288,1,72,0|0,0:0|0:0,0:0:0:0:
224,144,5321,5,2,0:0:0:0:
368,176,5586,2,0,P|352:224|304:240,1,96,0|2,0:0|0:0,0:0:0:0:
128,240,6114,1,0,0:0:0:0:
464,240,6379,5,2,0:0:0:0:
304,176,6577,2,0,L|384:176,1,72,0|0,0:0|0:0,0:0:0:0:
304,240,6907,2,0,L|192:240,1,96,2|0,0:0|0:0,0:0:0:0:
256,240,7304,2,0,P|320:224|352:144,1,144,2|0,0:0|0:0,0:0:0:0:
256,112,7964,2,0,L|144:112,1,96,2|0,0:0|0:0,0:0:0:0:
368,176,8493,6,0,L|384:288,1,96,2|0,0:0|0:0,0:0:0:0:
144,176,9022,2,0,L|128:288,1,96,2|0,0:0|0:0,0:0:0:0:
256,304,9550,5,0,0:0:0:0:
128,336,9815,2,0,L|32:336,2,96,2|0|0,0:0|0:0|0:0,0:0:0:0:
480,336,10608,6,0,P|433:304|491:197,1,192,2|0,0:0|0:0,0:0:0:0:
400,160,11268,1,0,0:0:0:0:
480,128,11401,1,0,0:0:0:0:
400,96,11533,2,0,L|240:96,1,144,0|0,0:0|0:0,0:0:0:0:
400,176,12194,2,0,P|432:208|384:233,1,96,0|0,0:0|0:0,0:0:0:0:
32,336,12722,6,0,P|79:304|21:197,1,192,2|0,0:0|0:0,0:0:0:0:
112,160,13383,1,0,0:0:0:0:
192,128,13516,1,0,0:0:0:0:
112,96,13647,2,0,L|272:96,1,144,0|0,0:0|0:0,0:0:0:0:
448,176,14308,2,0,L|352:176,1,96,0|0,0:0|0:0,0:0:0:0:
16,224,14837,5,8,0:0:0:0:
112,224,14969,2,0,L|192:224,2,48,0|0|2,0:0|0:0|0:0,0:0:0:0:
16,224,15233,1,2,0:0:0:0:
256,192,15365,2,0,L|384:192,1,96,8|0,0:0|0:0,0:0:0:0:
112,128,15630,2,0,L|-16:128,1,96,8|0,0:0|0:0,0:0:0:0:
64,128,15828,1,0,0:0:0:0:
272,96,15894,5,8,0:0:0:0:
176,96,16026,2,0,L|96:96,2,48,0|0|8,0:0|0:0|0:0,0:0:0:0:
272,96,16290,2,0,L|336:96,1,48,0|0,0:0|0:0,0:0:0:0:
160,192,16423,6,0,L|64:192,1,96,8|0,0:0|0:0,0:0:0:0:
40,192,16588,2,0,L|72:192,1,24,0|0,0:0|0:0,0:0:0:0:
160,192,16654,1,0,0:0:0:0:
256,192,16687,6,0,L|352:192,1,96,8|0,0:0|0:0,0:0:0:0:
376,192,16852,2,0,L|344:192,1,24,0|0,0:0|0:0,0:0:0:0:
256,192,16918,1,0,0:0:0:0:
128,288,16951,6,0,L|64:288,1,48,8|0,0:0|0:0,0:0:0:0:
256,256,17083,2,0,L|320:256,1,48,2|0,0:0|0:0,0:0:0:0:
160,192,17216,2,0,L|112:192,1,48,2|0,0:0|0:0,0:0:0:0:
93,147,17348,2,0,L|114:198,1,48,2|0,0:0|0:0,0:0:0:0:
304,160,17480,6,0,L|368:160,1,48,8|0,0:0|0:0,0:0:0:0:
176,128,17612,2,0,L|112:128,1,48,2|0,0:0|0:0,0:0:0:0:
288,80,17744,2,0,L|336:80,1,48,2|0,0:0|0:0,0:0:0:0:
355,35,17876,2,0,L|334:86,1,48,2|0,0:0|0:0,0:0:0:0:
288,80,18009,1,0,0:0:0:0:
48,96,18141,6,0,L|48:256,1,144,8|0,0:0|0:0,0:0:0:0:
208,208,18405,2,0,L|96:208,1,96,2|0,0:0|0:0,0:0:0:0:
240,192,18603,1,0,0:0:0:0:
368,256,18669,2,0,L|304:256,1,48,2|0,0:0|0:0,0:0:0:0:
112,256,18801,1,0,0:0:0:0:
240,224,18868,1,0,0:0:0:0:
368,192,18934,1,2,0:0:0:0:
48,112,19066,6,0,L|32:240,1,96,4|0,0:0|0:0,0:0:0:0:
192,208,19264,2,0,L|199:285,1,48,0|0,0:0|0:0,0:0:0:0:
96,304,19462,1,0,0:0:0:0:
304,112,19594,6,0,L|320:240,1,96,4|0,0:0|0:0,0:0:0:0:
160,208,19792,2,0,L|153:285,1,48,0|0,0:0|0:0,0:0:0:0:
256,304,19990,1,0,0:0:0:0:
464,112,20123,6,0,L|480:240,1,96,4|0,0:0|0:0,0:0:0:0:
320,208,20321,2,0,L|313:285,1,48,0|0,0:0|0:0,0:0:0:0:
416,304,20519,1,0,0:0:0:0:
208,112,20651,6,0,L|192:240,1,96,4|0,0:0|0:0,0:0:0:0:
352,208,20849,2,0,L|359:285,1,48,0|0,0:0|0:0,0:0:0:0:
160,304,21047,1,4,0:0:0:0:
384,304,21180,6,0,L|512:304,1,96,4|0,0:0|0:0,0:0:0:0:
336,256,21379,2,0,L|288:256,1,48,0|0,0:0|0:0,0:0:0:0:
400,208,21577,1,0,0:0:0:0:
160,224,21709,6,0,L|32:224,1,96,4|0,0:0|0:0,0:0:0:0:
208,176,21908,2,0,L|256:176,1,48,0|0,0:0|0:0,0:0:0:0:
144,128,22106,1,0,0:0:0:0:
352,336,22238,6,0,L|480:336,1,96,4|0,0:0|0:0,0:0:0:0:
304,288,22437,2,0,L|256:288,1,48,0|0,0:0|0:0,0:0:0:0:
368,240,22635,1,0,0:0:0:0:
128,256,22767,6,0,L|0:256,1,96,4|0,0:0|0:0,0:0:0:0:
208,208,22964,2,0,L|256:208,1,48,0|0,0:0|0:0,0:0:0:0:
32,144,23164,1,4,0:0:0:0:
384,96,23295,6,0,L|496:96,1,96,8|0,0:0|0:0,0:0:0:0:
272,192,23559,2,0,L|384:192,1,96,8|0,0:0|0:0,0:0:0:0:
128,96,23824,2,0,L|16:96,1,96,8|0,0:0|0:0,0:0:0:0:
240,192,24088,2,0,L|128:192,1,96,8|0,0:0|0:0,0:0:0:0:
480,304,24352,6,0,L|384:304,1,96,8|0,0:0|0:0,0:0:0:0:
176,304,24616,2,0,L|272:304,1,96,8|0,0:0|0:0,0:0:0:0:
32,304,24881,2,0,L|128:304,1,96,8|0,0:0|0:0,0:0:0:0:
336,304,25145,2,0,L|240:304,1,96,8|0,0:0|0:0,0:0:0:0:
448,224,25409,6,0,L|496:224,1,48,8|0,0:0|0:0,0:0:0:0:
272,160,25542,2,0,L|208:160,1,48,8|0,0:0|0:0,0:0:0:0:
384,128,25674,2,0,L|432:128,1,48,8|0,0:0|0:0,0:0:0:0:
208,64,25807,2,0,L|144:64,1,48,8|0,0:0|0:0,0:0:0:0:
464,320,25938,6,0,L|480:256,1,48,8|0,0:0|0:0,0:0:0:0:
288,272,26070,1,8,0:0:0:0:
224,272,26136,1,0,0:0:0:0:
48,320,26202,2,0,L|32:256,1,48,8|0,0:0|0:0,0:0:0:0:
224,272,26334,1,8,0:0:0:0:
288,272,26400,1,0,0:0:0:0:
48,192,26467,5,8,0:0:0:0:
256,192,26599,12,0,27260,0:0:0:0:
352,304,27524,6,0,P|416:240|336:192,1,192,4|0,0:0|0:0,0:0:0:0:
208,176,28053,1,0,0:0:0:0:
304,176,28185,2,0,P|368:112|288:64,1,192,0|0,0:0|0:0,0:0:0:0:
192,64,28581,6,0,L|384:64,1,192,4|0,0:0|0:0,0:0:0:0:
32,192,29110,2,0,L|240:192,1,192,0|0,0:0|0:0,0:0:0:0:
464,208,29638,6,0,P|448:304|336:336,2,192,2|0|0,0:0|0:0|0:0,0:0:0:0:
272,208,30431,1,0,0:0:0:0:
48,208,30696,2,0,P|64:304|176:336,2,192,2|0|0,0:0|0:0|0:0,0:0:0:0:
240,208,31489,1,0,0:0:0:0:
128,208,31621,2,0,L|48:208,1,48,0|0,0:0|0:0,0:0:0:0:
256,144,31753,6,0,P|336:160|368:272,1,192,4|0,0:0|0:0,0:0:0:0:
192,208,32282,2,0,P|112:224|80:336,1,192,0|0,0:0|0:0,0:0:0:0:
304,336,32810,1,4,0:0:0:0:
96,336,33075,2,0,L|80:128,1,192,0|0,0:0|0:0,0:0:0:0:
432,80,33603,1,0,0:0:0:0:
80,80,33868,6,0,P|96:144|224:192,1,192,2|0,0:0|0:0,0:0:0:0:
368,192,34396,2,0,P|352:256|224:304,1,192,0|0,0:0|0:0,0:0:0:0:
432,80,34925,2,0,P|416:144|288:192,1,192,2|0,0:0|0:0,0:0:0:0:
144,192,35453,2,0,P|160:256|288:304,1,192,0|0,0:0|0:0,0:0:0:0:
368,320,35850,2,0,L|304:320,1,48,0|0,0:0|0:0,0:0:0:0:
48,336,35982,6,0,L|144:336,1,96,8|0,0:0|0:0,0:0:0:0:
256,272,36246,2,0,L|160:272,1,96,8|0,0:0|0:0,0:0:0:0:
368,208,36511,1,8,0:0:0:0:
160,192,36643,2,0,L|48:192,1,96,8|0,0:0|0:0,0:0:0:0:
272,128,36907,1,8,0:0:0:0:
48,112,37039,6,0,L|48:224,1,96,8|0,0:0|0:0,0:0:0:0:
176,208,37304,2,0,L|176:304,1,96,8|0,0:0|0:0,0:0:0:0:
48,112,37568,2,0,L|48:224,1,96,8|0,0:0|0:0,0:0:0:0:
272,256,37832,1,8,0:0:0:0:
48,288,37964,1,0,0:0:0:0:
368,336,38097,6,0,L|464:336,1,96,8|0,0:0|0:0,0:0:0:0:
352,272,38361,2,0,L|256:272,1,96,8|0,0:0|0:0,0:0:0:0:
464,224,38626,1,8,0:0:0:0:
256,208,38758,2,0,L|160:208,1,96,8|0,0:0|0:0,0:0:0:0:
368,128,39022,1,8,0:0:0:0:
160,112,39154,6,0,L|160:224,1,96,8|0,0:0|0:0,0:0:0:0:
288,192,39419,2,0,L|288:288,1,96,8|0,0:0|0:0,0:0:0:0:
416,128,39683,2,0,L|416:240,1,96,8|0,0:0|0:0,0:0:0:0:
368,224,39881,1,0,0:0:0:0:
176,256,39947,2,0,L|288:256,1,96,8|0,0:0|0:0,0:0:0:0:
224,256,40145,1,0,0:0:0:0:
48,304,40211,6,0,L|160:304,1,96,8|0,0:0|0:0,0:0:0:0:
352,304,40475,2,0,L|240:304,1,96,0|0,0:0|0:0,0:0:0:0:
480,256,40740,1,8,0:0:0:0:
256,208,40872,2,0,L|352:208,1,96,8|0,0:0|0:0,0:0:0:0:
128,144,41136,1,8,0:0:0:0:
400,208,41268,6,0,L|416:80,1,96,8|0,0:0|0:0,0:0:0:0:
112,208,41533,2,0,L|96:80,1,96,0|0,0:0|0:0,0:0:0:0:
384,80,41797,2,0,L|480:80,1,96,8|0,0:0|0:0,0:0:0:0:
128,80,42061,2,0,L|32:80,1,96,8|0,0:0|0:0,0:0:0:0:
352,320,42326,5,8,0:0:0:0:
393,300,42392,1,0,0:0:0:0:
399,254,42458,1,0,0:0:0:0:
364,225,42524,1,0,0:0:0:0:
208,224,42590,2,0,L|160:224,1,48,8|0,0:0|0:0,0:0:0:0:
304,144,42722,2,0,L|240:144,1,48,0|0,0:0|0:0,0:0:0:0:
64,272,42854,5,8,0:0:0:0:
22,252,42920,1,0,0:0:0:0:
16,206,42986,1,0,0:0:0:0:
51,177,43052,1,0,0:0:0:0:
208,176,43118,2,0,L|256:176,1,48,8|0,0:0|0:0,0:0:0:0:
64,96,43250,2,0,L|0:96,1,48,8|0,0:0|0:0,0:0:0:0:
288,256,43383,6,0,L|448:256,1,144,8|0,0:0|0:0,0:0:0:0:
352,240,43647,2,0,L|352:96,1,144,4|0,0:0|0:0,0:0:0:0:
272,144,43912,2,0,L|272:48,1,96,4|4,0:0|0:0,0:0:0:0:
320,48,44110,1,4,0:0:0:0:
176,48,44176,2,0,L|16:48,1,144,8|0,0:0|0:0,0:0:0:0:
256,160,44440,6,0,P|336:192|352:272,1,144,4|0,0:0|0:0,0:0:0:0:
208,288,44705,2,0,L|80:288,1,96,8|0,0:0|0:0,0:0:0:0:
336,224,44969,1,2,0:0:0:0:
112,160,45101,2,0,L|224:160,1,96,8|0,0:0|0:0,0:0:0:0:
432,160,45365,1,8,0:0:0:0:
176,160,45498,6,0,L|112:160,2,48,2|0|8,0:0|0:0|0:0,0:0:0:0:
288,128,45762,2,0,L|192:128,1,96,0|8,0:0|0:0,0:0:0:0:
432,128,46026,6,0,L|496:128,2,48,0|0|8,0:0|0:0|0:0,0:0:0:0:
320,96,46290,2,0,L|272:96,1,48,2|0,0:0|0:0,0:0:0:0:
432,96,46423,2,0,L|480:96,1,48,2|0,0:0|0:0,0:0:0:0:
304,224,46555,6,0,L|192:224,1,96,4|0,0:0|0:0,0:0:0:0:
256,224,46753,1,0,0:0:0:0:
432,224,46819,1,0,0:0:0:0:
208,288,46951,2,0,L|320:288,1,96,4|0,0:0|0:0,0:0:0:0:
256,288,47149,1,0,0:0:0:0:
80,288,47215,1,0,0:0:0:0:
304,224,47348,2,0,L|416:224,1,96,4|0,0:0|0:0,0:0:0:0:
352,224,47546,1,0,0:0:0:0:
112,160,47612,6,0,L|176:160,1,48,2|0,0:0|0:0,0:0:0:0:
304,128,47744,2,0,L|224:128,1,48,0|0,0:0|0:0,0:0:0:0:
112,96,47876,1,8,0:0:0:0:
400,160,48009,2,0,L|336:160,1,48,2|0,0:0|0:0,0:0:0:0:
208,128,48141,2,0,L|288:128,1,48,0|0,0:0|0:0,0:0:0:0:
400,96,48273,1,8,0:0:0:0:
160,224,48405,2,0,L|96:224,1,48,2|0,0:0|0:0,0:0:0:0:
352,224,48537,2,0,L|416:224,1,48,8|0,0:0|0:0,0:0:0:0:
256,160,48669,6,0,P|176:192|160:272,1,144,4|0,0:0|0:0,0:0:0:0:
304,288,48934,2,0,L|432:288,1,96,8|2,0:0|0:0,0:0:0:0:
176,224,49198,1,0,0:0:0:0:
400,160,49330,2,0,L|288:160,1,96,2|8,0:0|0:0,0:0:0:0:
80,160,49594,1,0,0:0:0:0:
304,224,49727,6,0,L|320:336,1,96,4|0,0:0|0:0,0:0:0:0:
270,335,49925,1,0,0:0:0:0:
448,224,49991,2,0,L|464:336,1,96,2|0,0:0|0:0,0:0:0:0:
414,335,50189,1,0,0:0:0:0:
208,336,50255,6,0,L|96:336,1,96,2|0,0:0|0:0,0:0:0:0:
160,336,50453,1,0,0:0:0:0:
304,336,50520,2,0,L|416:336,1,96,8|0,0:0|0:0,0:0:0:0:
352,336,50718,1,0,0:0:0:0:
144,304,50784,6,0,P|96:272|167:168,1,192,4|8,0:0|0:0,0:0:0:0:
368,160,51180,2,0,L|432:160,1,48,0|0,0:0|0:0,0:0:0:0:
208,128,51312,2,0,L|96:128,1,96,2|0,0:0|0:0,0:0:0:0:
304,128,51577,2,0,L|416:128,1,96,8|0,0:0|0:0,0:0:0:0:
144,288,51841,6,0,L|96:288,1,48,2|0,0:0|0:0,0:0:0:0:
240,256,51973,2,0,L|256:192,1,48,0|0,0:0|0:0,0:0:0:0:
192,208,52105,2,0,L|176:144,1,48,8|0,0:0|0:0,0:0:0:0:
368,288,52238,2,0,L|416:288,1,48,2|0,0:0|0:0,0:0:0:0:
272,256,52370,2,0,L|256:192,1,48,0|0,0:0|0:0,0:0:0:0:
400,160,52502,2,0,L|432:160,2,24,8|0|0,0:0|0:0|0:0,0:0:0:0:
256,160,52601,1,0,0:0:0:0:
112,160,52634,2,0,L|32:160,1,48,2|0,0:0|0:0,0:0:0:0:
208,144,52766,1,2,0:0:0:0:
352,128,52832,1,0,0:0:0:0:
160,240,52898,5,4,0:0:0:0:
48,272,53031,2,0,L|112:272,1,48,0|0,0:0|0:0,0:0:0:0:
320,224,53163,1,8,0:0:0:0:
64,208,53295,2,0,L|48:96,1,96,2|0,0:0|0:0,0:0:0:0:
288,128,53559,2,0,L|304:16,1,96,4|8,0:0|0:0,0:0:0:0:
80,32,53824,1,0,0:0:0:0:
320,32,53956,6,0,L|448:32,1,96,2|0,0:0|0:0,0:0:0:0:
368,32,54154,1,0,0:0:0:0:
208,96,54220,2,0,L|192:192,1,96,4|0,0:0|0:0,0:0:0:0:
240,208,54418,1,0,0:0:0:0:
400,240,54484,6,0,L|528:240,1,96,2|0,0:0|0:0,0:0:0:0:
448,240,54682,1,0,0:0:0:0:
224,240,54749,2,0,L|208:336,1,96,8|0,0:0|0:0,0:0:0:0:
256,352,54947,1,0,0:0:0:0:
480,336,55013,6,0,L|368:336,1,96,4|0,0:0|0:0,0:0:0:0:
432,336,55211,2,0,L|496:336,1,48,0|8,0:0|0:0,0:0:0:0:
224,320,55409,2,0,L|128:320,1,96,2|0,0:0|0:0,0:0:0:0:
176,320,55608,1,0,0:0:0:0:
304,272,55674,2,0,L|400:272,1,96,2|8,0:0|0:0,0:0:0:0:
352,272,55873,1,0,0:0:0:0:
176,256,55938,1,0,0:0:0:0:
416,224,56070,6,0,L|432:112,1,96,4|0,0:0|0:0,0:0:0:0:
378,126,56268,1,0,0:0:0:0:
192,128,56335,2,0,L|288:128,1,96,2|0,0:0|0:0,0:0:0:0:
240,128,56533,1,0,0:0:0:0:
16,192,56599,6,0,L|128:192,1,96,2|4,0:0|0:0,0:0:0:0:
352,240,56863,1,8,0:0:0:0:
112,272,56995,2,0,L|32:272,1,48,0|0,0:0|0:0,0:0:0:0:
256,240,57127,6,0,L|368:240,1,96,4|0,0:0|0:0,0:0:0:0:
240,192,57392,2,0,L|176:192,2,48,8|0|0,0:0|0:0|0:0,0:0:0:0:
464,144,57656,5,2,0:0:0:0:
224,112,57788,2,0,L|208:0,1,96,2|8,0:0|0:0,0:0:0:0:
448,48,58053,1,0,0:0:0:0:
192,64,58185,6,0,L|304:64,1,96,4|0,0:0|0:0,0:0:0:0:
240,64,58383,1,0,0:0:0:0:
64,128,58449,2,0,L|48:224,1,96,2|0,0:0|0:0,0:0:0:0:
96,240,58647,1,0,0:0:0:0:
272,192,58713,6,0,L|160:192,1,96,2|0,0:0|0:0,0:0:0:0:
224,192,58911,1,0,0:0:0:0:
400,256,58977,2,0,L|416:352,1,96,8|0,0:0|0:0,0:0:0:0:
368,368,59175,1,0,0:0:0:0:
112,352,59242,6,0,L|-16:352,1,96,4|0,0:0|0:0,0:0:0:0:
240,288,59506,2,0,L|128:288,1,96,8|0,0:0|0:0,0:0:0:0:
368,352,59771,2,0,L|240:352,1,96,0|2,0:0|0:0,0:0:0:0:
496,288,60035,2,0,L|384:288,1,96,8|0,0:0|0:0,0:0:0:0:
112,288,60299,6,0,B|16:288|16:288|128:288,1,192,4|0,0:0|0:0,0:0:0:0:
400,288,60696,2,0,B|496:288|496:288|384:288,1,192,4|0,0:0|0:0,0:0:0:0:
112,288,61092,1,4,0:0:0:0:
320,304,61357,5,2,0:0:0:0:
331,300,61373,1,0,0:0:0:0:
359,278,61423,1,0,0:0:0:0:
364,268,61439,1,0,0:0:0:0:
366,232,61489,1,0,0:0:0:0:
362,221,61506,1,0,0:0:0:0:
336,197,61555,1,0,0:0:0:0:
325,193,61572,1,0,0:0:0:0:
256,176,61621,5,0,0:0:0:0:
245,172,61638,1,0,0:0:0:0:
219,148,61687,1,0,0:0:0:0:
215,137,61704,1,0,0:0:0:0:
217,101,61754,1,0,0:0:0:0:
222,91,61770,1,0,0:0:0:0:
250,69,61820,1,0,0:0:0:0:
261,65,61836,1,0,0:0:0:0:
416,304,61885,5,0,0:0:0:0:
427,300,61901,1,0,0:0:0:0:
455,278,61951,1,0,0:0:0:0:
460,268,61967,1,0,0:0:0:0:
462,232,62017,1,0,0:0:0:0:
458,221,62034,1,0,0:0:0:0:
432,197,62083,1,0,0:0:0:0:
421,193,62100,1,0,0:0:0:0:
352,176,62149,5,0,0:0:0:0:
341,172,62166,1,0,0:0:0:0:
315,148,62215,1,0,0:0:0:0:
311,137,62232,1,0,0:0:0:0:
313,101,62282,1,0,0:0:0:0:
318,91,62298,1,0,0:0:0:0:
346,69,62348,1,0,0:0:0:0:
357,65,62364,1,0,0:0:0:0:
192,304,62414,5,2,0:0:0:0:
153,278,62480,1,0,0:0:0:0:
146,232,62546,1,0,0:0:0:0:
176,197,62612,1,0,0:0:0:0:
256,176,62678,5,0,0:0:0:0:
293,148,62744,1,0,0:0:0:0:
295,101,62811,1,0,0:0:0:0:
262,69,62877,1,0,0:0:0:0:
96,304,62942,5,2,0:0:0:0:
57,278,63008,1,0,0:0:0:0:
50,232,63074,1,0,0:0:0:0:
80,197,63140,1,0,0:0:0:0:
160,176,63206,5,2,0:0:0:0:
197,148,63272,1,0,0:0:0:0:
199,101,63339,1,0,0:0:0:0:
166,69,63405,1,0,0:0:0:0:
352,256,63471,6,0,L|432:256,2,64,4|0|0,0:0|0:0|0:0,0:0:0:0:
256,208,63868,2,0,L|336:208,2,64,0|0|0,0:0|0:0|0:0,0:0:0:0:
352,256,64264,2,0,L|432:256,1,64,0|0,0:0|0:0,0:0:0:0:
208,304,64528,6,0,L|128:304,2,64,4|0|0,0:0|0:0|0:0,0:0:0:0:
304,256,64925,2,0,L|384:256,2,64,0|0|0,0:0|0:0|0:0,0:0:0:0:
208,304,65321,1,4,0:0:0:0:
304,304,65453,1,0,0:0:0:0:
96,256,65586,6,0,L|160:256,2,64,4|0|0,0:0|0:0|0:0,0:0:0:0:
192,208,65983,2,0,L|256:208,2,64,0|0|0,0:0|0:0|0:0,0:0:0:0:
96,256,66379,2,0,L|160:256,1,64,0|0,0:0|0:0,0:0:0:0:
368,304,66643,6,0,L|304:304,2,64,4|0|0,0:0|0:0|0:0,0:0:0:0:
256,256,67040,2,0,L|192:256,2,64,0|0|0,0:0|0:0|0:0,0:0:0:0:
368,320,67436,1,0,0:0:0:0:
256,320,67568,1,0,0:0:0:0:
32,320,67700,6,0,L|96:320,1,64,4|0,0:0|0:0,0:0:0:0:
160,320,67964,1,0,0:0:0:0:
256,272,68097,2,0,L|192:272,1,64,0|0,0:0|0:0,0:0:0:0:
128,272,68361,1,0,0:0:0:0:
32,224,68493,1,0,0:0:0:0:
128,224,68625,1,0,0:0:0:0:
368,144,68757,6,0,L|304:144,1,64,4|0,0:0|0:0,0:0:0:0:
240,144,69022,1,0,0:0:0:0:
144,112,69154,2,0,L|208:112,1,64,0|0,0:0|0:0,0:0:0:0:
272,96,69419,1,0,0:0:0:0:
368,48,69550,1,0,0:0:0:0:
272,32,69683,1,0,0:0:0:0:
496,320,69815,6,0,L|480:256,1,64,4|0,0:0|0:0,0:0:0:0:
368,240,70079,1,0,0:0:0:0:
256,208,70211,2,0,L|272:144,1,64,0|0,0:0|0:0,0:0:0:0:
384,128,70475,1,0,0:0:0:0:
272,80,70608,1,4,0:0:0:0:
384,64,70740,1,0,0:0:0:0:
144,96,70872,6,0,L|16:96,1,128,8|0,0:0|0:0,0:0:0:0:
256,144,71268,2,0,L|384:144,1,128,8|2,0:0|0:0,0:0:0:0:
400,144,71566,2,0,L|384:144,1,16,0|0,0:0|0:0,0:0:0:0:
256,192,71665,2,0,L|192:192,1,64,8|0,0:0|0:0,0:0:0:0:
176,192,71830,2,0,L|192:192,1,16,0|0,0:0|0:0,0:0:0:0:
384,176,71929,6,0,L|496:176,1,96,4|0,0:0|0:0,0:0:0:0:
272,288,72194,2,0,L|368:288,1,96,8|0,0:0|0:0,0:0:0:0:
256,208,72458,2,0,L|144:208,1,96,0|0,0:0|0:0,0:0:0:0:
368,320,72723,2,0,L|272:320,1,96,8|0,0:0|0:0,0:0:0:0:
48,320,72987,6,0,L|144:320,2,96,4|0|8,0:0|0:0|0:0,0:0:0:0:
256,272,73383,2,0,L|368:272,2,96,0|0|2,0:0|0:0|0:0,0:0:0:0:
16,240,73779,1,8,0:0:0:0:
256,192,73912,1,0,0:0:0:0:
32,176,74044,6,0,L|128:176,1,96,4|0,0:0|0:0,0:0:0:0:
336,208,74309,2,0,L|240:208,1,96,8|0,0:0|0:0,0:0:0:0:
352,272,74572,2,0,L|256:272,1,96,0|0,0:0|0:0,0:0:0:0:
48,304,74837,2,0,L|144:304,1,96,8|0,0:0|0:0,0:0:0:0:
192,304,75035,1,0,0:0:0:0:
352,304,75101,6,0,L|448:304,2,96,4|0|8,0:0|0:0|0:0,0:0:0:0:
160,288,75498,2,0,L|144:176,1,96,0|0,0:0|0:0,0:0:0:0:
272,208,75762,2,0,L|288:128,1,48,2|0,0:0|0:0,0:0:0:0:
96,144,75894,1,8,0:0:0:0:
336,96,76027,1,0,0:0:0:0:
32,80,76158,6,0,L|144:80,1,96,4|0,0:0|0:0,0:0:0:0:
480,80,76423,2,0,L|368:80,1,96,8|0,0:0|0:0,0:0:0:0:
32,80,76687,2,0,L|144:80,1,96,0|0,0:0|0:0,0:0:0:0:
368,144,76951,1,8,0:0:0:0:
144,144,77083,1,0,0:0:0:0:
384,256,77216,6,0,L|464:256,2,64,2|0|0,0:0|0:0|0:0,0:0:0:0:
192,256,77480,1,8,0:0:0:0:
256,256,77568,1,0,0:0:0:0:
320,256,77656,1,0,0:0:0:0:
128,256,77744,6,0,L|48:256,2,64,0|0|0,0:0|0:0|0:0,0:0:0:0:
368,128,78008,1,8,0:0:0:0:
304,128,78096,1,0,0:0:0:0:
144,128,78184,1,0,0:0:0:0:
432,288,78273,6,0,L|496:288,1,48,4|0,0:0|0:0,0:0:0:0:
256,288,78405,2,0,L|240:224,1,48,0|0,0:0|0:0,0:0:0:0:
420,241,78537,2,0,L|484:193,1,48,8|0,0:0|0:0,0:0:0:0:
244,241,78669,2,0,L|196:177,1,48,0|0,0:0|0:0,0:0:0:0:
391,202,78801,6,0,L|439:138,1,48,0|0,0:0|0:0,0:0:0:0:
215,202,78934,2,0,L|151:154,1,48,2|0,0:0|0:0,0:0:0:0:
352,173,79066,2,0,L|368:109,1,48,8|0,0:0|0:0,0:0:0:0:
176,173,79198,2,0,L|112:173,1,48,0|0,0:0|0:0,0:0:0:0:
336,288,79330,6,0,L|400:288,1,48,4|0,0:0|0:0,0:0:0:0:
160,288,79462,2,0,L|144:224,1,48,0|0,0:0|0:0,0:0:0:0:
324,241,79594,2,0,L|388:193,1,48,8|0,0:0|0:0,0:0:0:0:
148,241,79726,2,0,L|100:177,1,48,0|0,0:0|0:0,0:0:0:0:
295,202,79859,6,0,L|343:138,1,48,0|0,0:0|0:0,0:0:0:0:
119,202,79991,2,0,L|55:154,1,48,2|0,0:0|0:0,0:0:0:0:
256,173,80123,2,0,L|272:109,1,48,8|0,0:0|0:0,0:0:0:0:
80,173,80255,2,0,L|16:173,1,48,8|0,0:0|0:0,0:0:0:0:
336,320,80387,6,0,L|384:320,1,48,4|0,0:0|0:0,0:0:0:0:
176,320,80519,2,0,L|128:320,1,48,8|0,0:0|0:0,0:0:0:0:
256,240,80651,1,8,0:0:0:0:
384,240,80717,1,0,0:0:0:0:
256,240,80783,1,0,0:0:0:0:
128,240,80849,1,0,0:0:0:0:
368,272,80916,6,0,L|416:272,1,48,2|0,0:0|0:0,0:0:0:0:
160,272,81049,2,0,L|112:272,1,48,8|0,0:0|0:0,0:0:0:0:
256,160,81181,1,8,0:0:0:0:
416,176,81247,1,0,0:0:0:0:
256,144,81313,1,0,0:0:0:0:
112,160,81379,1,0,0:0:0:0:
384,256,81445,6,0,L|496:256,1,96,4|0,0:0|0:0,0:0:0:0:
32,256,81709,2,0,L|128:256,1,96,4|0,0:0|0:0,0:0:0:0:
496,336,81973,6,0,L|384:336,1,96,8|0,0:0|0:0,0:0:0:0:
256,320,82172,1,0,0:0:0:0:
112,336,82238,2,0,L|16:336,1,96,8|0,0:0|0:0,0:0:0:0:
64,336,82436,1,0,0:0:0:0:
256,256,82502,6,0,B|464:256|464:256|464:128,1,311.999996032715,4|0,0:0|0:0,0:0:0:0:
256,256,82766,2,0,B|48:256|48:256|48:128,1,311.999996032715,8|0,0:0|0:0,0:0:0:0:
256,160,83031,1,2,0:0:0:0:
464,144,83163,2,0,L|352:144,1,96,8|0,0:0|0:0,0:0:0:0:
48,144,83427,1,8,0:0:0:0:
368,208,83559,6,0,L|480:208,1,96,4|8,0:0|0:0,0:0:0:0:
256,224,83824,2,0,L|144:224,1,96,0|8,0:0|0:0,0:0:0:0:
368,288,84088,1,0,0:0:0:0:
160,320,84220,1,8,0:0:0:0:
256,304,84352,2,0,L|272:240,1,48,2|0,0:0|0:0,0:0:0:0:
96,240,84484,2,0,L|80:176,1,48,2|0,0:0|0:0,0:0:0:0:
272,128,84616,6,0,L|368:128,1,96,4|0,0:0|0:0,0:0:0:0:
240,144,84815,1,0,0:0:0:0:
112,160,84881,1,0,0:0:0:0:
352,224,85013,6,0,L|448:224,1,96,4|0,0:0|0:0,0:0:0:0:
320,240,85212,1,0,0:0:0:0:
192,256,85278,1,0,0:0:0:0:
400,304,85409,1,4,0:0:0:0:
176,352,85542,1,0,0:0:0:0:
416,352,85674,6,0,L|432:272,1,48,2|0,0:0|0:0,0:0:0:0:
256,288,85806,2,0,L|240:208,1,48,0|0,0:0|0:0,0:0:0:0:
416,192,85938,1,8,0:0:0:0:
160,224,86070,2,0,L|144:144,1,48,2|0,0:0|0:0,0:0:0:0:
320,160,86202,2,0,L|336:80,1,48,0|0,0:0|0:0,0:0:0:0:
160,64,86334,1,8,0:0:0:0:
368,48,86467,2,0,L|432:48,1,48,2|0,0:0|0:0,0:0:0:0:
144,48,86599,2,0,L|80:48,1,48,8|0,0:0|0:0,0:0:0:0:
256,240,86731,6,0,B|464:240|464:240|208:240,1,415.999994710287,4|8,0:0|0:0,0:0:0:0:
368,240,87127,1,0,0:0:0:0:
144,240,87260,1,0,0:0:0:0:
192,240,87326,1,0,0:0:0:0:
240,240,87392,1,2,0:0:0:0:
128,192,87524,1,8,0:0:0:0:
384,192,87656,1,0,0:0:0:0:
112,112,87788,6,0,L|0:112,1,96,4|0,0:0|0:0,0:0:0:0:
160,112,87987,1,0,0:0:0:0:
304,112,88053,2,0,L|208:112,1,96,4|0,0:0|0:0,0:0:0:0:
160,112,88251,1,0,0:0:0:0:
400,112,88317,6,0,L|512:112,1,96,2|0,0:0|0:0,0:0:0:0:
352,112,88516,1,0,0:0:0:0:
208,112,88582,2,0,L|304:112,1,96,8|0,0:0|0:0,0:0:0:0:
448,112,88780,1,0,0:0:0:0:
256,240,88846,6,0,B|160:240|160:240|272:240,1,192,4|8,0:0|0:0,0:0:0:0:
368,240,89242,2,0,L|416:240,1,48,0|0,0:0|0:0,0:0:0:0:
160,192,89374,2,0,L|32:192,1,96,2|0,0:0|0:0,0:0:0:0:
352,192,89638,2,0,L|480:192,1,96,8|0,0:0|0:0,0:0:0:0:
176,288,89903,6,0,L|160:224,1,48,2|0,0:0|0:0,0:0:0:0:
240,240,90035,2,0,L|256:176,1,48,0|0,0:0|0:0,0:0:0:0:
96,176,90167,2,0,L|80:112,1,48,8|0,0:0|0:0,0:0:0:0:
368,288,90299,6,0,L|384:224,1,48,2|0,0:0|0:0,0:0:0:0:
256,240,90431,2,0,L|240:176,1,48,0|0,0:0|0:0,0:0:0:0:
448,176,90564,2,0,L|480:176,2,24,8|0|0,0:0|0:0|0:0,0:0:0:0:
304,176,90663,1,0,0:0:0:0:
160,176,90696,2,0,L|96:176,1,48,2|0,0:0|0:0,0:0:0:0:
352,176,90828,2,0,L|416:176,1,48,2|0,0:0|0:0,0:0:0:0:
112,240,90960,6,0,L|0:240,1,96,4|0,0:0|0:0,0:0:0:0:
160,240,91158,1,0,0:0:0:0:
304,240,91224,1,8,0:0:0:0:
112,176,91357,2,0,L|16:176,1,96,2|0,0:0|0:0,0:0:0:0:
208,144,91621,2,0,L|336:144,1,96,4|8,0:0|0:0,0:0:0:0:
112,80,91885,1,0,0:0:0:0:
368,80,92017,6,0,L|384:208,1,96,2|0,0:0|0:0,0:0:0:0:
336,192,92216,1,0,0:0:0:0:
176,224,92282,2,0,L|288:224,1,96,4|0,0:0|0:0,0:0:0:0:
224,224,92480,1,0,0:0:0:0:
32,176,92546,6,0,L|16:304,1,96,2|0,0:0|0:0,0:0:0:0:
160,288,92745,1,0,0:0:0:0:
304,320,92811,2,0,L|192:320,1,96,8|0,0:0|0:0,0:0:0:0:
80,320,93009,1,0,0:0:0:0:
256,240,93075,6,0,B|352:240|352:240|240:240,1,192,4|8,0:0|0:0,0:0:0:0:
144,240,93471,1,2,0:0:0:0:
352,192,93603,2,0,L|400:192,2,48,0|0|2,0:0|0:0|0:0,0:0:0:0:
144,192,93868,2,0,L|256:192,1,96,8|0,0:0|0:0,0:0:0:0:
288,192,94066,1,0,0:0:0:0:
112,320,94132,6,0,L|96:224,1,96,4|0,0:0|0:0,0:0:0:0:
144,208,94330,1,0,0:0:0:0:
288,192,94396,2,0,L|384:192,1,96,2|0,0:0|0:0,0:0:0:0:
336,192,94594,1,0,0:0:0:0:
160,128,94661,1,2,0:0:0:0:
384,80,94793,1,4,0:0:0:0:
144,48,94925,2,0,L|48:48,1,96,8|0,0:0|0:0,0:0:0:0:
96,48,95123,1,0,0:0:0:0:
256,224,95189,6,0,B|464:224|464:224|208:224,1,415.999994710287,4|8,0:0|0:0,0:0:0:0:
208,224,95520,1,0,0:0:0:0:
416,176,95586,2,0,L|480:176,1,48,0|0,0:0|0:0,0:0:0:0:
256,144,95718,6,0,L|128:144,1,96,2|4,0:0|0:0,0:0:0:0:
384,96,95982,1,8,0:0:0:0:
160,64,96114,1,0,0:0:0:0:
400,208,96246,6,0,L|416:336,1,96,4|0,0:0|0:0,0:0:0:0:
368,320,96445,1,0,0:0:0:0:
208,224,96511,2,0,L|192:352,1,96,2|0,0:0|0:0,0:0:0:0:
240,336,96710,1,0,0:0:0:0:
432,272,96775,6,0,L|320:272,1,96,2|0,0:0|0:0,0:0:0:0:
288,272,96973,1,0,0:0:0:0:
80,272,97039,2,0,L|192:272,1,96,8|0,0:0|0:0,0:0:0:0:
224,272,97237,1,0,0:0:0:0:
480,224,97304,6,0,L|384:224,1,96,4|0,0:0|0:0,0:0:0:0:
176,224,97568,2,0,L|288:224,1,96,8|0,0:0|0:0,0:0:0:0:
32,224,97832,2,0,L|128:224,1,96,0|2,0:0|0:0,0:0:0:0:
336,224,98096,2,0,L|224:224,1,96,8|0,0:0|0:0,0:0:0:0:
496,160,98361,6,0,L|336:160,1,144,4|0,0:0|0:0,0:0:0:0:
192,160,98625,1,0,0:0:0:0:
416,96,98757,2,0,L|256:96,1,144,4|0,0:0|0:0,0:0:0:0:
112,96,99021,1,0,0:0:0:0:
336,192,99154,2,0,P|377:257|314:284,1,144,4|0,0:0|0:0,0:0:0:0:
128,304,99418,6,0,L|80:304,1,48,2|0,0:0|0:0,0:0:0:0:
64,256,99550,1,0,0:0:0:0:
80,304,99616,2,0,L|128:304,1,48,0|0,0:0|0:0,0:0:0:0:
240,304,99815,1,0,0:0:0:0:
464,256,99947,2,0,L|352:256,1,96,2|0,0:0|0:0,0:0:0:0:
144,240,100211,2,0,L|96:240,1,48,0|0,0:0|0:0,0:0:0:0:
272,192,100343,6,0,L|384:192,1,96,2|0,0:0|0:0,0:0:0:0:
320,192,100542,1,0,0:0:0:0:
176,192,100608,2,0,L|128:192,1,48,0|0,0:0|0:0,0:0:0:0:
288,144,100740,1,0,0:0:0:0:
309,102,100806,1,0,0:0:0:0:
288,61,100872,1,0,0:0:0:0:
242,53,100938,1,0,0:0:0:0:
96,80,101004,6,0,L|48:80,1,48,2|0,0:0|0:0,0:0:0:0:
192,112,101136,2,0,L|256:112,1,48,0|0,0:0|0:0,0:0:0:0:
80,176,101268,1,0,0:0:0:0:
35,188,101334,1,0,0:0:0:0:
21,232,101400,1,0,0:0:0:0:
49,268,101466,1,0,0:0:0:0:
240,208,101533,6,0,L|256:320,1,96,2|0,0:0|0:0,0:0:0:0:
304,304,101731,1,0,0:0:0:0:
432,320,101797,1,0,0:0:0:0:
336,160,101929,2,0,L|320:272,1,96,2|0,0:0|0:0,0:0:0:0:
272,256,102127,1,0,0:0:0:0:
192,272,102193,1,0,0:0:0:0:
288,320,102326,1,2,0:0:0:0:
176,352,102458,1,0,0:0:0:0:
400,336,102590,6,0,L|416:288,1,48,2|0,0:0|0:0,0:0:0:0:
400,336,102722,2,0,L|336:336,1,48,0|0,0:0|0:0,0:0:0:0:
192,288,102854,2,0,L|176:240,1,48,0|0,0:0|0:0,0:0:0:0:
192,288,102986,2,0,L|256:288,1,48,0|0,0:0|0:0,0:0:0:0:
416,224,103119,2,0,L|352:224,1,48,2|0,0:0|0:0,0:0:0:0:
304,224,103251,2,0,L|240:224,1,48,0|0,0:0|0:0,0:0:0:0:
432,176,103383,2,0,P|480:128|416:96,1,144,2|0,0:0|0:0,0:0:0:0:
272,80,103647,6,0,L|160:80,1,96,4|0,0:0|0:0,0:0:0:0:
224,80,103846,1,0,0:0:0:0:
368,80,103912,2,0,L|384:144,1,48,8|0,0:0|0:0,0:0:0:0:
240,176,104044,1,0,0:0:0:0:
432,224,104176,6,0,L|480:224,2,48,0|0|4,0:0|0:0|0:0,0:0:0:0:
208,256,104440,2,0,L|160:256,2,48,8|0|0,0:0|0:0|0:0,0:0:0:0:
464,320,104705,5,4,0:0:0:0:
484,278,104771,1,0,0:0:0:0:
465,235,104837,1,0,0:0:0:0:
420,223,104903,1,0,0:0:0:0:
288,208,104969,2,0,L|224:208,1,48,8|0,0:0|0:0,0:0:0:0:
304,176,105101,2,0,L|352:176,1,48,0|0,0:0|0:0,0:0:0:0:
128,144,105233,6,0,L|112:64,1,48,2|0,0:0|0:0,0:0:0:0:
272,96,105365,2,0,L|288:16,1,48,4|0,0:0|0:0,0:0:0:0:
96,32,105498,1,8,0:0:0:0:
51,44,105564,1,0,0:0:0:0:
32,86,105630,1,0,0:0:0:0:
52,128,105696,1,0,0:0:0:0:
272,192,105762,6,0,L|304:192,2,24,2|0|0,0:0|0:0|0:0,0:0:0:0:
160,192,105861,1,0,0:0:0:0:
48,192,105894,2,0,L|16:192,2,24,0|0|0,0:0|0:0|0:0,0:0:0:0:
160,192,105993,1,0,0:0:0:0:
320,272,106026,2,0,P|358:236|306:161,1,144,8|0,0:0|0:0,0:0:0:0:
160,160,106290,6,0,L|96:160,1,48,4|0,0:0|0:0,0:0:0:0:
256,112,106423,2,0,L|320:112,1,48,4|0,0:0|0:0,0:0:0:0:
128,80,106555,2,0,L|64:80,1,48,8|0,0:0|0:0,0:0:0:0:
224,32,106688,2,0,L|288:32,1,48,0|0,0:0|0:0,0:0:0:0:
48,176,106819,6,0,L|39:225,3,48,2|0|0|0,0:0|0:0|0:0|0:0,0:0:0:0:
192,224,107083,2,0,L|201:273,1,48,8|0,0:0|0:0,0:0:0:0:
352,272,107216,5,2,0:0:0:0:
393,290,107282,1,0,0:0:0:0:
395,335,107348,1,0,0:0:0:0:
355,357,107414,1,0,0:0:0:0:
192,352,107480,2,0,L|160:352,2,24,8|0|0,0:0|0:0|0:0,0:0:0:0:
304,320,107579,1,0,0:0:0:0:
416,272,107612,6,0,L|352:272,1,48,8|0,0:0|0:0,0:0:0:0:
160,256,107744,2,0,L|128:256,2,24,8|0|0,0:0|0:0|0:0,0:0:0:0:
272,224,107843,1,0,0:0:0:0:
416,176,107876,6,0,L|432:96,1,48,4|0,0:0|0:0,0:0:0:0:
224,128,108009,2,0,L|208:48,1,48,0|0,0:0|0:0,0:0:0:0:
368,96,108141,2,0,L|384:16,1,48,8|0,0:0|0:0,0:0:0:0:
208,48,108273,1,4,0:0:0:0:
416,80,108405,1,0,0:0:0:0:
368,80,108471,1,0,0:0:0:0:
320,80,108537,1,4,0:0:0:0:
432,128,108669,2,0,L|448:208,1,48,8|0,0:0|0:0,0:0:0:0:
256,240,108801,6,0,L|128:240,1,96,0|4,0:0|0:0,0:0:0:0:
208,240,109000,1,0,0:0:0:0:
352,192,109066,2,0,L|288:192,1,48,0|0,0:0|0:0,0:0:0:0:
160,176,109198,6,0,L|32:176,1,96,2|0,0:0|0:0,0:0:0:0:
112,176,109397,1,0,0:0:0:0:
256,128,109463,2,0,L|192:128,1,48,4|0,0:0|0:0,0:0:0:0:
144,128,109594,2,0,L|192:128,1,48,4|0,0:0|0:0,0:0:0:0:
336,128,109727,6,0,L|464:128,1,96,8|0,0:0|0:0,0:0:0:0:
384,128,109926,1,0,0:0:0:0:
144,176,109990,6,0,L|128:96,1,48,4|0,0:0|0:0,0:0:0:0:
288,128,110124,2,0,L|304:48,1,48,0|0,0:0|0:0,0:0:0:0:
144,176,110255,2,0,L|128:96,1,48,8|0,0:0|0:0,0:0:0:0:
304,48,110388,1,0,0:0:0:0:
96,80,110520,1,2,0:0:0:0:
144,80,110586,1,0,0:0:0:0:
352,96,110652,2,0,L|256:96,1,96,2|0,0:0|0:0,0:0:0:0:
208,96,110850,1,0,0:0:0:0:
48,96,110916,1,8,0:0:0:0:
256,208,111048,6,0,L|352:208,1,96,2|0,0:0|0:0,0:0:0:0:
304,208,111246,1,0,0:0:0:0:
464,240,111312,2,0,L|480:336,1,96,4|0,0:0|0:0,0:0:0:0:
430,348,111511,1,0,0:0:0:0:
256,208,111577,6,0,L|160:208,1,96,8|0,0:0|0:0,0:0:0:0:
304,160,111775,1,0,0:0:0:0:
448,160,111841,2,0,L|336:160,1,96,8|0,0:0|0:0,0:0:0:0:
208,160,112040,1,0,0:0:0:0:
416,304,112105,6,0,L|480:304,1,48,4|0,0:0|0:0,0:0:0:0:
304,288,112238,2,0,L|224:288,1,48,0|0,0:0|0:0,0:0:0:0:
320,256,112370,2,0,L|384:256,1,48,8|0,0:0|0:0,0:0:0:0:
208,240,112503,2,0,L|128:240,1,48,0|0,0:0|0:0,0:0:0:0:
336,176,112634,6,0,L|400:176,2,48,4|0|4,0:0|0:0|0:0,0:0:0:0:
96,160,112898,2,0,L|144:160,1,48,8|0,0:0|0:0,0:0:0:0:
288,176,113031,2,0,L|352:176,1,48,0|0,0:0|0:0,0:0:0:0:
96,304,113163,6,0,L|32:304,1,48,4|0,0:0|0:0,0:0:0:0:
208,288,113296,2,0,L|288:288,1,48,0|0,0:0|0:0,0:0:0:0:
192,256,113428,2,0,L|128:256,1,48,8|0,0:0|0:0,0:0:0:0:
304,240,113559,2,0,L|384:240,1,48,0|0,0:0|0:0,0:0:0:0:
176,176,113692,6,0,L|112:176,2,48,0|0|4,0:0|0:0|0:0,0:0:0:0:
304,144,113890,1,0,0:0:0:0:
176,112,113956,2,0,L|112:112,1,48,8|0,0:0|0:0,0:0:0:0:
304,80,114089,2,0,L|368:80,1,48,0|0,0:0|0:0,0:0:0:0:
96,304,114220,6,0,L|80:240,1,48,4|0,0:0|0:0,0:0:0:0:
224,240,114352,2,0,L|240:176,1,48,0|0,0:0|0:0,0:0:0:0:
176,192,114484,2,0,L|160:128,1,48,8|0,0:0|0:0,0:0:0:0:
304,128,114616,2,0,L|320:64,1,48,0|0,0:0|0:0,0:0:0:0:
160,64,114749,6,0,L|80:64,1,48,4|0,0:0|0:0,0:0:0:0:
176,80,114881,2,0,L|240:80,1,48,4|0,0:0|0:0,0:0:0:0:
80,144,115013,2,0,L|64:208,1,48,8|0,0:0|0:0,0:0:0:0:
224,208,115145,2,0,L|240:272,1,48,0|0,0:0|0:0,0:0:0:0:
48,320,115277,6,0,L|32:256,3,48,4|0|0|0,0:0|0:0|0:0|0:0,0:0:0:0:
256,256,115542,1,8,0:0:0:0:
48,320,115674,2,0,L|32:256,1,48,0|0,0:0|0:0,0:0:0:0:
464,320,115806,6,0,L|480:192,1,96,4|0,0:0|0:0,0:0:0:0:
267,302,116004,2,0,L|251:238,1,48,0|8,0:0|0:0,0:0:0:0:
464,320,116203,2,0,L|480:256,1,48,0|0,0:0|0:0,0:0:0:0:
224,176,116335,6,0,L|192:176,2,32,2|0|0,0:0|0:0|0:0,0:0:0:0:
352,144,116467,2,0,L|384:144,2,32,0|0|0,0:0|0:0|0:0,0:0:0:0:
192,112,116599,2,0,L|160:112,2,32,2|0|0,0:0|0:0|0:0,0:0:0:0:
320,80,116731,2,0,L|384:80,1,48,0|0,0:0|0:0,0:0:0:0:
160,176,116863,6,0,L|128:176,2,32,2|0|0,0:0|0:0|0:0,0:0:0:0:
288,144,116995,2,0,L|320:144,2,32,0|0|0,0:0|0:0|0:0,0:0:0:0:
128,112,117127,2,0,L|96:112,2,32,2|0|0,0:0|0:0|0:0,0:0:0:0:
256,80,117259,2,0,L|320:80,1,48,0|0,0:0|0:0,0:0:0:0:
48,256,117392,6,0,L|32:192,1,48,2|0,0:0|0:0,0:0:0:0:
224,224,117524,1,0,0:0:0:0:
288,224,117590,1,0,0:0:0:0:
464,256,117656,2,0,L|480:192,1,48,2|0,0:0|0:0,0:0:0:0:
288,224,117788,1,0,0:0:0:0:
224,224,117854,1,0,0:0:0:0:
400,160,117920,6,0,L|448:160,2,32,4|0|0,0:0|0:0|0:0,0:0:0:0:
256,160,118053,1,4,0:0:0:0:
224,160,118097,1,0,0:0:0:0:
192,160,118141,1,0,0:0:0:0:
352,240,118185,1,8,0:0:0:0:
379,254,118229,1,0,0:0:0:0:
391,283,118273,1,0,0:0:0:0:
379,312,118317,1,0,0:0:0:0:
351,326,118361,1,0,0:0:0:0:
318,334,118405,1,0,0:0:0:0:
21,335,118449,6,0,L|16:288,1,48,8|0,0:0|0:0,0:0:0:0:
176,288,118581,2,0,L|181:240,1,48,8|0,0:0|0:0,0:0:0:0:
335,336,118713,2,0,L|329:288,1,48,8|0,0:0|0:0,0:0:0:0:
489,288,118845,2,0,L|494:240,1,48,0|0,0:0|0:0,0:0:0:0:
21,335,118978,6,0,L|16:288,1,48,8|0,0:0|0:0,0:0:0:0:
176,288,119110,2,0,L|181:240,1,48,8|0,0:0|0:0,0:0:0:0:
335,336,119242,2,0,L|329:288,1,48,8|0,0:0|0:0,0:0:0:0:
489,288,119374,2,0,L|494:240,1,48,0|0,0:0|0:0,0:0:0:0:
176,176,119506,6,0,L|112:176,1,48,8|0,0:0|0:0,0:0:0:0:
336,176,119638,2,0,L|400:176,1,48,0|0,0:0|0:0,0:0:0:0:
96,112,119771,2,0,L|160:112,1,48,8|0,0:0|0:0,0:0:0:0:
288,112,119903,2,0,L|336:112,2,32,8|0|0,0:0|0:0|0:0,0:0:0:0:
128,208,120035,6,0,L|96:208,1,32,0|0,0:0|0:0,0:0:0:0:
224,256,120123,2,0,L|256:256,1,32,0|4,0:0|0:0,0:0:0:0:
128,304,120211,2,0,L|96:304,1,32,0|0,0:0|0:0,0:0:0:0:
288,112,120299,2,0,L|336:112,2,32,8|0|0,0:0|0:0|0:0,0:0:0:0:
160,112,120431,2,0,L|112:112,1,48,0|0,0:0|0:0,0:0:0:0:
352,192,120564,6,0,L|448:192,1,96,4|0,0:0|0:0,0:0:0:0:
160,192,120828,2,0,L|64:192,1,96,4|0,0:0|0:0,0:0:0:0:
352,192,121092,1,2,0:0:0:0:
64,240,121224,2,0,L|176:240,1,96,4|0,0:0|0:0,0:0:0:0:
448,320,121489,6,0,L|256:320,1,192,8|4,0:0|0:0,0:0:0:0:
208,320,121819,1,0,0:0:0:0:
64,320,121885,1,4,0:0:0:0:
448,320,122149,1,2,0:0:0:0:
208,256,122282,2,0,L|320:256,1,96,4|0,0:0|0:0,0:0:0:0:
16,256,122546,6,0,L|16:192,1,48,8|0,0:0|0:0,0:0:0:0:
256,96,122678,1,0,0:0:0:0:
160,96,122810,2,0,L|160:192,1,96,4|8,0:0|0:0,0:0:0:0:
496,256,123075,6,0,L|496:192,1,48,8|0,0:0|0:0,0:0:0:0:
256,96,123207,1,0,0:0:0:0:
352,96,123339,2,0,L|213:96,1,96,4|8,0:0|0:0,0:0:0:0:
496,176,123603,2,0,L|496:128,1,48,8|0,0:0|0:0,0:0:0:0:
256,128,123735,5,0,0:0:0:0:
464,112,123868,2,0,L|496:112,2,24,8|0|0,0:0|0:0|0:0,0:0:0:0:
256,128,124000,1,4,0:0:0:0:
48,112,124132,2,0,L|16:112,2,24,8|0|0,0:0|0:0|0:0,0:0:0:0:
464,144,124264,1,8,0:0:0:0:
256,192,124396,12,0,124793,0:0:0:0:
