osu file format v14

[General]
AudioFilename: audio.mp3
AudioLeadIn: 0
PreviewTime: 57191
Countdown: 0
SampleSet: Soft
StackLeniency: 0.7
Mode: 0
LetterboxInBreaks: 0
WidescreenStoryboard: 1

[Editor]
Bookmarks: 5186,10059,19805,29551,39297,49043,58790,68536,78282,80719,89094
DistanceSpacing: 0.9
BeatDivisor: 4
GridSize: 32
TimelineZoom: 1

[Metadata]
Title:Tentou (TV Size)
TitleUnicode:天灯 (TV Size)
Artist:sajou no hana
ArtistUnicode:sajou no hana
Creator:melleganol
Version:Normal
Source:ダンジョンに出会いを求めるのは間違っているだろうかⅣ 新章 迷宮篇
Tags:Danmachi 4 Is It Wrong to Try to Pick Up Girls in a Dungeon ni Deai wo Motomeru no wa Machigatteiru Darou ka IV anime japanese JPop J-Pop Pop season four female vocal vocalist op opening Bell Cranel
BeatmapID:3727615
BeatmapSetID:1816895

[Difficulty]
HPDrainRate:4
CircleSize:3.4
OverallDifficulty:4.5
ApproachRate:5.5
SliderMultiplier:0.999999999999999
SliderTickRate:1

[Events]
//Background and Video events
0,0,"638309.jpg",0,0
Video,-400,"video.mp4"
//Break Periods
2,20020,28441
//Storyboard Layer 0 (Background)
//Storyboard Layer 1 (Fail)
//Storyboard Layer 2 (Pass)
//Storyboard Layer 3 (Foreground)
//Storyboard Layer 4 (Overlay)
//Storyboard Sound Samples

[TimingPoints]
328,304.568527918782,4,2,77,55,1,0
328,-100,4,2,77,55,0,0
10074,-100,4,2,77,70,0,0
19820,-100,4,2,77,60,0,0
36876,-100,4,2,77,70,0,0
39312,-100,4,2,77,65,0,0
49058,-100,4,2,77,60,0,0
52713,-100,4,2,77,70,0,0
56368,-100,4,2,77,60,0,0
58805,-90.9090909090909,4,2,77,80,0,1
79820,-100,4,2,77,80,0,0
80734,-100,4,2,77,70,0,0

[Colours]
Combo1 : 149,255,173
Combo2 : 184,149,255
Combo3 : 255,221,149
Combo4 : 149,197,255

[HitObjects]
0,13,328,6,0,P|44:37|110:34,1,99.9999999999999,2|0,2:0|0:0,0:0:0:0:
139,57,784,2,0,P|191:29|244:36,1,99.9999999999999,2|0,2:0|0:0,0:0:0:0:
277,47,1241,1,2,2:0:0:0:
387,148,1698,2,0,L|367:269,1,99.9999999999999,2|0,2:0|0:0,0:0:0:0:
362,296,2155,1,2,2:0:0:0:
435,363,2459,1,2,2:0:0:0:
503,290,2764,6,0,P|500:238|466:207,1,99.9999999999999,2|0,2:0|0:0,0:0:0:0:
416,200,3221,2,0,L|302:221,1,99.9999999999999,2|0,2:0|0:0,0:0:0:0:
267,225,3678,1,2,2:0:0:0:
130,163,4135,2,0,P|73:157|36:188,1,99.9999999999999,2|0,2:0|0:0,0:0:0:0:
5,216,4591,1,2,2:0:0:0:
31,312,4896,2,0,L|93:333,1,50,0|8,0:0|2:0,0:0:0:0:
125,357,5201,5,0,3:0:0:0:
125,357,5353,2,0,B|200:329|210:392|291:369,1,150,0|8,3:0|2:0,0:0:0:0:
362,330,6114,1,0,3:0:0:0:
362,330,6267,2,0,L|379:216,2,99.9999999999999,0|8|0,3:0|2:0|3:0,0:0:0:0:
400,369,7028,1,8,2:0:0:0:
400,369,7180,1,8,2:0:0:0:
503,260,7637,5,0,3:0:0:0:
503,260,7789,2,0,L|471:103,1,150,0|8,3:0|2:0,0:0:0:0:
445,16,8551,2,0,L|382:32,1,50,12|0,2:0|3:0,0:0:0:0:
347,36,8855,2,0,L|287:19,1,50,0|0,3:0|3:0,0:0:0:0:
253,0,9160,1,8,2:0:0:0:
18,9,10074,6,0,P|48:52|35:104,1,99.9999999999999,6|10,3:2|2:0,0:0:0:0:
8,191,10683,2,0,P|4:247|42:289,1,99.9999999999999,0|8,3:0|2:0,0:0:0:0:
77,289,11140,2,0,L|188:267,1,99.9999999999999,2|2,3:2|3:2,0:0:0:0:
224,262,11597,1,10,2:0:0:0:
300,197,11901,2,0,L|359:207,1,50,2|2,3:2|3:2,0:0:0:0:
388,237,12206,2,0,L|447:247,1,50,10|2,2:0|2:0,0:0:0:0:
474,278,12510,6,0,P|481:334|437:379,1,99.9999999999999,2|10,3:2|2:0,0:0:0:0:
358,382,13119,2,0,L|296:367,1,50,2|2,3:2|3:2,0:0:0:0:
267,353,13424,1,8,2:0:0:0:
267,353,13576,2,0,P|232:311|239:259,1,99.9999999999999,2|0,3:2|3:0,0:0:0:0:
256,222,14033,1,8,2:0:0:0:
191,145,14338,2,0,L|205:90,1,50,2|2,3:2|3:2,0:0:0:0:
221,49,14642,1,14,2:0:0:0:
313,9,14947,6,0,L|422:32,1,99.9999999999999,6|10,3:2|2:0,0:0:0:0:
487,94,15556,2,0,P|499:147|466:193,1,99.9999999999999,0|8,3:0|2:0,0:0:0:0:
438,215,16013,2,0,L|328:237,1,99.9999999999999,2|2,3:2|3:2,0:0:0:0:
290,241,16470,1,10,2:0:0:0:
205,294,16774,2,0,L|147:283,1,50,2|2,3:2|3:2,0:0:0:0:
118,251,17079,2,0,L|60:240,1,50,10|2,2:0|2:0,0:0:0:0:
27,213,17383,6,0,P|-3:168|15:117,1,99.9999999999999,2|8,3:2|2:0,0:0:0:0:
49,35,17992,2,0,L|110:25,1,50,2|2,3:2|3:2,0:0:0:0:
152,26,18297,1,10,2:0:0:0:
152,26,18449,2,0,P|200:33|231:78,1,99.9999999999999,2|0,3:2|3:0,0:0:0:0:
247,119,18906,1,10,2:0:0:0:
188,200,19211,2,0,L|205:262,1,50,2|2,3:2|3:2,0:0:0:0:
220,294,19515,2,0,L|203:356,1,50,14|2,2:0|2:0,0:0:0:0:
176,381,19820,5,6,3:2:0:0:
16,384,29566,6,0,L|30:323,1,50,2|0,3:2|0:0,0:0:0:0:
55,293,29871,2,0,L|41:232,1,50,10|2,2:0|2:0,0:0:0:0:
26,197,30175,1,2,2:0:0:0:
95,124,30480,2,0,B|149:99|196:153|182:163|222:214|278:197,1,200,10|10,2:0|2:0,0:0:0:0:
355,243,31393,1,2,2:0:0:0:
448,206,31698,1,10,2:0:0:0:
482,112,32003,6,0,P|474:61|430:34,1,99.9999999999999,2|10,3:2|2:0,0:0:0:0:
386,35,32459,2,0,P|343:42|287:13,1,99.9999999999999,2|2,2:0|2:0,0:0:0:0:
245,2,32916,2,0,L|187:18,1,50,10|2,2:0|3:2,0:0:0:0:
149,31,33221,1,2,2:0:0:0:
97,116,33525,1,8,2:0:0:0:
158,195,33830,2,0,L|141:300,1,99.9999999999999,2|8,2:0|2:0,0:0:0:0:
142,347,34287,1,2,3:2:0:0:
142,347,34439,6,0,P|188:377|239:362,1,99.9999999999999,2|10,3:2|2:0,0:0:0:0:
271,340,34896,1,2,2:0:0:0:
361,382,35201,2,0,L|418:367,1,50,2|10,2:0|2:0,0:0:0:0:
456,352,35505,2,0,P|473:301|443:262,1,99.9999999999999,2|0,3:2|3:0,0:0:0:0:
408,235,35962,1,8,2:0:0:0:
316,193,36267,2,0,L|248:208,1,50,2|0,3:2|3:0,0:0:0:0:
218,213,36571,1,14,2:0:0:0:
138,274,36876,5,6,3:2:0:0:
54,230,37180,1,10,2:0:0:0:
54,230,37333,1,6,3:2:0:0:
6,148,37637,1,2,3:2:0:0:
6,148,37789,2,0,L|28:42,1,99.9999999999999,14|8,2:0|2:0,0:0:0:0:
68,22,38246,2,0,P|125:19|161:52,1,99.9999999999999,6|0,3:2|3:0,0:0:0:0:
196,74,38703,1,14,2:0:0:0:
291,104,39008,2,0,L|344:90,1,50,2|10,2:0|2:0,0:0:0:0:
387,104,39312,6,0,P|436:104|475:150,2,99.9999999999999,6|8|8,3:2|0:1|0:1,0:0:0:0:
337,191,40226,1,8,0:1:0:0:
399,269,40531,2,0,L|419:375,2,99.9999999999999,8|8|8,0:1|0:1|0:1,0:0:0:0:
482,214,41444,2,0,L|496:155,1,50,8|2,0:1|3:2,0:0:0:0:
484,115,41749,6,0,P|443:80|387:83,1,99.9999999999999,4|8,3:2|0:1,0:0:0:0:
329,150,42358,2,0,P|288:185|232:182,1,99.9999999999999,8|8,0:1|0:1,0:0:0:0:
162,128,42967,1,8,0:1:0:0:
62,122,43272,1,8,0:1:0:0:
4,203,43576,1,8,0:1:0:0:
11,302,43881,1,8,0:1:0:0:
87,366,44185,6,0,L|208:381,2,99.9999999999999,6|8|8,3:2|0:1|0:1,0:0:0:0:
11,302,45099,2,0,P|-3:250|20:203,1,99.9999999999999,8|8,0:1|0:1,0:0:0:0:
92,147,45708,1,8,0:1:0:0:
182,189,46013,1,8,0:1:0:0:
272,231,46317,2,0,L|333:220,1,50,8|0,0:1|3:0,0:0:0:0:
367,203,46622,6,0,L|474:225,2,99.9999999999999,4|8|8,3:2|0:1|0:1,0:0:0:0:
317,115,47536,2,0,L|257:96,1,50,8|0,0:1|3:0,0:0:0:0:
227,72,47840,2,0,L|75:97,2,150,8|8|0,0:1|0:1|3:0,0:0:0:0:
302,6,49058,1,2,3:2:0:0:
503,0,52713,6,0,L|483:117,1,99.9999999999999,12|8,2:0|2:0,0:0:0:0:
459,142,53170,1,8,2:0:0:0:
459,142,53322,2,0,L|479:206,1,50,2|8,3:2|2:0,0:0:0:0:
489,237,53627,2,0,L|469:301,1,50,2|4,3:2|3:0,0:0:0:0:
451,329,53932,5,4,3:2:0:0:
363,377,54236,2,0,L|254:353,1,99.9999999999999,8|0,2:0|3:0,0:0:0:0:
220,347,54693,1,0,3:0:0:0:
220,347,54845,1,8,2:0:0:0:
148,277,55150,2,0,P|119:226|130:181,1,99.9999999999999,0|8,3:0|2:0,0:0:0:0:
169,97,55759,2,0,P|165:63|149:37,1,50,0|0,3:0|3:0,0:0:0:0:
117,20,56064,1,8,2:0:0:0:
38,81,56368,6,0,L|21:194,1,99.9999999999999,8|0,3:0|3:0,0:0:0:0:
4,226,56825,2,0,L|26:325,1,99.9999999999999,4|0,3:0|3:0,0:0:0:0:
40,371,57282,1,8,2:0:0:0:
40,371,58805,6,0,P|90:338|151:351,1,110.000003356934,4|10,3:1|2:0,0:0:0:0:
229,381,59414,1,2,3:2:0:0:
229,381,59566,2,0,L|297:365,1,55.0000016784668,0|2,3:0|2:0,0:0:0:0:
336,370,59871,1,8,2:0:0:0:
336,370,60023,2,0,P|379:328|371:266,1,110.000003356934,0|10,0:0|2:0,0:0:0:0:
323,199,60632,2,0,L|268:215,1,55.0000016784668,2|0,3:2|3:0,0:0:0:0:
220,221,60937,1,10,2:0:0:0:
153,147,61241,6,0,P|144:80|190:45,1,110.000003356934,4|10,3:1|2:0,0:0:0:0:
254,1,61850,2,0,L|322:17,1,55.0000016784668,2|0,3:2|3:0,0:0:0:0:
345,44,62154,2,0,L|413:60,1,55.0000016784668,0|8,0:0|2:0,0:0:0:0:
441,81,62459,2,0,L|498:65,2,55.0000016784668,0|0|8,3:0|3:0|2:0,0:0:0:0:
385,163,63069,2,0,L|394:218,1,55.0000016784668,2|0,3:2|3:0,0:0:0:0:
404,265,63373,1,14,2:0:0:0:
334,335,63678,6,0,L|206:359,1,110.000003356934,4|8,3:1|2:0,0:0:0:0:
178,341,64135,2,0,L|118:323,1,55.0000016784668,2|0,2:0|3:0,0:0:0:0:
83,309,64439,1,0,3:0:0:0:
83,309,64591,2,0,L|69:246,1,55.0000016784668,2|8,2:0|2:0,0:0:0:0:
38,217,64896,1,0,0:0:0:0:
63,121,65201,1,10,2:0:0:0:
146,68,65505,2,0,L|200:80,1,55.0000016784668,2|0,3:2|3:0,0:0:0:0:
248,90,65810,1,10,2:0:0:0:
330,143,66114,6,0,P|344:204|311:251,1,110.000003356934,6|10,3:2|2:0,0:0:0:0:
277,264,66571,2,0,P|256:316|286:371,1,110.000003356934,6|2,3:2|3:2,0:0:0:0:
321,382,67028,2,0,L|439:362,1,110.000003356934,6|0,3:2|3:0,0:0:0:0:
475,345,67485,2,0,L|489:285,1,55.0000016784668,10|0,2:0|3:0,0:0:0:0:
512,251,67789,1,8,0:3:0:0:
512,251,67942,2,0,L|493:186,1,55.0000016784668,2|2,3:2|3:2,0:0:0:0:
476,152,68246,1,12,2:0:0:0:
385,112,68551,6,0,P|329:114|283:177,1,110.000003356934,4|10,3:1|2:0,0:0:0:0:
264,244,69160,1,2,3:2:0:0:
264,244,69312,2,0,L|201:261,1,55.0000016784668,0|2,3:0|2:0,0:0:0:0:
175,292,69617,1,8,2:0:0:0:
175,292,69769,1,0,0:0:0:0:
83,253,70074,1,10,2:0:0:0:
58,158,70378,2,0,L|70:84,1,55.0000016784668,0|0,3:0|3:0,0:0:0:0:
80,55,70683,1,10,2:0:0:0:
170,14,70987,6,0,P|223:24|258:85,1,110.000003356934,4|10,3:1|2:0,0:0:0:0:
232,163,71597,2,0,L|253:236,1,55.0000016784668,2|0,3:2|3:0,0:0:0:0:
285,246,71901,2,0,L|306:319,1,55.0000016784668,0|8,0:0|2:0,0:0:0:0:
332,336,72206,2,0,P|358:359|391:362,1,55.0000016784668,2|0,3:2|3:0,0:0:0:0:
426,363,72510,1,10,2:0:0:0:
499,296,72815,2,0,L|494:240,1,55.0000016784668,2|0,3:2|3:0,0:0:0:0:
490,191,73119,1,14,2:0:0:0:
435,108,73424,6,0,L|299:94,1,110.000003356934,4|10,3:1|2:0,0:0:0:0:
239,47,74033,2,0,L|170:64,1,55.0000016784668,2|0,3:2|3:0,0:0:0:0:
141,83,74338,2,0,L|72:100,1,55.0000016784668,2|8,2:0|2:0,0:0:0:0:
53,131,74642,2,0,P|40:183|76:232,1,110.000003356934,2|8,3:2|2:0,0:0:0:0:
116,256,75099,1,2,2:0:0:0:
116,256,75251,2,0,L|179:267,1,55.0000016784668,0|0,3:0|3:0,0:0:0:0:
219,274,75556,1,10,2:0:0:0:
288,203,75860,6,0,P|342:180|393:195,1,110.000003356934,0|8,3:0|2:0,0:0:0:0:
417,288,76470,2,0,L|477:272,2,55.0000016784668,0|0|2,3:0|3:0|2:0,0:0:0:0:
387,328,76926,1,8,2:0:0:0:
387,328,77079,2,0,L|323:346,1,55.0000016784668,2|0,3:2|3:0,0:0:0:0:
297,376,77383,1,10,2:0:0:0:
197,373,77688,2,0,L|133:353,1,55.0000016784668,2|0,3:2|3:0,0:0:0:0:
100,333,77992,2,0,P|90:305|93:276,1,55.0000016784668,14|0,2:0|3:0,0:0:0:0:
84,231,78297,5,4,3:1:0:0:
147,155,78602,2,0,L|210:144,1,55.0000016784668,10|0,2:0|3:0,0:0:0:0:
247,127,78906,2,0,L|322:138,1,55.0000016784668,10|0,2:0|3:0,0:0:0:0:
345,157,79211,2,0,L|410:137,1,55.0000016784668,10|0,2:0|3:0,0:0:0:0:
445,150,79515,2,0,L|480:96,1,55.0000016784668,8|4,3:0|3:0,0:0:0:0:
504,70,79820,1,8,2:0:0:0:
207,24,80734,6,0,L|87:45,1,99.9999999999999,6|10,3:2|2:0,0:0:0:0:
17,82,81343,2,0,P|3:136|30:178,1,99.9999999999999,0|8,3:0|2:0,0:0:0:0:
60,205,81800,2,0,L|164:182,1,99.9999999999999,2|2,3:2|3:2,0:0:0:0:
201,173,82256,1,10,2:0:0:0:
280,130,82561,2,0,L|347:143,1,50,2|2,3:2|3:2,0:0:0:0:
363,168,82866,2,0,L|430:181,1,50,10|2,2:0|2:0,0:0:0:0:
440,211,83170,6,0,P|468:258|452:319,1,99.9999999999999,0|8,3:0|2:0,0:0:0:0:
396,362,83779,2,0,L|313:380,1,50,2|2,3:2|3:2,0:0:0:0:
306,381,84084,1,8,2:0:0:0:
306,381,84236,2,0,L|167:351,1,99.9999999999999,2|0,3:2|3:0,0:0:0:0:
164,349,84693,1,10,2:0:0:0:
76,370,84998,2,0,P|46:362|24:337,1,50,2|2,3:2|3:2,0:0:0:0:
0,317,85302,1,12,2:0:0:0:
47,240,85607,6,0,P|68:184|35:130,1,99.9999999999999,6|10,3:2|2:0,0:0:0:0:
35,60,86216,2,0,P|78:28|138:43,1,99.9999999999999,0|8,3:0|2:0,0:0:0:0:
163,51,86673,2,0,P|205:71|265:47,1,99.9999999999999,2|2,3:2|3:2,0:0:0:0:
290,29,87130,1,10,2:0:0:0:
364,79,87434,2,0,L|375:146,1,50,2|2,3:2|3:2,0:0:0:0:
409,153,87739,2,0,L|420:220,1,50,10|0,2:0|0:0,0:0:0:0:
424,251,88043,5,2,2:0:0:0:
315,354,88500,1,2,2:0:0:0:
180,299,88957,1,2,2:0:0:0:
180,299,89109,1,2,2:0:0:0:
