osu file format v14

[General]
AudioFilename: audio.mp3
AudioLeadIn: 0
PreviewTime: 57191
Countdown: 0
SampleSet: Soft
StackLeniency: 0.4
Mode: 0
LetterboxInBreaks: 0
WidescreenStoryboard: 1

[Editor]
Bookmarks: 5186,10059,19805,29551,39297,49043,58790,68536,78282,80719,89094
DistanceSpacing: 0.6
BeatDivisor: 6
GridSize: 32
TimelineZoom: 1

[Metadata]
Title:Tentou (TV Size)
TitleUnicode:天灯 (TV Size)
Artist:sajou no hana
ArtistUnicode:sajou no hana
Creator:melleganol
Version:Insane
Source:ダンジョンに出会いを求めるのは間違っているだろうかⅣ 新章 迷宮篇
Tags:Danmachi 4 Is It Wrong to Try to Pick Up Girls in a Dungeon ni Deai wo Motomeru no wa Machigatteiru Darou ka IV anime japanese JPop J-Pop Pop season four female vocal vocalist op opening Bell Cranel
BeatmapID:3731167
BeatmapSetID:1816895

[Difficulty]
HPDrainRate:5
CircleSize:4
OverallDifficulty:8
ApproachRate:9
SliderMultiplier:1.5
SliderTickRate:1

[Events]
//Background and Video events
0,0,"638309.jpg",0,0
Video,-400,"video.mp4"
//Break Periods
//Storyboard Layer 0 (Background)
//Storyboard Layer 1 (Fail)
//Storyboard Layer 2 (Pass)
//Storyboard Layer 3 (Foreground)
//Storyboard Layer 4 (Overlay)
//Storyboard Sound Samples

[TimingPoints]
328,304.568527918782,4,2,77,55,1,0
328,-166.666666666667,4,2,77,55,0,0
5201,-125,4,2,77,60,0,0
10074,-100,4,2,77,70,0,0
10302,-100,4,2,77,5,0,0
10378,-100,4,2,77,70,0,0
15175,-100,4,2,77,5,0,0
15251,-100,4,2,77,70,0,0
19820,-142.857142857143,4,2,77,60,0,0
29566,-125,4,2,77,60,0,0
36876,-100,4,2,77,70,0,0
37104,-100,4,2,77,5,0,0
37180,-100,4,2,77,70,0,0
37561,-100,4,2,77,5,0,0
37637,-100,4,2,77,70,0,0
38018,-100,4,2,77,5,0,0
38094,-100,4,2,77,70,0,0
38399,-100,4,2,77,5,0,0
38551,-100,4,2,77,70,0,0
39312,-111.111111111111,4,2,77,65,0,0
49058,-166.666666666667,4,2,77,60,0,0
52713,-100,4,2,77,70,0,0
56368,-142.857142857143,4,2,77,60,0,0
58805,-83.3333333333333,4,2,77,80,0,1
59033,-83.3333333333333,4,2,77,5,0,1
59109,-83.3333333333333,4,2,77,80,0,1
61165,-83.3333333333333,4,2,77,5,0,1
61241,-83.3333333333333,4,2,77,80,0,1
61470,-83.3333333333333,4,2,77,5,0,1
61546,-83.3333333333333,4,2,77,80,0,1
66343,-83.3333333333333,4,2,77,5,0,1
66419,-83.3333333333333,4,2,77,80,0,1
66800,-83.3333333333333,4,2,77,5,0,1
66876,-83.3333333333333,4,2,77,80,0,1
68779,-83.3333333333333,4,2,77,5,0,1
68855,-83.3333333333333,4,2,77,80,0,1
70911,-83.3333333333333,4,2,77,5,0,1
70987,-83.3333333333333,4,2,77,80,0,1
71216,-83.3333333333333,4,2,77,5,0,1
71292,-83.3333333333333,4,2,77,80,0,1
73652,-83.3333333333333,4,2,77,5,0,1
73729,-83.3333333333333,4,2,77,80,0,1
78297,-71.4285714285714,4,2,77,80,0,1
79820,-83.3333333333333,4,2,77,80,0,0
80734,-100,4,2,77,70,0,0
80962,-100,4,2,77,5,0,0
81038,-100,4,2,77,70,0,0
85835,-100,4,2,77,5,0,0
85911,-100,4,2,77,70,0,0
88043,-125,4,2,77,70,0,0

[Colours]
Combo1 : 149,255,173
Combo2 : 184,149,255
Combo3 : 255,221,149
Combo4 : 149,197,255

[HitObjects]
512,66,328,6,0,L|409:47,1,89.999997253418,2|0,2:0|0:0,0:0:0:0:
347,10,784,2,0,L|240:37,1,89.999997253418,2|0,2:0|0:0,0:0:0:0:
187,78,1241,2,0,L|134:72,2,44.999998626709,2|0|2,2:0|0:0|2:0,0:0:0:0:
249,136,1698,2,0,P|276:170|267:232,1,89.999997253418,2|0,2:0|0:0,0:0:0:0:
199,244,2155,2,0,L|153:252,1,44.999998626709,2|0,2:0|0:0,0:0:0:0:
168,335,2459,2,0,L|214:327,1,44.999998626709,2|2,2:0|2:0,0:0:0:0:
251,319,2688,1,2,2:0:0:0:
273,316,2764,6,0,L|333:330,2,44.999998626709,2|0|0,2:0|0:0|0:0,0:0:0:0:
319,204,3221,2,0,L|259:218,2,44.999998626709,2|0|0,2:0|0:0|0:0,0:0:0:0:
291,78,3678,2,0,L|391:94,1,89.999997253418,2|0,2:0|0:0,0:0:0:0:
461,23,4135,2,0,L|407:13,2,44.999998626709,2|2|0,2:0|2:0|0:0,0:0:0:0:
463,113,4591,2,0,L|451:170,1,44.999998626709,2|2,2:0|2:0,0:0:0:0:
370,136,4896,2,0,L|382:79,1,44.999998626709,0|8,0:0|2:0,0:0:0:0:
346,56,5124,5,8,2:0:0:0:
323,46,5201,2,0,L|258:64,1,60,0|0,3:0|3:0,0:0:0:0:
265,62,5810,1,8,2:0:0:0:
12,125,6114,6,0,L|77:143,1,60,0|0,3:0|3:0,0:0:0:0:
70,141,6571,1,8,2:0:0:0:
0,355,6876,6,0,L|8:391,2,30,0|0|8,3:0|3:0|2:0,0:0:0:0:
75,270,7180,2,0,P|122:253|181:295,1,120,8|2,2:0|0:3,0:0:0:0:
192,309,7561,1,2,0:3:0:0:
204,325,7637,6,0,L|281:338,1,60,0|0,3:0|3:0,0:0:0:0:
263,334,8246,1,8,2:0:0:0:
487,375,8551,6,0,L|471:297,1,60,12|0,2:0|3:0,0:0:0:0:
417,241,8855,1,0,3:0:0:0:
512,157,9008,1,0,3:0:0:0:
390,62,9160,1,8,2:0:0:0:
390,62,9465,6,0,L|394:23,2,30,2|2|2,2:0|0:3|2:0,0:0:0:0:
75,34,10074,6,0,B|17:41|51:101|-29:123,1,112.5,6|0,3:2|0:0,0:0:0:0:
105,40,10378,2,0,L|258:65,1,150,10|0,2:0|3:0,0:0:0:0:
357,137,10835,1,0,3:0:0:0:
211,215,10987,1,8,2:0:0:0:
273,350,11140,6,0,L|297:197,1,150,2|2,3:2|3:2,0:0:0:0:
239,145,11597,1,10,2:0:0:0:
379,262,11749,1,2,2:0:0:0:
379,262,11825,1,8,2:0:0:0:
379,262,11901,2,0,P|418:269|457:239,1,75,2|2,3:2|3:2,0:0:0:0:
486,159,12206,2,0,P|447:152|408:182,1,75,10|2,2:0|2:0,0:0:0:0:
273,350,12510,6,0,L|100:328,1,150,2|10,3:2|2:0,0:0:0:0:
52,283,12967,1,2,2:0:0:0:
52,283,13043,1,8,2:0:0:0:
52,283,13119,1,2,3:2:0:0:
113,201,13272,1,2,3:2:0:0:
0,118,13424,1,8,2:0:0:0:
147,26,13576,6,0,L|313:55,1,150,2|0,3:2|3:0,0:0:0:0:
364,10,14033,1,8,2:0:0:0:
248,133,14185,1,0,0:0:0:0:
248,133,14261,1,8,2:0:0:0:
248,133,14337,2,0,P|241:172|271:211,1,75,2|2,3:2|3:2,0:0:0:0:
351,240,14642,2,0,P|358:201|328:162,1,75,14|2,2:0|2:0,0:0:0:0:
124,258,14947,6,0,B|60:266|87:313|32:325,1,112.5,6|0,3:2|0:0,0:0:0:0:
146,264,15251,2,0,B|210:261|209:332|279:326,1,150,10|0,2:0|3:0,0:0:0:0:
379,255,15708,1,0,3:0:0:0:
236,175,15860,1,8,2:0:0:0:
303,42,16013,6,0,L|331:215,1,150,2|2,3:2|3:2,0:0:0:0:
276,253,16470,1,10,2:0:0:0:
404,139,16622,1,2,2:0:0:0:
404,139,16698,1,8,2:0:0:0:
404,139,16774,2,0,P|443:132|482:162,1,75,2|2,3:2|3:2,0:0:0:0:
511,242,17079,2,0,P|472:249|433:219,1,75,10|2,2:0|2:0,0:0:0:0:
265,134,17383,6,0,L|97:167,1,150,2|8,3:2|2:0,0:0:0:0:
33,238,17840,1,2,2:0:0:0:
33,238,17916,1,8,2:0:0:0:
33,238,17992,1,2,3:2:0:0:
142,315,18145,1,2,3:2:0:0:
33,384,18297,1,10,2:0:0:0:
153,235,18449,6,0,B|236:246|193:313|284:324,1,150,2|0,3:2|3:0,0:0:0:0:
399,376,18906,5,10,2:0:0:0:
473,345,19058,1,2,2:0:0:0:
387,277,19211,5,2,3:2:0:0:
313,246,19363,1,2,3:2:0:0:
438,174,19515,5,14,2:0:0:0:
512,143,19667,1,2,2:0:0:0:
442,70,19820,6,0,P|390:53|318:50,2,104.999996795654,6|2|2,3:2|2:0|2:0,0:0:0:0:
303,145,20734,2,0,L|241:159,1,52.4999983978272,2|0,2:0|0:0,0:0:0:0:
59,27,21343,5,2,2:0:0:0:
59,27,21495,2,0,L|110:39,1,52.4999983978272,2|0,2:0|0:0,0:0:0:0:
147,108,21800,2,0,L|96:120,1,52.4999983978272,2|2,2:0|2:0,0:0:0:0:
21,172,22104,1,2,2:0:0:0:
21,172,22180,1,2,0:3:0:0:
21,172,22256,6,0,P|8:205|19:233,1,52.4999983978272,2|2,2:0|2:0,0:0:0:0:
31,297,22561,2,0,P|58:314|94:308,1,52.4999983978272,2|2,2:0|2:0,0:0:0:0:
156,303,22866,2,0,P|191:305|220:373,1,104.999996795654,2|2,2:0|2:0,0:0:0:0:
315,384,23322,1,2,0:3:0:0:
315,384,23399,1,2,0:3:0:0:
315,384,23475,6,0,L|326:328,1,52.4999983978272,2|0,2:0|0:0,0:0:0:0:
478,152,24084,6,0,L|494:213,1,52.4999983978272,2|0,2:0|0:0,0:0:0:0:
511,242,24312,1,2,0:3:0:0:
511,242,24388,2,0,L|494:309,1,52.4999983978272,2|0,2:0|3:0,0:0:0:0:
390,242,24693,6,0,L|317:228,1,52.4999983978272,2|2,3:2|2:0,0:0:0:0:
297,155,24998,2,0,L|370:141,1,52.4999983978272,2|2,2:0|2:0,0:0:0:0:
404,75,25302,2,0,L|291:57,1,104.999996795654,2|2,2:0|2:0,0:0:0:0:
222,44,25759,5,2,0:3:0:0:
222,44,26216,1,2,0:3:0:0:
215,204,26520,5,2,2:0:0:0:
215,204,26673,2,0,L|195:318,1,104.999996795654,2|2,2:0|2:0,0:0:0:0:
175,341,27053,1,2,0:3:0:0:
175,341,27130,6,0,P|146:361|107:359,1,52.4999983978272,2|0,2:0|0:0,0:0:0:0:
52,380,27434,2,0,P|36:356|39:314,1,52.4999983978272,2|2,2:0|2:0,0:0:0:0:
2,260,27739,2,0,L|20:191,1,52.4999983978272,2|0,2:0|0:0,0:0:0:0:
31,175,27967,1,2,0:3:0:0:
31,175,28043,2,0,L|16:117,1,52.4999983978272,2|2,2:0|0:3,0:0:0:0:
17,124,28500,5,8,2:0:0:0:
120,186,28652,2,0,L|183:200,1,52.4999983978272,8|0,0:3|0:0,0:0:0:0:
211,217,28881,1,8,0:3:0:0:
211,217,28957,2,0,L|268:203,1,52.4999983978272,8|4,0:3|0:3,0:0:0:0:
334,168,29262,1,4,0:3:0:0:
334,168,29414,1,0,3:0:0:0:
446,223,29566,6,0,P|488:279|466:340,1,120,2|10,3:2|2:0,0:0:0:0:
362,384,30023,1,2,2:0:0:0:
297,337,30175,2,0,L|286:271,1,60,2|0,2:0|0:0,0:0:0:0:
334,168,30480,2,0,L|355:32,1,120,10|0,2:0|0:0,0:0:0:0:
30,0,31089,6,0,P|17:31|25:67,1,60,10|0,2:0|0:0,0:0:0:0:
115,128,31393,2,0,P|128:97|120:61,1,60,2|0,2:0|0:0,0:0:0:0:
20,162,31698,1,10,2:0:0:0:
20,162,31850,1,2,2:0:0:0:
136,247,32003,6,0,L|267:224,1,120,2|10,3:2|2:0,0:0:0:0:
327,156,32459,2,0,B|397:158|365:215|441:217,1,120,2|2,2:0|2:0,0:0:0:0:
481,273,32916,1,10,2:0:0:0:
410,360,33069,1,2,3:2:0:0:
308,274,33221,6,0,L|329:140,2,120,2|8|2,2:0|2:0|2:0,0:0:0:0:
252,332,33982,1,0,0:0:0:0:
145,255,34135,1,8,2:0:0:0:
83,326,34287,1,2,3:2:0:0:
252,332,34439,6,0,L|371:307,1,120,2|10,3:2|2:0,0:0:0:0:
472,265,34896,2,0,P|484:231|477:190,1,60,2|0,2:0|0:0,0:0:0:0:
432,146,35201,1,2,2:0:0:0:
512,74,35353,1,10,2:0:0:0:
380,6,35505,6,0,B|319:21|351:61|299:92,1,120,2|0,3:2|3:0,0:0:0:0:
192,147,35962,2,0,L|115:130,1,60,8|0,2:0|0:0,0:0:0:0:
45,29,36267,2,0,P|80:20|113:41,1,60,2|0,3:2|3:0,0:0:0:0:
136,47,36495,1,0,3:0:0:0:
158,54,36571,2,0,P|189:54|217:30,1,60,14|0,2:0|0:0,0:0:0:0:
380,6,36876,6,0,P|429:50|418:110,1,112.5,6|0,3:2|0:0,0:0:0:0:
421,114,37180,1,10,2:0:0:0:
278,225,37333,6,0,P|257:287|297:334,1,112.5,6|0,3:2|0:0,0:0:0:0:
296,339,37637,1,2,3:2:0:0:
487,384,37789,6,0,L|457:244,1,112.5,14|0,2:0|0:0,0:0:0:0:
455,236,38094,1,8,2:0:0:0:
308,132,38246,6,0,L|194:162,1,112.5,6|0,3:2|0:0,0:0:0:0:
173,170,38551,1,0,3:0:0:0:
33,283,38703,6,0,L|200:319,1,150,14|2,2:0|2:0,0:0:0:0:
179,314,39160,1,10,2:0:0:0:
85,211,39312,6,0,P|58:143|96:75,1,134.999995880127,6|8,3:2|0:1,0:0:0:0:
147,21,39769,2,0,L|225:30,1,67.4999979400635,2|8,2:0|0:1,0:0:0:0:
304,71,40074,1,2,2:0:0:0:
304,71,40226,2,0,L|377:59,1,67.4999979400635,8|0,0:1|0:0,0:0:0:0:
461,26,40531,5,8,0:1:0:0:
461,26,40683,2,0,P|470:67|442:110,1,67.4999979400635,2|8,2:0|0:1,0:0:0:0:
409,169,40987,1,2,2:0:0:0:
409,169,41139,2,0,P|400:210|428:253,1,67.4999979400635,8|0,0:1|0:0,0:0:0:0:
467,313,41444,1,8,0:1:0:0:
467,313,41597,1,2,3:2:0:0:
360,379,41749,6,0,L|216:351,1,134.999995880127,4|8,3:2|0:1,0:0:0:0:
136,353,42206,1,0,0:0:0:0:
136,353,42358,2,0,P|140:312|167:286,1,67.4999979400635,8|0,0:1|0:0,0:0:0:0:
228,231,42663,2,0,P|224:190|197:164,1,67.4999979400635,8|0,0:1|0:0,0:0:0:0:
131,115,42967,6,0,P|95:115|57:146,1,67.4999979400635,8|0,0:1|0:0,0:0:0:0:
14,208,43272,2,0,L|30:278,1,67.4999979400635,8|0,0:1|0:0,0:0:0:0:
72,357,43576,2,0,L|152:374,1,67.4999979400635,8|0,0:1|0:0,0:0:0:0:
189,384,43805,1,8,0:1:0:0:
206,381,43881,2,0,P|249:371|268:342,1,67.4999979400635,8|8,0:1|0:1,0:0:0:0:
328,234,44185,6,0,L|300:92,2,134.999995880127,6|8|8,3:2|0:1|0:1,0:0:0:0:
477,384,45099,2,0,L|493:228,1,134.999995880127,8|8,0:1|0:1,0:0:0:0:
512,160,45556,1,0,0:0:0:0:
512,160,45708,2,0,L|495:90,1,67.4999979400635,8|0,0:1|0:0,0:0:0:0:
428,28,46013,2,0,P|396:13|345:28,1,67.4999979400635,8|0,0:1|0:0,0:0:0:0:
312,94,46317,2,0,P|280:109|229:94,1,67.4999979400635,8|0,0:1|3:0,0:0:0:0:
151,30,46622,6,0,L|11:63,1,134.999995880127,4|8,3:2|0:1,0:0:0:0:
3,157,47079,1,0,0:0:0:0:
3,157,47231,2,0,L|72:173,1,67.4999979400635,8|0,0:1|0:0,0:0:0:0:
146,226,47536,2,0,L|215:210,1,67.4999979400635,8|0,0:1|3:0,0:0:0:0:
291,161,47840,6,0,B|368:157|344:223|423:223,1,134.999995880127,8|2,0:1|2:0,0:0:0:0:
500,201,48297,1,8,0:1:0:0:
500,201,48449,2,0,P|504:244|476:283,1,67.4999979400635,2|0,2:0|0:0,0:0:0:0:
442,345,48754,2,0,L|358:366,1,67.4999979400635,0|0,3:0|0:0,0:0:0:0:
299,384,49058,1,2,3:2:0:0:
9,384,52713,6,0,L|20:342,3,37.5,12|0|8|8,2:0|0:0|2:0|2:0,0:0:0:0:
91,281,53018,1,8,2:0:0:0:
0,212,53170,1,8,2:0:0:0:
122,120,53322,1,2,3:2:0:0:
122,120,53399,1,8,2:0:0:0:
122,120,53475,2,0,L|183:133,1,37.5,8|8,2:0|2:0,0:0:0:0:
256,170,53627,1,2,3:2:0:0:
262,191,53703,1,8,3:0:0:0:
259,213,53779,1,4,3:0:0:0:
250,233,53855,1,4,3:0:0:0:
238,251,53932,6,0,L|76:283,1,150,4|8,3:2|2:0,0:0:0:0:
27,194,54388,1,0,0:0:0:0:
27,194,54465,1,8,2:0:0:0:
27,194,54541,2,0,P|7:151|23:108,1,75,0|0,3:0|3:0,0:0:0:0:
83,48,54845,2,0,L|165:30,1,75,8|2,2:0|0:3,0:0:0:0:
206,15,55074,1,2,0:3:0:0:
226,20,55150,6,0,P|266:11|309:27,1,75,0|0,3:0|3:0,0:0:0:0:
334,118,55454,2,0,P|294:127|251:111,1,75,8|0,2:0|0:0,0:0:0:0:
130,136,55759,1,0,3:0:0:0:
118,159,55835,1,0,0:0:0:0:
115,185,55911,1,0,3:0:0:0:
119,211,55987,1,0,3:0:0:0:
132,233,56063,1,8,2:0:0:0:
132,233,56368,6,0,P|180:207|233:218,1,104.999996795654,8|0,3:0|3:0,0:0:0:0:
285,260,56825,2,0,P|352:275|386:243,1,104.999996795654,4|0,3:0|3:0,0:0:0:0:
425,200,57282,1,8,2:0:0:0:
425,200,58805,6,0,L|286:178,1,134.999995880127,4|0,3:1|0:0,0:0:0:0:
438,221,59109,2,0,P|457:264|432:309,1,89.9999972534181,10|0,2:0|0:0,0:0:0:0:
329,374,59414,1,2,3:2:0:0:
329,374,59566,1,0,3:0:0:0:
256,278,59718,1,2,2:0:0:0:
194,370,59871,1,8,2:0:0:0:
115,272,60023,6,0,L|99:173,1,89.9999972534181,0|0,0:0|3:0,0:0:0:0:
204,111,60328,2,0,L|220:210,1,89.9999972534181,10|0,2:0|3:0,0:0:0:0:
225,226,60556,1,8,2:0:0:0:
225,226,60632,1,2,3:2:0:0:
100,183,60784,1,0,3:0:0:0:
204,111,60937,6,0,B|262:97|262:97|282:114|282:114|345:99,1,134.999995880127,10|0,2:0|0:0,0:0:0:0:
329,102,61241,6,0,P|282:140|296:213,1,134.999995880127,4|0,3:1|0:0,0:0:0:0:
355,91,61546,2,0,P|358:45|312:7,1,89.9999972534181,10|0,2:0|0:0,0:0:0:0:
204,0,61850,1,2,3:2:0:0:
204,0,62003,1,0,3:0:0:0:
143,78,62155,1,0,0:0:0:0:
50,0,62307,1,8,2:0:0:0:
12,111,62459,6,0,L|33:209,1,89.9999972534181,0|0,3:0|3:0,0:0:0:0:
110,303,62764,1,8,2:0:0:0:
110,303,62916,1,0,0:0:0:0:
218,238,63069,2,0,P|261:232|306:265,1,89.9999972534181,2|0,3:2|3:0,0:0:0:0:
339,374,63373,2,0,P|296:380|251:347,1,89.9999972534181,14|0,2:0|0:0,0:0:0:0:
126,209,63678,6,0,L|167:28,1,179.999994506836,4|8,3:1|2:0,0:0:0:0:
296,10,64135,1,2,2:0:0:0:
296,10,64211,1,2,0:3:0:0:
296,10,64287,2,0,P|341:43|346:90,1,89.9999972534181,0|0,3:0|3:0,0:0:0:0:
312,151,64591,1,2,2:0:0:0:
403,238,64744,1,8,2:0:0:0:
507,167,64896,6,0,L|411:141,1,89.9999972534181,0|0,0:0|3:0,0:0:0:0:
293,250,65201,2,0,L|197:276,1,89.9999972534181,10|0,2:0|0:0,0:0:0:0:
83,300,65505,2,0,P|56:250|69:207,1,89.9999972534181,2|0,3:2|3:0,0:0:0:0:
140,120,65810,2,0,P|167:170|154:213,1,89.9999972534181,10|0,2:0|0:0,0:0:0:0:
243,355,66114,6,0,L|376:380,1,134.999995880127,6|0,3:2|0:0,0:0:0:0:
402,384,66419,1,10,2:0:0:0:
512,261,66571,6,0,L|379:286,1,134.999995880127,6|0,3:2|0:0,0:0:0:0:
353,290,66876,1,2,3:2:0:0:
235,184,67028,6,0,P|203:101|276:20,1,179.999994506836,6|0,3:2|3:0,0:0:0:0:
385,94,67485,2,0,L|272:116,1,89.9999972534181,10|0,2:0|3:0,0:0:0:0:
137,209,67789,1,8,0:3:0:0:
137,209,67866,1,4,0:3:0:0:
137,209,67942,1,2,3:2:0:0:
210,269,68094,1,2,3:2:0:0:
133,384,68246,2,0,L|124:284,1,89.9999972534181,12|2,2:0|0:3,0:0:0:0:
296,111,68551,6,0,B|369:108|337:192|423:197,1,134.999995880127,4|0,3:1|0:0,0:0:0:0:
275,124,68855,2,0,B|231:123|249:166|198:174,1,89.9999972534181,10|0,2:0|0:0,0:0:0:0:
118,79,69160,1,2,3:2:0:0:
118,79,69312,1,0,3:0:0:0:
195,10,69465,1,2,2:0:0:0:
275,124,69617,1,8,2:0:0:0:
377,51,69769,6,0,L|283:33,1,89.9999972534181,0|0,0:0|3:0,0:0:0:0:
182,175,70074,2,0,P|176:227|211:269,1,89.9999972534181,10|0,2:0|3:0,0:0:0:0:
312,302,70378,2,0,P|318:250|283:208,1,89.9999972534181,0|0,3:0|3:0,0:0:0:0:
151,96,70683,6,0,B|93:110|93:110|73:93|73:93|10:108,1,134.999995880127,10|0,2:0|0:0,0:0:0:0:
26,105,70987,6,0,P|73:67|59:-6,1,134.999995880127,4|0,3:1|0:0,0:0:0:0:
0,116,71292,2,0,P|-3:162|43:200,1,89.9999972534181,10|0,2:0|0:0,0:0:0:0:
135,269,71597,1,2,3:2:0:0:
135,269,71749,1,0,3:0:0:0:
199,201,71901,1,0,0:0:0:0:
265,307,72053,1,8,2:0:0:0:
350,213,72206,6,0,L|373:116,1,89.9999972534181,2|0,3:2|3:0,0:0:0:0:
287,49,72510,2,0,L|264:146,1,89.9999972534181,10|0,2:0|0:0,0:0:0:0:
331,293,72815,2,0,P|376:290|414:265,1,89.9999972534181,2|0,3:2|3:0,0:0:0:0:
452,98,73119,2,0,P|407:101|369:126,1,89.9999972534181,14|0,2:0|0:0,0:0:0:0:
238,244,73424,6,0,L|90:208,1,134.999995880127,4|0,3:1|0:0,0:0:0:0:
257,266,73729,2,0,P|282:302|266:353,1,89.9999972534181,10|0,2:0|0:0,0:0:0:0:
144,384,74033,1,2,3:2:0:0:
144,384,74185,1,0,3:0:0:0:
73,297,74338,1,2,2:0:0:0:
206,191,74490,1,8,2:0:0:0:
131,89,74642,6,0,L|112:198,1,89.9999972534181,2|0,3:2|3:0,0:0:0:0:
195,275,74947,1,8,2:0:0:0:
297,213,75099,2,0,P|298:164|265:119,1,89.9999972534181,2|0,2:0|3:0,0:0:0:0:
220,73,75404,1,0,3:0:0:0:
381,221,75556,2,0,P|422:226|468:186,1,89.9999972534181,10|2,2:0|0:3,0:0:0:0:
512,13,75860,6,0,L|303:56,1,179.999994506836,0|8,3:0|2:0,0:0:0:0:
215,119,76317,1,2,0:3:0:0:
156,32,76470,1,0,3:0:0:0:
156,32,76622,1,0,3:0:0:0:
76,104,76774,1,2,2:0:0:0:
0,39,76926,1,8,2:0:0:0:
33,182,77079,6,0,L|135:202,1,89.9999972534181,2|0,3:2|3:0,0:0:0:0:
211,287,77383,2,0,L|313:267,1,89.9999972534181,10|0,2:0|0:0,0:0:0:0:
423,208,77688,2,0,P|437:170|413:122,1,89.9999972534181,2|0,3:2|3:0,0:0:0:0:
291,83,77992,2,0,P|277:121|301:169,1,89.9999972534181,14|0,2:0|3:0,0:0:0:0:
311,192,78221,1,0,3:0:0:0:
309,216,78297,6,0,P|292:268|235:279,1,104.999996795654,4|0,3:1|0:0,0:0:0:0:
112,346,78602,5,10,2:0:0:0:
34,321,78754,1,0,3:0:0:0:
141,220,78906,5,10,2:0:0:0:
219,195,79058,1,0,3:0:0:0:
101,104,79211,5,10,2:0:0:0:
23,79,79363,1,0,3:0:0:0:
219,195,79515,5,8,3:0:0:0:
295,170,79668,1,4,3:0:0:0:
372,149,79820,1,8,2:0:0:0:
372,149,80734,6,0,P|345:100|368:48,1,112.5,6|0,3:2|0:0,0:0:0:0:
384,172,81038,2,0,L|353:327,1,150,10|0,2:0|3:0,0:0:0:0:
275,384,81495,1,0,3:0:0:0:
441,306,81647,1,8,2:0:0:0:
288,205,81800,6,0,L|134:236,1,150,2|2,3:2|3:2,0:0:0:0:
81,287,82256,1,10,2:0:0:0:
0,218,82409,1,2,2:0:0:0:
0,218,82485,1,8,2:0:0:0:
0,218,82561,1,2,3:2:0:0:
65,162,82713,1,2,3:2:0:0:
0,92,82866,1,10,2:0:0:0:
84,13,83018,1,2,2:0:0:0:
175,118,83170,6,0,L|192:269,1,150,0|8,3:0|2:0,0:0:0:0:
288,331,83627,1,2,2:0:0:0:
288,331,83703,1,2,0:3:0:0:
288,331,83779,2,0,P|335:334|367:307,1,75,2|2,3:2|3:2,0:0:0:0:
425,225,84084,1,8,2:0:0:0:
340,100,84236,6,0,L|313:258,1,150,2|0,3:2|3:0,0:0:0:0:
239,275,84693,1,10,2:0:0:0:
178,178,84845,1,0,0:0:0:0:
178,178,84922,1,2,0:3:0:0:
178,178,84998,2,0,P|217:156|256:165,1,75,2|2,3:2|3:2,0:0:0:0:
382,229,85302,2,0,P|343:251|304:242,1,75,12|2,2:0|2:0,0:0:0:0:
131,270,85607,6,0,L|-1:240,1,112.5,6|0,3:2|0:0,0:0:0:0:
150,287,85911,2,0,L|311:257,1,150,10|0,2:0|3:0,0:0:0:0:
430,270,86368,1,0,3:0:0:0:
323,175,86520,1,8,2:0:0:0:
438,54,86673,6,0,P|460:123|407:182,1,150,2|2,3:2|3:2,0:0:0:0:
332,280,87130,1,10,2:0:0:0:
332,280,87282,1,2,2:0:0:0:
233,196,87434,2,0,L|251:99,1,75,2|2,3:2|3:2,0:0:0:0:
336,18,87739,2,0,L|354:115,1,75,10|0,2:0|0:0,0:0:0:0:
153,171,88043,6,0,L|71:152,2,60,2|0|0,2:0|0:0|0:0,0:0:0:0:
283,268,88500,2,0,L|362:250,2,60,2|0|0,2:0|0:0|0:0,0:0:0:0:
131,368,88957,1,2,2:0:0:0:
131,368,89109,1,2,2:0:0:0:
