osu file format v14

[General]
AudioFilename: audio.mp3
AudioLeadIn: 0
PreviewTime: 57191
Countdown: 0
SampleSet: Soft
StackLeniency: 0.7
Mode: 0
LetterboxInBreaks: 0
WidescreenStoryboard: 1

[Editor]
Bookmarks: 5186,10059,19805,29551,39297,49043,58790,68536,78282,80719,89094
DistanceSpacing: 1.6
BeatDivisor: 4
GridSize: 32
TimelineZoom: 1

[Metadata]
Title:Tentou (TV Size)
TitleUnicode:天灯 (TV Size)
Artist:sajou no hana
ArtistUnicode:sajou no hana
Creator:melleganol
Version:Hard
Source:ダンジョンに出会いを求めるのは間違っているだろうかⅣ 新章 迷宮篇
Tags:Danmachi 4 Is It Wrong to Try to Pick Up Girls in a Dungeon ni Deai wo Motomeru no wa Machigatteiru Darou ka IV anime japanese JPop J-Pop Pop season four female vocal vocalist op opening Bell Cranel
BeatmapID:3730253
BeatmapSetID:1816895

[Difficulty]
HPDrainRate:4.5
CircleSize:3.6
OverallDifficulty:6.5
ApproachRate:8
SliderMultiplier:1.3
SliderTickRate:1

[Events]
//Background and Video events
0,0,"638309.jpg",0,0
Video,-400,"video.mp4"
//Break Periods
//Storyboard Layer 0 (Background)
//Storyboard Layer 1 (Fail)
//Storyboard Layer 2 (Pass)
//Storyboard Layer 3 (Foreground)
//Storyboard Layer 4 (Overlay)
//Storyboard Sound Samples

[TimingPoints]
328,304.568527918782,4,2,77,55,1,0
328,-125,4,2,77,55,0,0
10074,-100,4,2,77,70,0,0
19820,-125,4,2,77,60,0,0
36876,-100,4,2,77,70,0,0
39312,-111.111111111111,4,2,77,65,0,0
49058,-100,4,2,77,60,0,0
52713,-100,4,2,77,70,0,0
56368,-125,4,2,77,60,0,0
58805,-83.3333333333333,4,2,77,80,0,1
79820,-100,4,2,77,80,0,0
80734,-100,4,2,77,70,0,0

[Colours]
Combo1 : 149,255,173
Combo2 : 184,149,255
Combo3 : 255,221,149
Combo4 : 149,197,255

[HitObjects]
512,15,328,6,0,P|466:14|423:56,1,104,2|0,2:0|0:0,0:0:0:0:
416,133,784,2,0,L|444:255,1,104,2|0,2:0|0:0,0:0:0:0:
512,275,1241,1,2,2:0:0:0:
286,381,1698,6,0,P|249:351|179:355,1,104,2|0,2:0|0:0,0:0:0:0:
113,370,2155,2,0,P|84:374|50:360,1,52,2|0,2:0|0:0,0:0:0:0:
0,312,2459,1,2,2:0:0:0:
72,265,2612,1,2,2:0:0:0:
72,265,2688,1,2,2:0:0:0:
72,265,2764,6,0,L|60:212,2,52,2|0|0,2:0|0:0|0:0,0:0:0:0:
147,229,3221,2,0,L|135:176,2,52,2|0|0,2:0|0:0|0:0,0:0:0:0:
221,266,3678,1,2,2:0:0:0:
143,27,4135,6,0,P|84:17|49:43,1,104,2|0,2:0|0:0,0:0:0:0:
10,113,4591,2,0,L|29:183,1,52,2|2,2:0|2:0,0:0:0:0:
89,215,4896,1,0,0:0:0:0:
161,170,5048,1,8,2:0:0:0:
161,170,5125,1,8,2:0:0:0:
161,170,5201,6,0,P|186:154|217:154,1,52,0|0,3:0|3:0,0:0:0:0:
406,303,5810,1,8,2:0:0:0:
512,177,6114,1,0,3:0:0:0:
512,177,6267,2,0,L|490:72,2,104,0|8|0,3:0|2:0|3:0,0:0:0:0:
492,215,6952,1,0,3:0:0:0:
492,215,7028,1,8,2:0:0:0:
412,240,7180,1,8,2:0:0:0:
228,70,7637,6,0,L|164:56,1,52,0|0,3:0|3:0,0:0:0:0:
2,237,8246,1,8,2:0:0:0:
118,356,8551,2,0,L|178:344,1,52,12|0,2:0|3:0,0:0:0:0:
244,379,8855,1,0,3:0:0:0:
318,341,9008,1,0,3:0:0:0:
389,382,9160,1,8,2:0:0:0:
111,63,10074,6,0,P|66:23|-15:35,2,130,6|10|0,3:2|2:0|3:0,0:0:0:0:
198,101,10835,1,0,3:0:0:0:
198,101,10987,1,8,2:0:0:0:
273,49,11140,6,0,L|406:28,1,130,2|2,3:2|3:2,0:0:0:0:
482,70,11597,1,10,2:0:0:0:
454,161,11749,1,2,2:0:0:0:
454,161,11825,1,8,2:0:0:0:
454,161,11901,2,0,L|377:190,1,65,2|2,3:2|3:2,0:0:0:0:
323,243,12206,2,0,L|245:229,1,65,10|2,2:0|2:0,0:0:0:0:
168,223,12510,6,0,P|114:271|123:333,1,130,2|10,3:2|2:0,0:0:0:0:
196,384,12967,1,2,2:0:0:0:
196,384,13043,1,8,2:0:0:0:
196,384,13119,2,0,L|264:366,1,65,2|2,3:2|3:2,0:0:0:0:
349,380,13424,1,8,2:0:0:0:
400,304,13576,6,0,L|368:167,1,130,2|0,3:2|3:0,0:0:0:0:
299,119,14033,1,8,2:0:0:0:
229,174,14185,1,0,0:0:0:0:
229,174,14262,1,8,2:0:0:0:
229,174,14338,2,0,L|161:161,1,65,2|2,3:2|3:2,0:0:0:0:
113,236,14642,2,0,L|181:249,1,65,14|2,2:0|2:0,0:0:0:0:
241,312,14947,6,0,L|379:286,2,130,6|10|0,3:2|2:0|3:0,0:0:0:0:
174,373,15708,1,0,3:0:0:0:
174,373,15860,1,8,2:0:0:0:
88,340,16013,6,0,P|47:294|60:222,1,130,2|2,3:2|3:2,0:0:0:0:
104,153,16470,1,10,2:0:0:0:
200,141,16622,1,2,2:0:0:0:
200,141,16698,1,8,2:0:0:0:
200,141,16774,2,0,L|274:156,1,65,2|2,3:2|3:2,0:0:0:0:
334,211,17079,2,0,L|408:196,1,65,10|2,2:0|2:0,0:0:0:0:
465,138,17383,6,0,L|475:71,2,65,2|0|8,3:2|0:0|2:0,0:0:0:0:
382,98,17840,1,2,2:0:0:0:
382,98,17916,1,8,2:0:0:0:
382,98,17992,2,0,L|392:31,1,65,2|2,3:2|3:2,0:0:0:0:
305,2,18297,1,10,2:0:0:0:
228,50,18449,6,0,L|81:29,1,130,2|0,3:2|3:0,0:0:0:0:
24,84,18906,2,0,P|8:116|20:161,1,65,10|2,2:0|2:0,0:0:0:0:
63,225,19211,1,2,3:2:0:0:
63,225,19363,1,2,3:2:0:0:
13,302,19515,1,14,2:0:0:0:
13,302,19668,1,2,2:0:0:0:
71,360,19820,6,0,P|126:371|174:341,2,104,6|2|2,3:2|2:0|2:0,0:0:0:0:
7,205,20734,2,0,L|21:145,1,52,2|0,2:0|0:0,0:0:0:0:
221,7,21343,1,2,2:0:0:0:
221,7,21495,2,0,L|240:117,1,104,2|2,2:0|2:0,0:0:0:0:
273,185,21952,2,0,P|273:214|259:239,1,52,2|2,2:0|2:0,0:0:0:0:
237,267,22180,1,2,0:3:0:0:
237,267,22256,6,0,P|237:298|254:325,1,52,2|2,2:0|2:0,0:0:0:0:
306,374,22561,2,0,L|363:372,1,52,2|2,2:0|2:0,0:0:0:0:
441,370,22866,1,2,2:0:0:0:
510,218,23170,1,2,2:0:0:0:
402,90,23475,2,0,L|345:101,1,52,2|0,2:0|0:0,0:0:0:0:
111,30,24084,1,2,2:0:0:0:
111,30,24388,2,0,L|180:48,1,52,2|0,2:0|3:0,0:0:0:0:
221,101,24693,6,0,P|233:130|225:163,1,52,2|2,3:2|2:0,0:0:0:0:
249,231,24998,2,0,P|242:256|213:276,1,52,2|2,2:0|2:0,0:0:0:0:
155,320,25302,2,0,L|34:288,1,104,2|2,2:0|2:0,0:0:0:0:
3,359,25759,1,2,0:3:0:0:
21,109,26216,6,0,L|12:48,1,52,2|0,0:3|0:0,0:0:0:0:
87,17,26520,1,2,2:0:0:0:
87,17,26673,2,0,B|145:21|120:62|175:76,1,104,2|2,2:0|2:0,0:0:0:0:
244,109,27130,2,0,L|359:79,1,104,2|2,2:0|2:0,0:0:0:0:
426,57,27586,1,2,2:0:0:0:
426,57,27739,1,2,2:0:0:0:
353,206,28043,2,0,L|366:269,1,52,2|2,2:0|0:3,0:0:0:0:
490,365,28500,5,8,2:0:0:0:
412,334,28652,2,0,L|344:356,1,52,8|0,0:3|0:0,0:0:0:0:
328,372,28881,1,8,0:3:0:0:
328,372,28957,2,0,L|256:363,1,52,8|4,0:3|0:3,0:0:0:0:
199,333,29262,1,4,0:3:0:0:
132,382,29414,1,0,3:0:0:0:
59,341,29566,6,0,L|40:225,1,104,2|10,3:2|2:0,0:0:0:0:
5,168,30023,1,2,2:0:0:0:
5,168,30175,2,0,L|18:104,1,52,2|0,2:0|0:0,0:0:0:0:
40,37,30480,1,10,2:0:0:0:
371,6,31089,6,0,L|434:18,1,52,10|0,2:0|0:0,0:0:0:0:
407,97,31393,2,0,L|344:85,1,52,2|0,2:0|0:0,0:0:0:0:
335,168,31698,2,0,L|398:180,1,52,10|2,2:0|2:0,0:0:0:0:
445,236,32003,6,0,P|473:273|452:343,1,104,2|10,3:2|2:0,0:0:0:0:
384,345,32459,2,0,P|352:300|363:250,1,104,2|2,2:0|2:0,0:0:0:0:
386,177,32916,1,10,2:0:0:0:
386,177,33069,1,2,3:2:0:0:
327,118,33221,6,0,L|208:98,1,104,2|8,2:0|2:0,0:0:0:0:
72,168,33830,2,0,L|191:188,1,104,2|8,2:0|2:0,0:0:0:0:
235,242,34287,1,2,3:2:0:0:
207,320,34439,6,0,P|158:358|104:343,1,104,2|10,3:2|2:0,0:0:0:0:
37,370,34896,2,0,L|13:253,1,104,2|2,2:0|2:0,0:0:0:0:
0,185,35353,1,10,2:0:0:0:
66,135,35505,2,0,P|113:127|154:162,1,104,2|0,3:2|3:0,0:0:0:0:
217,215,35962,2,0,P|207:272|235:326,1,104,8|2,2:0|3:2,0:0:0:0:
289,381,36419,1,0,3:0:0:0:
289,381,36495,1,0,3:0:0:0:
289,381,36571,1,14,2:0:0:0:
471,280,36876,6,0,P|486:214|440:165,1,130,6|10,3:2|2:0,0:0:0:0:
388,101,37333,2,0,L|257:85,1,130,6|2,3:2|3:2,0:0:0:0:
175,48,37789,2,0,L|89:73,1,65,14|0,2:0|0:0,0:0:0:0:
38,119,38094,1,8,2:0:0:0:
96,188,38246,6,0,L|226:215,1,130,6|0,3:2|3:0,0:0:0:0:
291,275,38703,2,0,L|424:249,1,130,14|2,2:0|2:0,0:0:0:0:
497,296,39160,1,10,2:0:0:0:
497,296,39312,6,0,P|470:357|417:358,1,116.999996429443,6|8,3:2|0:1,0:0:0:0:
351,313,39769,2,0,P|317:298|282:305,1,58.4999982147217,2|8,2:0|0:1,0:0:0:0:
232,360,40074,1,2,2:0:0:0:
232,360,40226,2,0,L|103:382,1,116.999996429443,8|8,0:1|0:1,0:0:0:0:
33,349,40683,2,0,L|22:276,1,58.4999982147217,2|8,2:0|0:1,0:0:0:0:
53,212,40987,1,2,2:0:0:0:
53,212,41139,2,0,L|81:78,1,116.999996429443,8|8,0:1|0:1,0:0:0:0:
143,38,41597,1,2,3:2:0:0:
203,100,41749,6,0,P|288:106|303:83,2,116.999996429443,4|8|8,3:2|0:1|0:1,0:0:0:0:
52,9,42663,1,8,0:1:0:0:
5,177,42967,2,0,P|6:211|20:247,1,58.4999982147217,8|0,0:1|0:0,0:0:0:0:
41,317,43272,2,0,P|64:339|103:339,1,58.4999982147217,8|0,0:1|0:0,0:0:0:0:
168,380,43576,2,0,L|228:363,1,58.4999982147217,8|0,0:1|0:0,0:0:0:0:
270,354,43805,1,8,0:1:0:0:
270,354,43881,2,0,L|333:372,1,58.4999982147217,8|8,0:1|0:1,0:0:0:0:
413,375,44185,6,0,P|453:328|442:276,2,116.999996429443,6|8|8,3:2|0:1|0:1,0:0:0:0:
283,256,45099,2,0,L|255:128,1,116.999996429443,8|8,0:1|0:1,0:0:0:0:
386,21,45708,2,0,P|413:25|438:50,1,58.4999982147217,8|0,0:1|0:0,0:0:0:0:
491,113,46013,2,0,L|457:238,1,116.999996429443,8|8,0:1|0:1,0:0:0:0:
398,288,46470,1,0,3:0:0:0:
332,230,46622,6,0,P|286:193|223:203,2,116.999996429443,4|8|8,3:2|0:1|0:1,0:0:0:0:
233,375,47536,2,0,L|172:354,1,58.4999982147217,8|0,0:1|3:0,0:0:0:0:
92,377,47840,2,0,P|63:317|91:255,1,116.999996429443,8|2,0:1|2:0,0:0:0:0:
117,195,48297,1,8,0:1:0:0:
117,195,48449,2,0,L|180:177,1,58.4999982147217,2|0,2:0|0:0,0:0:0:0:
237,118,48754,2,0,L|305:139,1,58.4999982147217,0|0,3:0|0:0,0:0:0:0:
382,173,49058,1,2,3:2:0:0:
26,0,52561,5,0,3:0:0:0:
26,0,52637,1,0,3:0:0:0:
26,0,52713,2,0,L|39:49,3,32.5,12|0|8|8,2:0|0:0|2:0|2:0,0:0:0:0:
50,74,53018,2,0,P|48:115|20:146,1,65,8|8,2:0|2:0,0:0:0:0:
1,218,53322,2,0,L|47:227,3,32.5,2|8|8|8,3:2|2:0|2:0|2:0,0:0:0:0:
69,251,53627,2,0,L|115:242,3,32.5,2|8|4|4,3:2|3:0|3:0|3:0,0:0:0:0:
146,240,53932,6,0,B|215:240|195:305|256:311,1,130,4|8,3:2|2:0,0:0:0:0:
325,376,54388,1,0,0:0:0:0:
325,376,54465,1,8,2:0:0:0:
325,376,54541,2,0,L|408:361,1,65,0|0,3:0|3:0,0:0:0:0:
476,340,54845,2,0,P|491:304|479:266,1,65,8|2,2:0|0:3,0:0:0:0:
499,188,55150,2,0,P|461:168|432:171,1,65,0|0,3:0|3:0,0:0:0:0:
366,222,55454,2,0,P|308:259|234:252,1,130,8|0,2:0|3:0,0:0:0:0:
167,244,55911,1,0,3:0:0:0:
167,244,55987,1,0,3:0:0:0:
167,244,56064,1,8,2:0:0:0:
283,125,56368,6,0,P|311:65|290:20,1,104,8|0,3:0|3:0,0:0:0:0:
386,0,56825,2,0,P|426:42|484:38,1,104,4|0,3:0|3:0,0:0:0:0:
455,126,57282,1,8,2:0:0:0:
455,126,58805,6,0,L|323:103,1,116.999996429443,4|0,3:1|0:0,0:0:0:0:
295,90,59109,2,0,L|133:120,1,155.999995239258,10|2,2:0|3:2,0:0:0:0:
52,88,59566,1,0,3:0:0:0:
0,165,59718,1,2,2:0:0:0:
0,165,59871,1,8,2:0:0:0:
46,246,60023,6,0,P|84:266|130:252,1,77.999997619629,0|0,0:0|3:0,0:0:0:0:
195,208,60328,2,0,P|233:188|279:202,1,77.999997619629,10|0,2:0|3:0,0:0:0:0:
308,223,60556,1,8,2:0:0:0:
308,223,60632,2,0,L|329:310,1,77.999997619629,2|0,3:2|3:0,0:0:0:0:
260,366,60937,2,0,L|239:279,1,77.999997619629,10|0,2:0|0:0,0:0:0:0:
195,208,61241,6,0,L|219:36,2,155.999995239258,4|10|2,3:1|2:0|3:2,0:0:0:0:
127,272,62003,2,0,P|83:286|40:268,1,77.999997619629,0|0,3:0|0:0,0:0:0:0:
1,200,62307,1,8,2:0:0:0:
20,108,62459,6,0,L|6:66,2,38.9999988098145,0|0|0,3:0|3:0|3:0,0:0:0:0:
112,143,62764,1,8,2:0:0:0:
112,143,62916,1,0,0:0:0:0:
173,71,63069,2,0,P|208:43|249:52,1,77.999997619629,2|0,3:2|3:0,0:0:0:0:
315,100,63373,2,0,P|357:111|392:90,1,77.999997619629,14|0,2:0|0:0,0:0:0:0:
475,66,63678,6,0,L|448:238,1,155.999995239258,4|8,3:1|2:0,0:0:0:0:
505,296,64135,2,0,P|485:332|446:344,1,77.999997619629,2|0,2:0|3:0,0:0:0:0:
371,384,64439,1,0,3:0:0:0:
371,384,64591,2,0,P|341:346|348:299,1,77.999997619629,2|8,2:0|2:0,0:0:0:0:
246,323,64896,2,0,P|263:268|295:255,1,77.999997619629,0|0,0:0|3:0,0:0:0:0:
366,228,65201,6,0,L|464:212,1,77.999997619629,10|0,2:0|0:0,0:0:0:0:
428,123,65505,2,0,L|330:139,1,77.999997619629,2|0,3:2|3:0,0:0:0:0:
332,43,65810,2,0,L|430:27,1,77.999997619629,10|0,2:0|0:0,0:0:0:0:
496,9,66114,6,0,P|488:89|399:119,1,155.999995239258,6|10,3:2|2:0,0:0:0:0:
336,146,66571,2,0,P|272:118|160:109,1,155.999995239258,6|2,3:2|3:2,0:0:0:0:
97,135,67028,2,0,P|51:216|60:307,1,155.999995239258,6|0,3:2|3:0,0:0:0:0:
89,362,67485,6,0,P|135:369|164:339,1,77.999997619629,10|0,2:0|3:0,0:0:0:0:
220,283,67789,1,8,0:3:0:0:
220,283,67866,1,4,0:3:0:0:
220,283,67942,2,0,L|203:199,1,77.999997619629,2|2,3:2|3:2,0:0:0:0:
147,132,68246,2,0,L|164:48,1,77.999997619629,12|2,2:0|0:3,0:0:0:0:
241,5,68551,6,0,B|302:7|292:66|343:72,1,116.999996429443,4|0,3:1|0:0,0:0:0:0:
379,63,68855,2,0,P|429:80|419:186,1,155.999995239258,10|2,2:0|3:2,0:0:0:0:
370,239,69312,1,0,3:0:0:0:
370,239,69465,1,2,2:0:0:0:
285,197,69617,1,8,2:0:0:0:
221,265,69769,6,0,P|214:306|241:351,1,77.999997619629,0|0,0:0|3:0,0:0:0:0:
313,378,70074,2,0,L|400:368,1,77.999997619629,10|0,2:0|3:0,0:0:0:0:
440,363,70302,1,2,0:3:0:0:
440,363,70378,2,0,P|459:326|443:283,1,77.999997619629,0|0,3:0|3:0,0:0:0:0:
397,214,70683,2,0,P|378:177|394:134,1,77.999997619629,10|0,2:0|0:0,0:0:0:0:
433,62,70987,6,0,L|245:35,2,155.999995239258,4|10|2,3:1|2:0|3:2,0:0:0:0:
469,148,71749,2,0,P|495:235|438:292,1,155.999995239258,0|8,3:0|2:0,0:0:0:0:
384,337,72206,6,0,L|285:359,1,77.999997619629,2|0,3:2|3:0,0:0:0:0:
283,263,72510,2,0,L|382:241,1,77.999997619629,10|0,2:0|0:0,0:0:0:0:
337,154,72815,2,0,L|238:176,1,77.999997619629,2|0,3:2|3:0,0:0:0:0:
236,80,73119,2,0,L|335:58,1,77.999997619629,14|0,2:0|0:0,0:0:0:0:
241,0,73424,6,0,P|186:17|158:90,1,116.999996429443,4|0,3:1|0:0,0:0:0:0:
138,109,73729,2,0,L|173:283,1,155.999995239258,10|2,2:0|3:2,0:0:0:0:
117,339,74185,1,0,3:0:0:0:
117,339,74338,1,2,2:0:0:0:
31,314,74490,1,8,2:0:0:0:
6,223,74642,6,0,P|37:189|83:185,1,77.999997619629,2|0,3:2|3:0,0:0:0:0:
146,132,74947,1,8,2:0:0:0:
206,203,75099,2,0,P|245:218|290:203,2,77.999997619629,2|0|0,2:0|3:0|3:0,0:0:0:0:
146,132,75556,2,0,L|136:46,1,77.999997619629,10|2,2:0|0:3,0:0:0:0:
220,12,75860,6,0,L|377:45,2,155.999995239258,0|8|0,3:0|2:0|3:0,0:0:0:0:
136,54,76622,1,0,3:0:0:0:
136,54,76774,1,2,2:0:0:0:
54,19,76926,1,8,2:0:0:0:
1,97,77079,6,0,P|3:142|35:175,1,77.999997619629,2|0,3:2|3:0,0:0:0:0:
88,233,77383,2,0,L|167:246,1,77.999997619629,10|0,2:0|0:0,0:0:0:0:
242,192,77688,2,0,L|321:179,1,77.999997619629,2|0,3:2|3:0,0:0:0:0:
409,201,77992,2,0,P|437:234|437:278,1,77.999997619629,14|0,2:0|3:0,0:0:0:0:
429,316,78221,1,0,3:0:0:0:
429,316,78297,6,0,L|330:342,1,77.999997619629,4|0,3:1|0:0,0:0:0:0:
275,384,78602,1,10,2:0:0:0:
275,384,78754,1,0,3:0:0:0:
200,337,78906,1,10,2:0:0:0:
200,337,79058,1,0,3:0:0:0:
121,384,79211,1,10,2:0:0:0:
121,384,79363,1,0,3:0:0:0:
35,346,79515,2,0,L|20:268,2,77.999997619629,8|4|8,3:0|3:0|2:0,0:0:0:0:
470,257,80734,6,0,L|495:384,2,130,6|10|0,3:2|2:0|3:0,0:0:0:0:
511,178,81495,1,0,3:0:0:0:
511,178,81647,1,8,2:0:0:0:
447,111,81800,6,0,L|316:90,1,130,2|2,3:2|3:2,0:0:0:0:
238,46,82256,1,10,2:0:0:0:
163,93,82409,1,2,2:0:0:0:
163,93,82485,1,8,2:0:0:0:
163,93,82561,2,0,L|149:160,1,65,2|2,3:2|3:2,0:0:0:0:
99,233,82866,2,0,L|113:300,1,65,10|2,2:0|2:0,0:0:0:0:
176,361,83170,6,0,P|236:359|265:283,1,130,0|8,3:0|2:0,0:0:0:0:
252,222,83627,1,2,2:0:0:0:
252,222,83703,1,2,0:3:0:0:
252,222,83779,2,0,L|266:137,1,65,2|2,3:2|3:2,0:0:0:0:
279,68,84084,1,8,2:0:0:0:
358,24,84236,6,0,P|421:21|467:66,1,130,2|0,3:2|3:0,0:0:0:0:
510,145,84693,2,0,L|493:230,1,65,10|0,2:0|0:0,0:0:0:0:
428,268,84998,1,2,3:2:0:0:
428,268,85151,1,2,3:2:0:0:
345,232,85302,2,0,P|307:214|268:220,1,65,12|2,2:0|2:0,0:0:0:0:
209,266,85607,6,0,L|70:294,2,130,6|10|0,3:2|2:0|3:0,0:0:0:0:
284,214,86368,1,0,3:0:0:0:
284,214,86520,1,8,2:0:0:0:
263,124,86673,6,0,P|226:78|147:76,1,130,2|2,3:2|3:2,0:0:0:0:
78,40,87130,1,10,2:0:0:0:
78,40,87282,1,2,2:0:0:0:
23,112,87434,2,0,L|11:196,1,65,2|2,3:2|3:2,0:0:0:0:
6,267,87739,2,0,L|18:351,1,65,10|0,2:0|0:0,0:0:0:0:
98,366,88043,6,0,L|165:377,2,65,2|0|0,2:0|0:0|0:0,0:0:0:0:
149,290,88500,2,0,L|216:301,2,65,2|0|0,2:0|0:0|0:0,0:0:0:0:
198,214,88957,1,2,2:0:0:0:
198,214,89109,1,2,2:0:0:0:
