osu file format v14

[General]
AudioFilename: audio.mp3
AudioLeadIn: 0
PreviewTime: 57258
Countdown: 0
SampleSet: Soft
StackLeniency: 0.4
Mode: 0
LetterboxInBreaks: 0
WidescreenStoryboard: 1

[Editor]
DistanceSpacing: 2
BeatDivisor: 4
GridSize: 4
TimelineZoom: 2.5

[Metadata]
Title:Tentou (TV Size)
TitleUnicode:天灯 (TV Size)
Artist:sajou no hana
ArtistUnicode:sajou no hana
Creator:Sarawatlism
Version:AsuKo's Insane
Source:ダンジョンに出会いを求めるのは間違っているだろうかⅣ 新章 迷宮篇
Tags:pado GrazuKo asukow -_ex_- - ex - airiesu mujina danmachi ss4 season 4 Is It Wrong to Try to Pick Up Girls in a Dungeon? season Ⅳ New Chapter: The Labyrinth Arc [_lost_] conner c_o_n_n_e_r sana hestia bell jpop j-pop pop japanese anime op opening
BeatmapID:3763680
BeatmapSetID:1812822

[Difficulty]
HPDrainRate:5
CircleSize:4.2
OverallDifficulty:8
ApproachRate:9
SliderMultiplier:1.6
SliderTickRate:1

[Events]
//Background and Video events
Video,-300,"VD.mp4"
0,0,"BG.jpg",0,0
//Break Periods
2,49310,52013
//Storyboard Layer 0 (Background)
//Storyboard Layer 1 (Fail)
//Storyboard Layer 2 (Pass)
//Storyboard Layer 3 (Foreground)
//Storyboard Layer 4 (Overlay)
//Storyboard Sound Samples

[TimingPoints]
380,304.568527918782,4,2,1,50,1,0
380,-125,4,2,1,50,0,0
5253,-125,4,2,1,55,0,0
8831,-125,4,2,1,5,0,0
8907,-125,4,2,1,55,0,0
9212,-125,4,2,2,50,0,0
10126,-100,4,2,1,70,0,0
14694,-125,4,2,2,70,0,0
14922,-125,4,2,2,5,0,0
14999,-100,4,2,1,70,0,0
18729,-100,4,2,1,5,0,0
18806,-100,4,2,1,70,0,0
19567,-100,4,2,2,70,0,0
19872,-125,4,2,2,45,0,0
28552,-125,4,2,2,55,0,0
29009,-125,4,2,2,50,0,0
29314,-125,4,2,3,40,0,0
29618,-111.111111111111,4,2,1,55,0,0
36623,-111.111111111111,4,2,2,60,0,0
36928,-90.9090909090908,4,2,1,65,0,0
38298,-90.9090909090908,4,2,2,65,0,0
38374,-90.9090909090908,4,2,1,65,0,0
39364,-166.666666666667,4,2,1,55,0,0
39668,-166.666666666667,4,2,4,55,0,0
39821,-166.666666666667,4,2,1,55,0,0
39973,-166.666666666667,4,2,4,55,0,0
40125,-166.666666666667,4,2,1,55,0,0
40278,-166.666666666667,4,2,4,55,0,0
40735,-166.666666666667,4,2,1,55,0,0
40887,-166.666666666667,4,2,4,55,0,0
41039,-166.666666666667,4,2,1,55,0,0
41192,-166.666666666667,4,2,4,55,0,0
41649,-166.666666666667,4,2,1,55,0,0
41801,-166.666666666667,4,2,4,55,0,0
48197,-166.666666666667,4,2,1,55,0,0
49110,-166.666666666667,4,2,1,35,0,0
52765,-100,4,2,1,55,0,0
53070,-100,4,2,1,60,0,0
53374,-100,4,2,1,65,0,0
53679,-100,4,2,1,60,0,0
53831,-100,4,2,2,60,0,0
53984,-100,4,2,2,70,0,0
56116,-100,4,2,1,70,0,0
56877,-100,4,2,3,70,0,0
57334,-166.666666666667,4,2,2,70,0,0
57638,-166.666666666667,4,2,2,50,0,0
57790,-166.666666666667,4,2,2,5,0,0
57943,-250,4,2,2,50,0,0
58857,-83.3333333333333,4,2,1,80,0,0
59085,-83.3333333333333,4,2,1,5,0,0
59161,-83.3333333333333,4,2,1,80,0,0
60989,-100,4,2,1,80,0,0
61217,-100,4,2,1,5,0,0
61293,-83.3333333333333,4,2,1,80,0,0
63425,-100,4,2,2,80,0,0
63653,-100,4,2,2,5,0,0
63730,-83.3333333333333,4,2,1,80,0,0
65862,-100,4,2,1,80,0,0
66090,-100,4,2,1,5,0,0
66166,-83.3333333333333,4,2,2,80,0,0
66623,-83.3333333333333,4,2,1,80,0,0
67080,-83.3333333333333,4,2,2,80,0,0
67841,-83.3333333333333,4,2,1,80,0,0
68298,-125,4,2,2,80,0,0
68526,-125,4,2,2,5,0,0
68603,-83.3333333333333,4,2,1,80,0,0
68831,-83.3333333333333,4,2,1,5,0,0
68907,-83.3333333333333,4,2,1,80,0,0
70735,-100,4,2,1,80,0,0
70963,-100,4,2,1,5,0,0
71039,-83.3333333333333,4,2,1,80,0,0
73171,-100,4,2,2,80,0,0
73399,-100,4,2,2,5,0,0
73476,-83.3333333333333,4,2,1,80,0,0
75836,-83.3333333333333,4,2,1,5,0,0
75912,-83.3333333333333,4,2,1,80,0,0
78044,-83.3333333333333,4,2,2,80,0,0
78349,-83.3333333333333,4,2,1,80,0,0
80786,-100,4,2,1,70,0,0
85354,-125,4,2,2,70,0,0
85582,-125,4,2,2,5,0,0
85659,-100,4,2,1,70,0,0
88095,-125,4,2,1,40,0,0

[Colours]
Combo1 : 139,82,134
Combo2 : 247,157,238
Combo3 : 136,196,255
Combo4 : 80,86,133

[HitObjects]
84,344,380,6,0,P|24:326|0:269,1,128,2|2,2:0|2:0,2:0:0:0:
33,173,836,2,0,P|84:159|165:136,1,128,2|2,2:0|2:0,2:0:0:0:
240,79,1293,6,0,P|226:44|215:13,2,64,2|0|2,2:0|2:0|2:0,2:0:0:0:
327,135,1750,2,0,B|390:102|390:102|420:104|436:135,1,128,2|2,2:0|2:0,2:0:0:0:
462,223,2207,2,0,P|494:212|514:186,2,64,2|0|2,2:0|2:0|2:0,2:0:0:0:
401,286,2664,1,0,2:0:0:0:
396,294,2740,1,0,2:0:0:0:
389,302,2816,6,0,B|324:299|332:340|269:341,1,128,2|2,2:0|2:0,2:0:0:0:
194,270,3273,2,0,P|166:293|157:325,2,64,2|2|2,2:0|2:0|2:0,2:0:0:0:
309,233,3730,6,0,P|287:179|221:158,1,128,2|0,2:0|2:0,2:0:0:0:
229,42,4187,2,0,P|162:63|86:87,1,128,2|0,2:0|2:0,2:0:0:0:
27,138,4643,2,0,P|8:112|7:80,2,64,2|2|2,2:0|2:0|2:0,2:0:0:0:
111,195,5100,1,8,2:0:0:0:
108,203,5176,1,8,2:0:0:0:
105,210,5253,5,2,1:2:0:0:
0,287,5405,2,0,P|65:250|129:265,1,128,0|2,1:0|2:0,2:0:0:0:
248,350,5862,2,0,P|316:333|401:311,1,128,8|2,2:0|1:2,2:0:0:0:
482,357,6319,2,0,P|442:370|408:381,1,64,0|2,1:0|2:0,2:0:0:0:
424,257,6623,6,0,P|398:205|313:197,1,128,10|2,2:0|1:2,2:0:0:0:
230,158,7080,1,10,2:0:0:0:
348,44,7232,1,8,2:0:0:0:
255,17,7385,2,0,P|264:47|274:95,1,64,2|0,2:0|2:0,2:0:0:0:
357,129,7689,6,0,L|333:191,2,64,2|2|0,1:2|1:2|2:0,2:0:0:0:
445,64,8146,2,0,L|421:4,2,64,2|10|2,2:0|2:0|2:0,2:0:0:0:
504,147,8603,2,0,P|492:193|479:239,1,96,14|0,2:0|2:0,2:0:0:0:
476,253,8907,1,10,2:3:0:0:
403,371,9060,1,6,2:3:0:0:
341,188,9212,1,14,2:0:0:0:
77,95,10126,6,0,P|66:55|57:18,1,80,6|0,1:2|2:0,2:0:0:0:
0,202,10430,2,0,P|50:143|127:146,1,160,10|2,2:0|1:2,2:0:0:0:
219,206,10887,2,0,P|233:168|249:116,1,80,2|8,1:2|2:0,2:0:0:0:
391,81,11192,6,0,P|345:18|268:17,1,160,2|2,1:2|1:2,2:0:0:0:
260,25,11572,1,2,2:0:0:0:
253,32,11648,1,10,2:0:0:0:
322,166,11801,1,0,1:2:0:0:
331,177,11877,1,8,2:0:0:0:
340,189,11953,2,0,P|377:175|414:160,1,80,2|2,1:2|1:2,2:0:0:0:
306,293,12258,2,0,P|268:279|231:264,1,80,10|2,2:0|2:0,2:0:0:0:
83,368,12562,6,0,P|49:303|112:217,1,160,2|10,1:2|2:0,2:0:0:0:
91,106,13019,1,0,1:2:0:0:
84,101,13095,1,8,2:0:0:0:
76,97,13171,2,0,P|40:108|-2:119,1,80,2|2,1:2|1:2,2:0:0:0:
146,171,13476,1,8,2:0:0:0:
200,88,13628,6,0,B|272:61|265:122|354:98,1,160,2|2,1:2|1:2,2:0:0:0:
512,108,14085,2,0,P|524:70|509:34,1,80,10|0,2:0|1:2,2:0:0:0:
425,139,14390,1,2,1:2:0:0:
425,139,14542,1,2,1:2:0:0:
512,257,14694,2,0,P|460:267|397:281,1,96,14|0,2:0|2:0,2:0:0:0:
370,215,14999,6,0,P|336:195|298:206,1,80,6|0,1:2|2:0,2:0:0:0:
214,359,15303,2,0,P|197:284|179:198,1,160,10|2,2:0|1:2,2:0:0:0:
261,98,15760,2,0,P|226:79|186:83,1,80,2|8,1:2|2:0,2:0:0:0:
46,168,16065,6,0,P|62:246|80:324,1,160,2|2,1:2|1:2,2:0:0:0:
85,336,16445,1,2,2:0:0:0:
91,348,16522,1,10,2:0:0:0:
224,271,16674,1,0,1:2:0:0:
321,369,16826,2,0,P|333:331|347:293,1,80,2|2,1:2|1:2,2:0:0:0:
486,224,17131,2,0,P|499:261|512:299,1,80,10|2,2:0|2:0,2:0:0:0:
381,156,17435,6,0,B|317:143|317:143|287:161|287:161|213:148,1,160,2|10,1:2|2:0,2:0:0:0:
75,72,17892,2,0,P|126:13|217:19,1,160,0|0,1:2|1:0,2:0:0:0:
329,70,18349,1,10,2:0:0:0:
209,227,18501,6,0,P|185:142|169:81,1,120,2|0,1:2|2:0,2:0:0:0:
173,104,18806,1,2,1:2:0:0:
116,189,18958,1,10,2:0:0:0:
0,86,19110,1,0,1:2:0:0:
125,198,19263,2,0,P|85:205|38:216,1,80,2|2,1:2|1:2,2:0:0:0:
0,361,19567,2,0,L|78:342,1,80,14|2,2:0|2:0,2:0:0:0:
272,355,19872,6,0,P|210:345|160:382,2,128,6|2|2,1:2|2:0|2:0,2:0:0:0:
297,274,20633,1,0,2:0:0:0:
249,172,20786,2,0,P|192:190|107:222,1,128,2|0,2:0|2:0,2:0:0:0:
127,213,21395,1,2,2:0:0:0:
44,157,21547,2,0,P|46:87|100:65,1,128,2|2,2:0|2:0,2:0:0:0:
196,16,22004,2,0,P|222:25|260:43,1,64,2|2,2:0|2:0,2:0:0:0:
348,103,22308,5,2,2:0:0:0:
274,164,22461,1,2,2:0:0:0:
357,90,22613,1,2,2:0:0:0:
257,176,22765,1,2,2:0:0:0:
368,214,22918,2,0,P|399:206|430:198,1,64,2|0,2:0|2:0,2:0:0:0:
306,302,23222,2,0,P|274:294|243:286,1,64,2|0,2:0|2:0,2:0:0:0:
374,375,23527,6,0,P|419:383|478:314,1,128,2|0,2:0|2:0,2:0:0:0:
475,331,24136,2,0,P|462:284|455:259,1,64,2|0,2:0|2:0,2:0:0:0:
365,198,24440,2,0,P|378:151|385:126,1,64,2|0,2:0|1:0,2:0:0:0:
439,34,24745,5,2,1:2:0:0:
500,108,24898,1,2,2:0:0:0:
426,25,25050,1,2,2:0:0:0:
512,125,25202,1,2,2:0:0:0:
382,136,25354,2,0,P|356:112|309:106,1,64,2|0,2:0|2:0,2:0:0:0:
198,48,25659,6,0,P|211:100|236:196,1,128,2|0,2:0|2:0,2:0:0:0:
229,172,26268,2,0,P|216:224|191:320,1,128,2|2,2:0|2:0,2:0:0:0:
109,364,26725,2,0,P|42:354|14:289,1,128,2|2,2:0|2:0,2:0:0:0:
119,220,27182,6,0,P|109:247|92:295,1,64,2|2,2:0|2:0,2:0:0:0:
26,184,27486,1,2,2:0:0:0:
109,120,27638,1,2,2:0:0:0:
12,34,27791,2,0,P|20:60|31:103,1,64,2|0,2:0|2:0,2:0:0:0:
119,220,28095,2,0,P|150:218|178:202,1,64,2|2,2:0|2:3,2:0:0:0:
301,368,28552,5,8,2:0:0:0:
189,384,28704,2,0,P|177:354|184:323,1,64,8|8,2:3|2:0,2:0:0:0:
193,314,28933,1,4,2:3:0:0:
203,310,29009,1,8,2:3:0:0:
345,227,29161,1,4,2:3:0:0:
232,143,29314,1,10,2:0:0:0:
358,235,29466,1,2,1:2:0:0:
352,80,29618,6,0,P|340:111|314:177,1,71.9999978027344,6|2,1:2|2:0,2:0:0:0:
263,282,29923,2,0,P|249:248|236:214,1,71.9999978027344,10|2,2:0|2:0,2:0:0:0:
150,129,30227,2,0,P|123:151|88:156,1,71.9999978027344,2|0,2:0|2:0,2:0:0:0:
108,26,30532,6,0,P|177:12|239:46,1,143.999995605469,10|0,2:0|2:0,2:0:0:0:
310,125,30989,1,0,2:0:0:0:
415,71,31141,2,0,P|400:29|391:1,1,71.9999978027344,10|0,2:0|2:0,2:0:0:0:
489,148,31445,2,0,P|503:106|513:78,1,71.9999978027344,2|0,2:0|2:0,2:0:0:0:
421,204,31750,2,0,P|392:180|352:182,1,71.9999978027344,10|2,2:0|2:0,2:0:0:0:
224,286,32055,6,0,B|277:270|277:270|302:283|302:283|370:267,1,143.999995605469,2|10,1:2|2:0,2:0:0:0:
485,384,32511,2,0,P|492:320|412:278,1,143.999995605469,2|2,2:0|2:0,2:0:0:0:
318,373,32968,1,10,2:0:0:0:
360,269,33121,1,2,1:2:0:0:
412,354,33273,6,0,P|307:328|260:316,1,143.999995605469,2|8,2:0|2:0,2:0:0:0:
0,345,33882,2,0,P|48:296|118:301,1,143.999995605469,2|8,2:0|2:0,2:0:0:0:
190,363,34339,1,2,1:2:0:0:
291,228,34491,6,0,P|291:159|231:125,1,143.999995605469,2|10,1:2|2:0,2:0:0:0:
179,29,34948,2,0,P|139:41|81:60,1,71.9999978027344,2|0,2:0|2:0,2:0:0:0:
11,135,35253,1,2,2:0:0:0:
38,16,35405,1,10,2:0:0:0:
157,108,35557,6,0,P|142:157|118:251,1,143.999995605469,2|0,1:2|1:0,2:0:0:0:
54,376,36014,2,0,P|11:364|0:295,1,107.999996704102,8|0,2:0|2:0,2:0:0:0:
5,292,36319,2,0,L|82:313,1,71.9999978027344,6|0,2:3|1:0,2:0:0:0:
81,312,36547,1,0,1:0:0:0:
88,315,36623,1,14,2:0:0:0:
298,127,36928,6,0,B|362:75|305:-2|242:36|253:75,1,176.000005371094,6|10,1:2|2:0,2:0:0:0:
124,209,37385,6,0,B|180:178|213:215|205:218|229:252|286:241,1,176.000005371094,2|2,1:2|1:2,2:0:0:0:
512,147,37841,6,0,B|488:88|472:41|472:41|472:79|437:110,1,176.000005371094,14|8,2:0|2:0,2:0:0:0:
285,241,38298,6,0,B|319:196|365:210|365:210|376:265|438:266,1,176.000005371094,4|0,1:0|1:0,2:0:0:0:
225,358,38755,6,0,P|208:244|199:179,1,176.000005371094,8|2,2:0|2:0,2:0:0:0:
259,104,39212,1,10,2:0:0:0:
73,15,39364,6,0,P|30:56|48:103,1,95.9999970703126,6|2,1:2|2:0,2:0:0:0:
99,137,39821,2,0,P|140:127|204:114,1,95.9999970703126,2|2,2:0|2:0,2:0:0:0:
267,51,40278,2,0,P|241:17|221:12,1,47.9999985351563,2|0,2:0|2:0,2:0:0:0:
274,125,40583,5,2,2:0:0:0:
381,60,40735,2,0,P|369:96|346:171,1,95.9999970703126,2|2,2:0|2:0,2:0:0:0:
282,224,41192,2,0,P|247:208|232:201,1,47.9999985351563,2|0,2:0|2:0,2:0:0:0:
167,267,41496,1,2,2:0:0:0:
167,267,41649,1,2,1:2:0:0:
223,337,41801,6,0,P|246:336|267:325,1,47.9999985351563,2|0,1:2|2:0,2:0:0:0:
345,381,42105,2,0,P|356:359|357:336,1,47.9999985351563,2|0,2:0|2:0,2:0:0:0:
447,302,42410,2,0,P|434:281|414:269,1,47.9999985351563,2|0,2:0|2:0,2:0:0:0:
421,172,42715,2,0,P|397:172|376:183,1,47.9999985351563,2|0,2:0|2:0,2:0:0:0:
296,130,43019,6,0,P|284:151|283:174,1,47.9999985351563,2|0,2:0|2:0,2:0:0:0:
199,220,43324,2,0,P|211:240|231:252,1,47.9999985351563,2|0,2:0|2:0,2:0:0:0:
329,260,43628,2,0,P|341:238|342:215,1,47.9999985351563,2|0,2:0|2:0,2:0:0:0:
296,130,43933,2,0,P|272:130|251:141,1,47.9999985351563,2|2,2:0|2:0,2:0:0:0:
198,19,44237,6,0,P|243:31|296:45,1,95.9999970703126,0|2,1:0|2:0,2:0:0:0:
371,82,44694,1,0,2:0:0:0:
443,40,44847,2,0,P|432:10|424:-7,1,47.9999985351563,2|0,2:0|2:0,2:0:0:0:
509,100,45151,6,0,P|500:139|485:210,1,95.9999970703126,2|2,2:0|2:0,2:0:0:0:
419,251,45608,1,0,2:0:0:0:
466,328,45760,2,0,P|492:322|529:313,1,47.9999985351563,2|0,2:0|2:0,2:0:0:0:
414,383,46065,2,0,P|388:377|351:368,1,47.9999985351563,2|0,2:0|2:0,2:0:0:0:
306,303,46369,1,2,2:0:0:0:
306,303,46522,1,0,1:0:0:0:
216,377,46674,6,0,P|195:346|197:320,1,47.9999985351563,2|0,1:2|2:0,2:0:0:0:
101,311,46978,2,0,P|117:277|140:266,1,47.9999985351563,2|0,2:0|2:0,2:0:0:0:
113,175,47283,2,0,P|150:172|171:187,1,47.9999985351563,2|0,2:0|2:0,2:0:0:0:
218,100,47588,2,0,P|239:130|236:156,1,47.9999985351563,2|0,2:0|1:0,2:0:0:0:
331,168,47892,2,0,P|315:201|291:212,1,47.9999985351563,2|0,2:0|2:0,2:0:0:0:
297,298,48197,6,0,P|248:278|200:262,2,95.9999970703126,2|2|2,2:0|2:0|1:2,2:0:0:0:
431,350,49110,1,2,1:2:0:0:
45,370,52613,5,0,1:0:0:0:
36,364,52689,1,0,1:0:0:0:
25,356,52765,2,0,P|35:318|44:279,1,80,12|8,2:0|2:0,2:0:0:0:
201,154,53070,6,0,P|207:182|215:215,1,40,2|0,1:2|1:0,2:0:0:0:
287,258,53222,2,0,P|293:230|301:197,1,40,8|8,2:0|2:0,2:0:0:0:
121,195,53374,1,10,2:3:0:0:
121,195,53451,1,8,2:3:0:0:
121,195,53527,2,0,P|127:223|135:256,1,40,8|8,2:3|2:3,2:0:0:0:
185,348,53679,5,6,2:3:0:0:
229,340,53755,1,4,2:3:0:0:
270,358,53831,1,8,2:3:0:0:
310,380,53907,1,8,2:3:0:0:
355,376,53984,6,0,P|372:319|390:262,1,120,4|0,1:0|2:0,2:0:0:0:
458,233,54288,2,0,P|468:191|444:158,1,80,8|0,2:0|1:2,2:0:0:0:
442,157,54517,1,8,2:0:0:0:
434,152,54593,1,0,1:0:0:0:
315,54,54745,1,0,1:0:0:0:
419,35,54897,6,0,P|392:110|366:186,1,160,8|0,2:0|1:0,2:0:0:0:
274,316,55354,1,0,1:0:0:0:
116,229,55506,2,0,P|150:180|198:173,1,80,8|0,2:0|2:0,2:0:0:0:
330,257,55811,5,4,1:3:0:0:
310,247,55887,1,4,1:3:0:0:
291,240,55963,1,0,1:0:0:0:
272,232,56039,1,0,1:0:0:0:
252,223,56116,1,12,2:0:0:0:
16,46,56420,6,0,P|95:11|163:67,1,160,6|0,1:3|1:0,2:0:0:0:
293,156,56877,6,0,B|226:141|226:141|193:162|193:162|140:153,1,160,10|0,1:2|1:2,2:0:0:0:
136,322,57334,6,0,B|182:288|201:260|201:260|193:289|212:318,1,143.999995605469,10|0,1:2|2:0,2:0:0:0:
296,288,57943,6,0,P|303:266|289:284,2,64,2|2|2,2:0|2:0|2:0,2:0:0:0:
512,351,58857,6,0,P|460:306|393:324,1,143.999995605469,6|0,1:2|2:0,2:0:0:0:
321,380,59161,2,0,P|305:322|295:285,1,95.9999970703126,10|0,2:0|2:0,2:0:0:0:
223,163,59466,1,2,1:2:0:0:
170,261,59618,1,0,1:0:0:0:
294,119,59770,6,0,P|175:152|101:171,1,191.999994140625,2|0,2:0|2:0,2:0:0:0:
0,315,60227,1,0,1:0:0:0:
120,378,60380,2,0,P|105:320|91:269,1,95.9999970703126,10|0,2:0|1:2,2:0:0:0:
28,240,60608,1,8,2:0:0:0:
20,234,60684,2,0,P|34:176|47:126,1,95.9999970703126,2|0,1:2|1:0,2:0:0:0:
204,57,60989,2,0,P|163:13|99:23,1,120,10|0,2:0|2:0,2:0:0:0:
128,96,61293,6,0,P|216:74|340:45,1,191.999994140625,6|8,1:2|2:0,2:0:0:0:
461,17,61750,1,8,2:3:0:0:
473,24,61826,1,4,2:3:0:0:
485,31,61902,2,0,P|504:73|485:115,1,95.9999970703126,2|0,1:2|1:0,2:0:0:0:
292,199,62207,1,0,2:0:0:0:
473,216,62359,1,10,2:0:0:0:
468,206,62435,1,0,2:0:0:0:
463,198,62511,5,0,1:0:0:0:
314,50,62664,1,0,1:0:0:0:
292,199,62816,2,0,P|338:184|383:170,1,95.9999970703126,8|0,2:0|2:0,2:0:0:0:
149,198,63121,1,2,1:2:0:0:
257,299,63273,1,0,1:0:0:0:
134,198,63425,2,0,P|98:240|134:305,1,120,14|0,2:0|2:0,2:0:0:0:
178,359,63730,6,0,B|240:377|269:331|261:331|294:294|354:312,1,191.999994140625,6|8,1:2|2:0,2:0:0:0:
512,384,64187,2,0,P|487:291|463:198,1,191.999994140625,2|0,2:0|1:0,2:0:0:0:
319,152,64643,1,2,2:0:0:0:
466,30,64796,1,8,2:0:0:0:
366,19,64948,6,0,P|378:65|392:111,1,95.9999970703126,0|0,2:0|1:0,2:0:0:0:
347,255,65253,2,0,P|300:261|259:237,1,95.9999970703126,10|0,2:0|2:0,2:0:0:0:
176,117,65557,2,0,P|160:162|144:207,1,95.9999970703126,2|0,1:2|1:0,2:0:0:0:
144,381,65862,2,0,P|116:329|59:315,1,120,14|0,2:0|2:0,2:0:0:0:
6,376,66166,6,0,P|34:255|50:182,1,191.999994140625,6|10,1:2|2:0,2:0:0:0:
0,56,66623,2,0,P|59:6|167:45,1,191.999994140625,6|2,1:2|1:2,2:0:0:0:
356,143,67080,2,0,B|320:101|269:111|269:111|254:162|196:160,1,191.999994140625,14|0,2:0|1:0,2:0:0:0:
125,327,67537,2,0,P|165:313|258:284,1,95.9999970703126,10|0,2:0|2:0,2:0:0:0:
353,233,67841,1,8,2:3:0:0:
346,242,67918,1,8,2:3:0:0:
341,252,67994,2,0,P|348:276|357:308,1,47.9999985351563,2|0,1:2|2:0,2:0:0:0:
449,376,68146,2,0,P|455:352|462:329,1,47.9999985351563,2|0,1:2|2:0,2:0:0:0:
512,208,68298,6,0,P|487:168|441:158,1,96,12|0,2:0|2:0,2:0:0:0:
392,92,68603,2,0,P|321:110|225:133,1,143.999995605469,6|0,1:2|2:0,2:0:0:0:
192,70,68907,2,0,P|152:46|106:53,1,95.9999970703126,10|2,2:0|2:0,2:0:0:0:
0,118,69212,1,2,1:2:0:0:
98,233,69364,1,0,1:0:0:0:
0,352,69517,6,0,B|58:316|100:353|94:354|121:388|179:372,1,191.999994140625,2|0,2:0|2:0,2:0:0:0:
301,288,69973,1,0,1:0:0:0:
163,190,70126,2,0,P|175:236|187:282,1,95.9999970703126,10|2,2:0|2:0,2:0:0:0:
260,359,70354,1,2,2:0:0:0:
271,370,70430,2,0,P|318:373|359:351,1,95.9999970703126,2|0,1:2|1:0,2:0:0:0:
504,358,70735,2,0,P|486:281|470:220,1,120,10|0,2:0|2:0,2:0:0:0:
512,167,71039,6,0,P|477:75|360:81,1,191.999994140625,2|8,1:2|2:0,2:0:0:0:
260,159,71496,1,0,2:0:0:0:
381,227,71649,2,0,P|361:169|342:115,1,95.9999970703126,2|0,1:2|1:0,2:0:0:0:
253,23,71953,1,0,2:0:0:0:
166,162,72105,1,10,2:0:0:0:
34,68,72258,6,0,P|67:35|114:31,1,95.9999970703126,2|0,1:2|1:0,2:0:0:0:
270,112,72562,2,0,P|256:156|239:216,1,95.9999970703126,10|2,2:0|2:0,2:0:0:0:
209,335,72867,1,2,1:2:0:0:
108,237,73019,1,0,1:0:0:0:
209,335,73171,2,0,P|249:297|314:300,1,120,14|0,2:0|2:0,2:0:0:0:
377,366,73476,6,0,P|390:319|402:273,1,95.9999970703126,6|0,1:2|2:0,2:0:0:0:
512,148,73781,2,0,P|470:169|424:159,1,95.9999970703126,10|0,2:0|2:0,2:0:0:0:
317,25,74085,1,2,1:2:0:0:
458,87,74237,1,0,1:0:0:0:
275,207,74390,2,0,P|291:154|304:104,1,95.9999970703126,2|8,2:0|2:0,2:0:0:0:
481,304,74694,6,0,P|390:318|284:337,1,191.999994140625,2|8,2:0|2:0,2:0:0:0:
168,377,75151,1,2,2:0:0:0:
151,376,75227,1,2,2:0:0:0:
141,366,75303,2,0,P|158:317|172:272,1,95.9999970703126,0|0,1:0|1:0,2:0:0:0:
183,131,75608,2,0,P|136:187|44:186,1,143.999995605469,10|0,2:0|2:0,2:0:0:0:
0,164,75912,6,0,P|18:116|41:59,1,95.9999970703126,0|0,1:0|2:0,2:0:0:0:
178,11,76217,2,0,P|195:55|212:100,1,95.9999970703126,8|0,2:0|2:0,2:0:0:0:
278,233,76522,1,0,1:0:0:0:
355,143,76674,1,0,1:0:0:0:
217,292,76826,2,0,P|192:251|201:202,1,95.9999970703126,2|8,2:0|2:0,2:0:0:0:
355,143,77131,6,0,P|399:152|456:166,1,95.9999970703126,2|0,1:2|1:0,2:0:0:0:
512,14,77435,2,0,P|468:23|411:37,1,95.9999970703126,10|2,2:0|2:0,2:0:0:0:
253,105,77740,2,0,P|236:60|248:15,1,95.9999970703126,2|0,1:2|1:0,2:0:0:0:
382,129,78044,1,14,2:0:0:0:
288,218,78197,1,0,1:0:0:0:
280,229,78273,1,0,1:0:0:0:
271,235,78349,6,0,P|237:204|173:202,1,95.9999970703126,14|0,2:0|2:0,2:0:0:0:
27,296,78654,1,10,2:0:0:0:
210,367,78806,1,0,1:0:0:0:
101,198,78958,1,10,2:0:0:0:
0,375,79110,1,0,1:0:0:0:
213,290,79263,2,0,P|200:240|187:193,1,95.9999970703126,10|0,2:0|1:0,2:0:0:0:
6,175,79567,5,8,1:3:0:0:
261,116,79720,1,0,1:0:0:0:
0,16,79872,1,14,2:0:0:0:
434,107,80786,6,0,P|473:95|512:87,1,80,6|0,1:2|2:0,2:0:0:0:
319,32,81090,2,0,P|280:106|325:170,1,160,10|0,2:0|1:0,2:0:0:0:
420,232,81547,2,0,P|458:218|510:202,1,80,2|8,1:2|2:0,2:0:0:0:
375,331,81852,6,0,B|291:341|305:284|222:306,1,160,2|2,1:2|1:2,2:0:0:0:
212,314,82232,1,2,2:0:0:0:
202,324,82308,1,10,2:0:0:0:
79,356,82461,1,0,1:2:0:0:
66,367,82537,1,8,2:0:0:0:
49,370,82613,2,0,P|67:326|84:279,1,80,2|2,1:2|1:2,2:0:0:0:
181,215,82918,2,0,P|160:181|123:168,1,80,10|2,2:0|2:0,2:0:0:0:
0,66,83222,6,0,P|72:52|183:30,1,160,2|10,1:2|2:0,2:0:0:0:
296,15,83679,1,0,1:2:0:0:
301,22,83755,1,8,2:0:0:0:
305,30,83831,2,0,P|294:66|283:108,1,80,2|2,1:2|1:2,2:0:0:0:
227,224,84136,1,8,2:0:0:0:
436,221,84288,6,0,P|374:170|299:206,1,160,2|2,1:2|1:2,2:0:0:0:
244,314,84745,2,0,P|277:305|353:288,1,80,10|0,2:0|1:0,2:0:0:0:
436,358,85050,1,2,1:2:0:0:
436,358,85202,1,2,1:2:0:0:
512,226,85354,2,0,P|502:174|488:111,1,96,14|0,2:0|2:0,2:0:0:0:
501,120,85659,6,0,P|489:63|462:51,1,80,6|0,1:2|2:0,2:0:0:0:
342,25,85963,2,0,B|252:7|280:77|195:69,1,160,10|0,2:0|1:0,2:0:0:0:
44,110,86420,2,0,P|58:69|74:24,1,80,2|8,1:2|2:0,2:0:0:0:
119,190,86725,6,0,B|156:153|196:166|196:166|201:205|262:223,1,160,2|2,1:2|1:2,2:0:0:0:
255,218,87105,1,2,2:0:0:0:
265,214,87182,1,10,2:0:0:0:
399,117,87334,1,2,2:0:0:0:
308,106,87486,2,0,P|321:143|334:181,1,80,2|2,1:2|1:2,2:0:0:0:
436,280,87791,2,0,P|460:242|454:202,1,80,10|2,2:0|2:0,2:0:0:0:
336,360,88095,6,0,P|366:371|395:382,2,64,2|2|2,2:0|2:0|2:0,2:0:0:0:
242,294,88552,2,0,P|211:305|182:316,2,64,2|2|2,2:0|2:0|2:0,2:0:0:0:
336,250,89009,1,2,2:0:0:0:
254,190,89161,1,2,2:0:0:0:
