osu file format v14

[General]
AudioFilename: audio.mp3
AudioLeadIn: 0
PreviewTime: 57334
Countdown: 0
SampleSet: Soft
StackLeniency: 0.7
Mode: 0
LetterboxInBreaks: 0
WidescreenStoryboard: 1

[Editor]
Bookmarks: 10049,19795,29541,39287,49033,58780,78272,80709
DistanceSpacing: 0.9
BeatDivisor: 2
GridSize: 32
TimelineZoom: 1.8

[Metadata]
Title:Tentou (TV Size)
TitleUnicode:天灯 (TV Size)
Artist:sajou no hana
ArtistUnicode:sajou no hana
Creator:- Ex -
Version:Normal
Source:ダンジョンに出会いを求めるのは間違っているだろうかⅣ 新章 迷宮篇
Tags:Aakki finnish bn Pado -_Ex_- Kowari ShayKs Danmachi Is It Wrong to Try to Pick Up Girls in a Dungeon ni Deai wo Motomeru no wa Machigatteiru Darou ka shin fumi meikyuu hen IV New Chapter: The Labyrinth myth familia anime japanese JPop J-Pop Pop op opening watanabe sho kitani tatsuya sana Hestia
BeatmapID:3720988
BeatmapSetID:1813053

[Difficulty]
HPDrainRate:4
CircleSize:3
OverallDifficulty:5
ApproachRate:5
SliderMultiplier:1.2
SliderTickRate:1

[Events]
//Background and Video events
0,0,"bg.jpg",0,0
Video,-500,"video.mp4"
//Break Periods
2,49310,51565
//Storyboard Layer 0 (Background)
//Storyboard Layer 1 (Fail)
//Storyboard Layer 2 (Pass)
//Storyboard Layer 3 (Foreground)
//Storyboard Layer 4 (Overlay)
//Storyboard Sound Samples

[TimingPoints]
380,304.568527918782,4,2,1,50,1,0
380,-100,4,2,1,50,0,0
9136,-100,4,2,2,50,0,0
10126,-100,4,2,1,70,0,0
14694,-100,4,2,2,70,0,0
14999,-100,4,2,1,70,0,0
19567,-100,4,2,2,70,0,0
19872,-100,4,2,2,40,0,0
28400,-100,4,2,3,40,0,0
28476,-100,4,2,1,40,0,0
29314,-100,4,2,3,40,0,0
29618,-100,4,2,1,50,0,0
29923,-100,4,2,1,50,0,0
36623,-100,4,2,2,50,0,0
36928,-100,4,2,1,65,0,0
38298,-100,4,2,2,65,0,0
38374,-100,4,2,1,65,0,0
39364,-100,4,2,1,55,0,0
39669,-100,4,2,4,55,0,0
39821,-100,4,2,1,55,0,0
39973,-100,4,2,4,55,0,0
40126,-100,4,2,1,55,0,0
40278,-100,4,2,4,55,0,0
40735,-100,4,2,1,55,0,0
40887,-100,4,2,4,55,0,0
41039,-100,4,2,1,55,0,0
41192,-100,4,2,4,55,0,0
41649,-100,4,2,1,55,0,0
41801,-100,4,2,4,55,0,0
42029,-100,4,2,4,5,0,0
42105,-100,4,2,4,55,0,0
48197,-100,4,2,1,55,0,0
49110,-100,4,2,1,30,0,0
52765,-100,4,2,1,55,0,0
53070,-100,4,2,1,60,0,0
53374,-100,4,2,1,65,0,0
53831,-100,4,2,2,60,0,0
53984,-100,4,2,2,70,0,0
55811,-100,4,2,1,70,0,0
56877,-100,4,2,3,70,0,0
57334,-100,4,2,2,70,0,0
57638,-100,4,2,2,50,0,0
58857,-100,4,2,1,80,0,0
63425,-100,4,2,2,80,0,0
63730,-100,4,2,1,80,0,0
66166,-100,4,2,2,80,0,0
66623,-100,4,2,1,80,0,0
67080,-100,4,2,2,80,0,0
67841,-100,4,2,1,80,0,0
68298,-100,4,2,2,80,0,0
68603,-100,4,2,1,80,0,0
73171,-100,4,2,2,80,0,0
73476,-100,4,2,1,80,0,0
78044,-100,4,2,2,80,0,0
78349,-100,4,2,1,80,0,0
80786,-100,4,2,1,60,0,0
85354,-100,4,2,2,60,0,0
85659,-100,4,2,1,60,0,0
88095,-100,4,2,1,40,0,0

[Colours]
Combo1 : 240,140,140
Combo2 : 200,180,220
Combo3 : 240,200,155
Combo4 : 150,185,220

[HitObjects]
36,73,380,6,0,P|108:47|167:66,1,120,2|2,2:2|2:2,0:0:0:0:
191,88,836,2,0,P|263:114|322:95,1,120,2|2,2:2|2:2,0:0:0:0:
347,72,1293,1,2,2:2:0:0:
455,72,1598,1,2,2:2:0:0:
455,72,1750,2,0,P|483:146|461:208,1,120,2|2,2:2|2:2,0:0:0:0:
436,222,2207,1,2,2:2:0:0:
328,222,2511,1,2,2:2:0:0:
219,222,2816,6,0,P|205:156|206:135,2,60,2|0|2,2:2|0:0|2:2,0:0:0:0:
256,260,3273,2,0,P|277:321|259:380,1,120,2|2,2:2|2:2,0:0:0:0:
209,373,3730,1,2,2:2:0:0:
101,373,4034,1,0,0:0:0:0:
101,373,4187,2,0,P|80:312|98:253,1,120,2|0,2:2|0:0,0:0:0:0:
126,217,4643,1,2,2:2:0:0:
49,140,4948,1,2,2:2:0:0:
122,60,5253,5,2,1:2:0:0:
122,60,5405,2,0,L|270:60,1,120,0|0,1:1|0:0,0:0:0:0:
280,21,5862,1,8,2:2:0:0:
356,97,6166,1,2,1:2:0:0:
356,97,6319,2,0,L|356:171,1,60,0|2,1:1|2:2,0:0:0:0:
356,210,6623,1,10,2:2:0:0:
279,286,6928,1,2,1:2:0:0:
279,286,7080,2,0,L|280:353,1,60,10|8,2:2|2:2,0:0:0:0:
334,345,7385,1,0,0:0:0:0:
441,345,7689,5,2,1:2:0:0:
441,345,7841,2,0,P|479:288|478:222,1,120,2|2,1:2|2:2,0:0:0:0:
464,186,8298,1,10,2:2:0:0:
387,109,8603,1,14,2:2:0:0:
310,185,8907,2,0,L|237:184,1,60,10|6,2:3|2:3,0:0:0:0:
211,222,9212,1,14,2:2:0:0:
106,222,9517,1,2,2:2:0:0:
106,222,9669,1,2,2:2:0:0:
106,59,10126,6,0,L|35:59,1,60,6|0,1:2|0:0,0:0:0:0:
18,105,10430,2,0,P|0:172|32:240,1,120,10|2,2:2|1:2,0:0:0:0:
34,269,10887,1,2,1:2:0:0:
110,345,11192,2,0,L|247:345,1,120,2|2,1:2|1:2,0:0:0:0:
268,306,11649,1,10,2:2:0:0:
365,352,11953,2,0,L|435:350,1,60,2|2,1:2|1:2,0:0:0:0:
479,350,12258,1,10,2:2:0:0:
479,242,12562,6,0,L|480:157,1,60,2|0,1:2|0:0,0:0:0:0:
479,127,12867,2,0,L|478:0,1,120,10|2,2:2|1:2,0:0:0:0:
423,7,13324,1,2,1:2:0:0:
346,83,13628,2,0,P|286:105|211:81,1,120,2|2,1:2|1:2,0:0:0:0:
194,56,14085,1,10,2:2:0:0:
85,56,14390,2,0,L|84:132,1,60,2|2,1:2|1:2,0:0:0:0:
46,154,14694,1,14,2:2:0:0:
122,230,14999,6,0,L|197:230,1,60,6|0,1:2|0:0,0:0:0:0:
235,230,15303,2,0,L|385:229,1,120,10|2,2:2|1:2,0:0:0:0:
393,190,15760,1,2,1:2:0:0:
485,246,16065,2,0,P|501:306|489:362,1,120,2|2,1:2|1:2,0:0:0:0:
434,361,16522,1,10,2:2:0:0:
326,361,16826,2,0,L|244:363,1,60,2|2,1:2|1:2,0:0:0:0:
211,362,17131,1,10,2:2:0:0:
103,362,17435,6,0,P|84:286|98:230,1,120,2|10,1:2|2:2,0:0:0:0:
129,207,17892,2,0,L|266:207,1,120,0|0,1:2|1:1,0:0:0:0:
303,207,18349,1,10,2:2:0:0:
303,207,18501,1,2,1:2:0:0:
415,207,18806,1,2,1:2:0:0:
415,207,18958,2,0,L|416:138,1,60,10|0,2:2|1:2,0:0:0:0:
415,92,19263,1,2,1:2:0:0:
338,15,19567,2,0,L|264:16,1,60,14|2,2:2|2:2,0:0:0:0:
223,15,19872,6,0,L|223:160,2,120,6|2|2,1:2|2:2|2:2,0:0:0:0:
114,15,20786,2,0,L|114:160,1,120,2|0,2:2|0:0,0:0:0:0:
114,243,21395,1,2,2:2:0:0:
114,243,21547,2,0,P|178:264|250:241,1,120,2|2,0:0|2:2,0:0:0:0:
269,218,22004,1,2,2:2:0:0:
345,141,22308,2,0,L|331:65,2,60,2|2|2,2:2|2:2|2:2,0:0:0:0:
384,178,22765,1,2,2:2:0:0:
384,178,22918,1,2,2:2:0:0:
460,254,23222,1,2,2:2:0:0:
460,362,23527,6,0,L|327:362,1,120,2|0,2:2|0:0,0:0:0:0:
263,285,24136,1,2,2:2:0:0:
155,285,24440,1,2,2:2:0:0:
46,285,24745,2,0,L|46:355,2,60,2|2|2,1:2|2:2|2:2,0:0:0:0:
11,250,25202,1,2,2:2:0:0:
11,250,25354,1,2,2:2:0:0:
87,173,25659,2,0,L|86:35,1,120,2|0,2:2|0:0,0:0:0:0:
194,53,26268,5,2,2:2:0:0:
305,53,26572,1,2,2:2:0:0:
305,53,26725,2,0,L|440:53,1,120,2|2,2:2|2:2,0:0:0:0:
479,53,27182,1,2,2:2:0:0:
498,162,27486,1,2,2:2:0:0:
421,238,27791,1,2,2:2:0:0:
348,165,28095,5,2,2:2:0:0:
348,165,28248,2,0,L|218:165,1,120,2|8,2:3|2:2,0:0:0:0:
189,126,28704,1,8,2:3:0:0:
80,126,29009,2,0,L|80:195,1,60,8|4,2:3|2:3,0:0:0:0:
41,224,29314,1,10,2:2:0:0:
41,331,29618,6,0,P|100:347|171:326,1,120,6|10,1:2|2:2,0:0:0:0:
194,295,30075,1,2,2:2:0:0:
194,295,30227,2,0,L|284:295,1,60,2|0,2:2|0:0,0:0:0:0:
292,333,30532,2,0,L|427:334,1,120,10|0,2:2|0:0,0:0:0:0:
488,257,31141,1,10,2:2:0:0:
432,164,31445,1,2,2:2:0:0:
508,87,31750,2,0,L|509:20,1,60,10|2,2:2|0:0,0:0:0:0:
454,27,32055,6,0,L|332:27,1,120,2|10,1:2|2:2,0:0:0:0:
280,27,32511,1,2,2:2:0:0:
196,91,32816,1,2,2:2:0:0:
196,91,32968,2,0,L|196:161,1,60,10|2,2:2|1:2,0:0:0:0:
201,204,33273,2,0,P|261:216|343:192,1,120,2|8,2:2|2:2,0:0:0:0:
416,172,33882,2,0,L|417:295,1,120,2|8,2:2|2:2,0:0:0:0:
416,346,34339,5,2,1:2:0:0:
416,346,34491,1,2,1:2:0:0:
311,346,34796,1,10,2:2:0:0:
311,346,34948,2,0,L|167:345,1,120,2|2,2:2|2:2,0:0:0:0:
140,345,35405,1,10,2:2:0:0:
140,345,35557,1,2,1:2:0:0:
31,345,35862,2,0,L|31:266,1,60,0|8,1:1|2:2,0:0:0:0:
31,176,36319,2,0,L|31:104,1,60,6|0,2:3|1:1,0:0:0:0:
31,62,36623,1,14,2:2:0:0:
139,62,36928,6,0,L|279:62,1,120,6|10,1:2|2:2,0:0:0:0:
313,62,37385,2,0,P|336:119|319:190,1,120,2|2,1:2|1:2,0:0:0:0:
288,213,37841,1,14,2:2:0:0:
184,213,38146,1,8,2:2:0:0:
184,213,38298,2,0,P|161:270|178:341,1,120,4|0,1:1|1:1,0:0:0:0:
208,364,38755,1,8,2:2:0:0:
316,364,39060,2,0,L|396:365,1,60,2|10,2:2|2:2,0:0:0:0:
429,364,39364,5,6,1:2:0:0:
504,288,39669,1,2,2:2:0:0:
504,288,39821,2,0,P|519:222|501:162,1,120,2|2,2:2|2:2,0:0:0:0:
468,134,40278,1,2,2:2:0:0:
395,61,40583,1,2,2:2:0:0:
395,61,40735,2,0,L|264:59,1,120,2|2,2:2|2:2,0:0:0:0:
220,59,41192,1,2,2:2:0:0:
220,166,41496,2,0,L|220:240,1,60,2|2,2:2|1:2,0:0:0:0:
220,280,41801,5,2,1:2:0:0:
327,280,42105,2,0,L|456:281,2,120,2|2|2,2:2|2:2|2:2,0:0:0:0:
220,280,43019,2,0,L|78:281,1,120,2|2,2:2|2:2,0:0:0:0:
23,204,43628,1,2,2:2:0:0:
23,95,43933,2,0,L|23:20,1,60,2|2,2:2|2:2,0:0:0:0:
76,35,44237,5,0,1:1:0:0:
184,35,44542,1,2,2:2:0:0:
292,35,44847,1,2,2:2:0:0:
399,35,45151,2,0,P|419:92|401:159,1,120,2|2,2:2|2:2,0:0:0:0:
353,243,45760,1,2,2:2:0:0:
273,169,46065,2,0,L|203:168,1,60,2|0,2:2|0:0,0:0:0:0:
159,168,46369,1,2,2:2:0:0:
50,168,46674,6,0,P|36:230|60:292,1,120,2|2,1:2|2:2,0:0:0:0:
53,336,47131,2,0,L|183:336,1,120
227,336,47588,2,0,L|300:338,1,60,2|0,2:2|1:1,0:0:0:0:
340,337,47892,1,2,2:2:0:0:
448,337,48197,2,0,L|448:267,1,60,2|0,2:2|1:1,0:0:0:0:
448,223,48501,1,2,2:2:0:0:
371,146,48806,1,2,1:2:0:0:
447,69,49110,5,2,1:2:0:0:
32,51,52765,6,0,L|178:51,1,120,12|2,2:2|1:2,0:0:0:0:
206,51,53222,2,0,P|231:117|216:182,1,120,8|8,2:2|2:3,0:0:0:0:
185,202,53679,1,6,2:3:0:0:
76,202,53984,2,0,P|59:268|78:328,1,120,4|8,1:1|2:2,0:0:0:0:
109,354,54440,2,0,L|250:353,1,120,0|0,1:2|1:1,0:0:0:0:
283,353,54897,1,8,2:2:0:0:
359,276,55202,6,0,L|433:278,2,60,0|0|8,1:1|1:1|2:2,0:0:0:0:
320,237,55659,2,0,L|196:238,1,120,0|0,0:0|1:1,0:0:0:0:
145,237,56116,1,12,2:2:0:0:
37,237,56420,2,0,P|15:170|29:112,1,120,6|0,1:3|1:1,0:0:0:0:
62,84,56877,2,0,L|194:86,1,120,10|0,1:2|1:2,0:0:0:0:
220,47,57334,1,10,1:2:0:0:
220,47,58857,6,0,L|311:49,1,60,6|0,1:2|0:0,0:0:0:0:
333,48,59161,1,10,2:2:0:0:
441,48,59466,2,0,L|442:132,1,60,2|0,1:2|1:1,0:0:0:0:
441,161,59770,2,0,L|441:300,1,120,2|0,2:2|0:0,0:0:0:0:
364,357,60380,2,0,L|287:358,1,60,10|0,2:2|1:2,0:0:0:0:
250,357,60684,2,0,P|221:298|229:229,1,120,2|10,1:2|2:2,0:0:0:0:
262,207,61141,5,0,0:0:0:0:
262,207,61293,1,6,1:2:0:0:
338,130,61598,2,0,P|344:90|335:55,1,60,8|8,2:2|0:3,0:0:0:0:
302,32,61902,2,0,L|173:32,1,120,2|0,1:2|0:0,0:0:0:0:
73,32,62511,2,0,P|64:98|71:119,1,60,0|0,1:1|1:1,0:0:0:0:
24,128,62816,2,0,P|64:181|84:190,1,60,8|0,2:2|0:0,0:0:0:0:
112,175,63121,1,2,1:2:0:0:
219,175,63425,2,0,L|219:247,1,60,14|0,2:2|0:0,0:0:0:0:
219,289,63730,6,0,L|347:288,1,120,6|8,1:2|2:2,0:0:0:0:
348,341,64187,2,0,L|476:340,1,120,2|0,2:2|1:1,0:0:0:0:
506,301,64643,2,0,P|520:221|494:162,1,120,2|0,2:2|0:0,0:0:0:0:
432,108,65253,2,0,L|352:109,1,60,10|0,2:2|0:0,0:0:0:0:
331,73,65557,2,0,L|251:74,1,60,2|0,1:2|1:1,0:0:0:0:
232,112,65862,1,14,2:2:0:0:
230,219,66166,6,0,L|229:359,1,120,6|10,1:2|2:2,0:0:0:0:
176,338,66623,2,0,L|50:339,1,120,6|2,1:2|1:2,0:0:0:0:
17,300,67080,1,14,2:2:0:0:
17,195,67385,1,0,1:1:0:0:
17,195,67537,1,10,2:2:0:0:
17,87,67841,1,8,2:3:0:0:
17,87,67994,2,0,L|91:88,1,60,2|2,1:2|1:2,0:0:0:0:
115,49,68298,1,12,2:2:0:0:
223,49,68603,6,0,L|223:123,1,60,6|0,1:2|0:0,0:0:0:0:
223,162,68907,1,10,2:2:0:0:
146,238,69212,2,0,L|78:238,1,60,2|0,1:2|1:1,0:0:0:0:
31,238,69517,2,0,P|18:301|42:367,1,120,2|0,2:2|0:0,0:0:0:0:
141,353,70126,2,0,L|231:353,1,60,10|2,2:2|0:0,0:0:0:0:
239,314,70430,2,0,L|376:315,1,120,2|10,1:2|2:2,0:0:0:0:
467,314,71039,6,0,L|468:175,1,120,2|8,1:2|2:2,0:0:0:0:
467,85,71649,2,0,P|409:68|339:84,1,120,2|0,1:2|0:0,0:0:0:0:
313,116,72105,1,10,2:2:0:0:
313,116,72258,2,0,P|255:133|185:117,1,120,2|10,1:2|2:2,0:0:0:0:
120,46,72867,2,0,L|54:45,1,60,2|0,1:2|1:1,0:0:0:0:
21,83,73171,1,14,2:2:0:0:
21,191,73476,6,0,L|20:328,2,120,6|10|2,1:2|2:2|1:2,0:0:0:0:
129,191,74390,2,0,L|218:190,1,60,2|8,2:2|2:2,0:0:0:0:
227,152,74694,2,0,L|356:153,1,120,2|8,2:2|2:2,0:0:0:0:
401,152,75151,2,0,P|428:218|412:284,1,120,2|0,2:2|1:1,0:0:0:0:
402,315,75608,1,10,2:2:0:0:
303,358,75912,2,0,L|231:358,1,60,0|0,1:1|0:0,0:0:0:0:
204,319,76217,2,0,L|78:319,1,120,8|0,2:2|1:1,0:0:0:0:
7,242,76826,2,0,L|7:168,1,60,2|8,2:2|2:2,0:0:0:0:
7,127,77131,5,2,1:2:0:0:
114,127,77435,1,10,2:2:0:0:
222,127,77740,1,2,1:2:0:0:
329,127,78044,2,0,L|331:203,1,60,14|0,2:2|1:1,0:0:0:0:
330,241,78349,1,14,2:2:0:0:
438,241,78654,2,0,L|439:373,1,120,10|10,2:2|2:2,0:0:0:0:
330,360,79263,1,10,2:2:0:0:
222,360,79567,2,0,L|222:291,1,60,8|0,1:3|1:1,0:0:0:0:
222,245,79872,1,14,2:2:0:0:
451,15,80786,6,0,L|452:93,1,60,6|0,1:2|0:0,0:0:0:0:
455,128,81090,2,0,P|393:142|329:126,1,120,10|0,2:2|1:1,0:0:0:0:
300,92,81547,1,2,1:2:0:0:
223,15,81852,2,0,L|90:15,1,120,2|2,1:2|1:2,0:0:0:0:
49,15,82308,1,10,2:2:0:0:
49,123,82613,2,0,L|50:208,1,60,2|2,1:2|1:2,0:0:0:0:
49,237,82918,1,10,2:2:0:0:
49,344,83222,6,0,L|126:345,1,60,2|0,1:2|0:0,0:0:0:0:
163,344,83527,2,0,P|195:284|192:217,1,120,10|2,2:2|1:2,0:0:0:0:
171,184,83984,1,2,1:2:0:0:
171,76,84288,2,0,L|326:75,1,120,2|2,1:2|1:2,0:0:0:0:
329,36,84745,1,10,2:2:0:0:
437,36,85050,2,0,L|438:113,1,60,2|2,1:2|1:2,0:0:0:0:
475,134,85354,1,14,2:2:0:0:
475,242,85659,6,0,L|402:242,1,60,6|0,1:2|0:0,0:0:0:0:
376,203,85963,2,0,L|244:204,1,120,10|0,2:2|1:1,0:0:0:0:
217,165,86420,1,2,1:2:0:0:
108,165,86725,2,0,L|105:296,1,120,2|2,1:2|1:2,0:0:0:0:
66,323,87182,1,10,2:2:0:0:
163,368,87486,2,0,L|231:367,1,60,2|2,1:2|1:2,0:0:0:0:
277,367,87791,1,10,2:2:0:0:
384,367,88095,6,0,L|452:366,2,60,2|2|2,2:2|2:2|2:2,0:0:0:0:
359,318,88552,2,0,P|333:256|348:187,1,120,2|2,2:2|2:2,0:0:0:0:
377,166,89009,1,2,2:2:0:0:
377,166,89161,1,2,2:2:0:0:
