osu file format v14

[General]
AudioFilename: audio.mp3
AudioLeadIn: 0
PreviewTime: 57334
Countdown: 0
SampleSet: Soft
StackLeniency: 0.7
Mode: 0
LetterboxInBreaks: 0
WidescreenStoryboard: 1

[Editor]
Bookmarks: 10049,19795,29541,39287,49033,52688,58780,78272,80709
DistanceSpacing: 1.4
BeatDivisor: 8
GridSize: 32
TimelineZoom: 1.8

[Metadata]
Title:Tentou (TV Size)
TitleUnicode:天灯 (TV Size)
Artist:sajou no hana
ArtistUnicode:sajou no hana
Creator:- Ex -
Version:Kowari's Adventure
Source:ダンジョンに出会いを求めるのは間違っているだろうかⅣ 新章 迷宮篇
Tags:Aakki finnish bn Pado -_Ex_- Kowari ShayKs Danmachi Is It Wrong to Try to Pick Up Girls in a Dungeon ni Deai wo Motomeru no wa Machigatteiru Darou ka shin fumi meikyuu hen IV New Chapter: The Labyrinth myth familia anime japanese JPop J-Pop Pop op opening watanabe sho kitani tatsuya sana Hestia
BeatmapID:3721856
BeatmapSetID:1813053

[Difficulty]
HPDrainRate:6
CircleSize:4.2
OverallDifficulty:8.4
ApproachRate:9.3
SliderMultiplier:1.7
SliderTickRate:1

[Events]
//Background and Video events
0,0,"bg.jpg",0,0
Video,-500,"video.mp4"
//Break Periods
2,49310,52059
//Storyboard Layer 0 (Background)
//Storyboard Layer 1 (Fail)
//Storyboard Layer 2 (Pass)
//Storyboard Layer 3 (Foreground)
//Storyboard Layer 4 (Overlay)
//Storyboard Sound Samples

[TimingPoints]
380,304.568527918782,4,2,1,50,1,0
380,-133.333333333333,4,2,1,50,0,0
5862,-100,4,2,1,50,0,0
8907,-76.9230769230769,4,2,1,50,0,0
9060,-62.5,4,2,1,50,0,0
9136,-62.5,4,2,2,50,0,0
9517,-100,4,2,2,50,0,0
10126,-100,4,2,1,70,0,0
14694,-76.9230769230769,4,2,2,70,0,0
14999,-100,4,2,1,70,0,0
19567,-100,4,2,2,70,0,0
19872,-125,4,2,2,40,0,0
23222,-100,4,2,2,40,0,0
23679,-125,4,2,2,40,0,0
28400,-125,4,2,3,40,0,0
28476,-125,4,2,1,40,0,0
29314,-125,4,2,3,40,0,0
29618,-111.111111111111,4,2,1,50,0,0
29923,-111.111111111111,4,2,1,50,0,0
36623,-111.111111111111,4,2,2,50,0,0
36928,-90.9090909090908,4,2,1,65,0,0
38298,-71.4285714285714,4,2,2,65,0,0
38374,-71.4285714285714,4,2,1,65,0,0
38907,-99.9999999999999,4,2,1,65,0,0
39364,-125,4,2,1,55,0,0
39669,-125,4,2,4,55,0,0
39821,-125,4,2,1,55,0,0
39973,-125,4,2,4,55,0,0
40126,-125,4,2,1,55,0,0
40278,-125,4,2,4,55,0,0
40735,-125,4,2,1,55,0,0
40887,-125,4,2,4,55,0,0
41039,-125,4,2,1,55,0,0
41192,-100,4,2,4,55,0,0
41649,-100,4,2,1,55,0,0
41801,-125,4,2,4,55,0,0
43628,-100,4,2,4,55,0,0
44237,-125,4,2,4,55,0,0
46369,-83.3333333333333,4,2,4,55,0,0
46674,-125,4,2,4,55,0,0
48197,-125,4,2,1,55,0,0
48349,-166.666666666667,4,2,1,55,0,0
48806,-200,4,2,1,55,0,0
49110,-200,4,2,1,30,0,0
52613,-100,4,2,1,30,0,0
52765,-83.3333333333333,4,2,1,55,0,0
53070,-83.3333333333333,4,2,1,60,0,0
53222,-71.4285714285714,4,2,1,50,0,0
53374,-71.4285714285714,4,2,1,65,0,0
53831,-71.4285714285714,4,2,2,60,0,0
53984,-100,4,2,2,70,0,0
55811,-100,4,2,1,70,0,0
55963,-76.9230769230769,4,2,1,70,0,0
56420,-100,4,2,1,70,0,0
56877,-100,4,2,3,70,0,0
57334,-100,4,2,2,70,0,0
57410,-100,4,2,2,5,0,0
57638,-100,4,2,2,50,0,0
58857,-83.3333333333333,4,2,1,80,0,0
60836,-71.4285714285714,4,2,1,80,0,0
61293,-83.3333333333333,4,2,1,80,0,0
63425,-83.3333333333333,4,2,2,80,0,0
63730,-83.3333333333333,4,2,1,80,0,0
66166,-83.3333333333333,4,2,2,80,0,0
66623,-83.3333333333333,4,2,1,80,0,0
67080,-83.3333333333333,4,2,2,80,0,0
67841,-83.3333333333333,4,2,1,80,0,0
68298,-83.3333333333333,4,2,2,80,0,0
68603,-83.3333333333333,4,2,1,80,0,0
73171,-71.4285714285714,4,2,2,80,0,0
73476,-71.4285714285714,4,2,1,80,0,0
73628,-83.3333333333333,4,2,1,80,0,0
78044,-83.3333333333333,4,2,2,80,0,0
78121,-58.8235294117647,4,2,2,80,0,0
78349,-83.3333333333333,4,2,1,80,0,0
80786,-83.3333333333333,4,2,1,60,0,0
85354,-83.3333333333333,4,2,2,60,0,0
85659,-83.3333333333333,4,2,1,60,0,0
88095,-100,4,2,1,40,0,0

[Colours]
Combo1 : 240,140,140
Combo2 : 200,180,220
Combo3 : 240,200,155
Combo4 : 150,185,220

[HitObjects]
6,338,380,6,0,L|156:324,1,127.500004863739,2|2,2:2|2:2,0:0:0:0:
204,281,836,2,0,L|332:312,1,127.500004863739,2|2,2:2|2:2,0:0:0:0:
442,371,1293,6,0,P|504:355|469:308,1,127.500004863739,2|2,2:2|2:2,0:0:0:0:
327,311,1750,2,0,P|278:314|261:249,1,127.500004863739,2|2,2:2|2:2,0:0:0:0:
302,187,2207,1,2,2:2:0:0:
381,160,2359,1,0,0:0:0:0:
476,195,2511,1,2,2:2:0:0:
504,263,2664,2,0,P|481:244|468:221,1,31.8750012159348,2|0,0:3|0:0,0:0:0:0:
431,103,2816,6,0,B|407:7|407:7|445:32,1,127.500004863739,2|2,2:2|2:2,0:0:0:0:
512,48,3273,1,2,2:2:0:0:
339,78,3425,2,0,P|315:70|293:57,2,31.8750012159348,2|0|2,2:2|0:0|3:2,0:0:0:0:
407,108,3654,5,0,3:0:0:0:
400,105,3730,2,0,B|331:95|341:118|261:97,1,127.500004863739,2|0,2:2|0:0,0:0:0:0:
142,48,4187,2,0,B|76:48|76:48|140:92,1,127.500004863739,2|0,2:2|0:0,0:0:0:0:
174,162,4643,5,2,2:2:0:0:
222,246,4796,1,2,2:2:0:0:
103,216,4948,5,2,2:2:0:0:
33,341,5100,1,8,2:2:0:0:
30,344,5176,1,8,2:2:0:0:
28,348,5253,1,2,1:2:0:0:
128,314,5405,6,0,P|187:300|254:305,1,127.500004863739,0|2,1:1|2:2,0:0:0:0:
177,212,5862,2,0,P|166:273|272:287,1,170,8|2,2:2|1:2,0:0:0:0:
329,378,6319,6,0,P|335:336|356:284,1,85,0|2,1:1|2:2,0:0:0:0:
512,233,6623,2,0,P|467:214|407:204,1,85,10|0,2:2|0:0,0:0:0:0:
314,147,6928,1,2,1:2:0:0:
289,152,7004,1,0,1:2:0:0:
255,160,7080,1,10,2:2:0:0:
422,109,7232,2,0,B|393:63|394:11|394:11|389:8|389:8|371:43|343:65,1,170,8|0,2:2|0:0,0:0:0:0:
480,37,7689,5,2,1:2:0:0:
301,127,7841,2,0,P|256:119|213:86,1,85,2|0,1:2|0:0,0:0:0:0:
289,0,8146,2,0,P|305:14|315:44,1,42.5,2|0,2:2|3:0,0:0:0:0:
356,202,8298,2,0,B|339:311|339:311|391:291,1,127.5,10|0,2:2|0:0,0:0:0:0:
461,285,8603,6,0,P|439:271|404:261,1,42.5,14|0,2:2|0:0,0:0:0:0:
290,181,8755,5,0,1:1:0:0:
290,181,8831,1,0,1:0:0:0:
290,181,8907,2,0,P|263:187|231:211,1,55.2499974708558,10|8,2:3|2:3,0:0:0:0:
187,217,9060,6,0,P|187:251|197:284,1,68,6|8,2:3|2:3,0:0:0:0:
313,306,9212,5,14,2:2:0:0:
156,381,9517,2,0,P|177:377|197:369,1,42.5,2|0,2:2|0:0,0:0:0:0:
313,306,9669,6,0,P|217:303|249:387,1,212.5,2|0,2:2|0:0,0:0:0:0:
167,309,10126,6,0,B|96:298|96:298|109:316,1,85,6|0,1:2|0:0,0:0:0:0:
344,357,10430,2,0,B|432:354|432:354|323:313,1,170,10|2,2:2|1:2,0:0:0:0:
222,243,10887,2,0,P|239:278|243:319,1,42.5,2|0,1:2|0:0,0:0:0:0:
235,374,11039,1,8,2:2:0:0:
146,189,11192,6,0,P|203:207|227:149,1,127.5,2|0,1:2|0:0,0:0:0:0:
270,176,11496,2,0,P|299:181|336:179,1,42.5,2|2,1:2|2:2,0:0:0:0:
162,91,11649,2,0,P|118:74|79:43,1,85,10|0,2:2|1:2,0:0:0:0:
66,24,11877,1,8,2:2:0:0:
59,7,11953,1,2,1:2:0:0:
167,16,12105,1,2,1:2:0:0:
236,64,12258,5,10,2:2:0:0:
247,187,12410,1,2,2:2:0:0:
343,322,12562,6,0,B|398:348|465:315|431:260|395:316,1,127.5,2|0,1:2|0:0,0:0:0:0:
315,351,12867,6,0,P|287:360|246:372,1,42.5,10|0,2:2|0:0,0:0:0:0:
186,334,13019,1,0,1:2:0:0:
141,326,13095,1,8,2:2:0:0:
117,319,13171,1,2,1:2:0:0:
315,351,13324,2,0,P|327:306|288:272,1,85,2|8,1:2|2:2,0:0:0:0:
78,183,13628,6,0,P|126:198|163:134,1,127.5,2|0,1:2|0:0,0:0:0:0:
137,60,13933,2,0,L|129:112,1,42.5,2|0,1:2|0:0,0:0:0:0:
47,263,14085,2,0,P|110:244|174:236,1,127.5,10|8,2:2|2:2,0:0:0:0:
246,303,14390,6,0,P|216:300|186:293,1,42.5,2|0,1:2|0:0,0:0:0:0:
94,203,14542,2,0,P|66:191|35:172,1,42.5,2|0,1:2|0:0,0:0:0:0:
240,66,14694,2,0,B|215:177|215:177|182:122,1,165.749992412568,14|0,2:2|0:0,0:0:0:0:
188,132,14999,6,0,P|247:124|284:107,1,85,6|0,1:2|0:0,0:0:0:0:
470,73,15303,2,0,P|402:84|363:18,1,127.5,10|2,2:2|0:0,0:0:0:0:
354,17,15608,1,2,1:2:0:0:
450,205,15760,2,0,P|458:233|465:267,2,42.5,2|0|8,1:2|0:0|2:2,0:0:0:0:
354,116,16065,5,2,1:2:0:0:
346,150,16141,2,0,B|339:184|339:184|351:232|326:296,1,127.5,0|2,0:1|1:2,0:0:0:0:
239,363,16522,1,10,2:2:0:0:
478,303,16674,5,0,1:2:0:0:
474,282,16750,1,8,2:2:0:0:
461,250,16826,1,2,1:2:0:0:
377,162,16978,1,2,1:2:0:0:
275,146,17131,5,10,2:2:0:0:
141,230,17283,1,2,2:2:0:0:
68,179,17435,6,0,P|32:169|-7:120,1,85,2|0,1:2|0:0,0:0:0:0:
154,125,17740,1,10,2:2:0:0:
120,299,17892,2,0,P|107:278|101:250,1,42.5,0|8,1:2|2:2,0:0:0:0:
17,265,18044,2,0,P|46:216|149:260,1,170,0|10,1:1|2:2,0:0:0:0:
309,193,18501,6,0,L|485:174,1,170,2|2,1:2|1:2,0:0:0:0:
478,174,18882,1,0,1:0:0:0:
478,174,18958,1,10,2:2:0:0:
395,252,19110,1,0,1:2:0:0:
289,168,19263,1,2,1:2:0:0:
207,204,19415,1,2,1:2:0:0:
131,155,19567,2,0,L|88:147,1,42.5,14|8,2:2|0:0,0:0:0:0:
86,181,19720,2,0,L|44:188,1,42.5,2|4,2:2|0:3,0:0:0:0:
0,169,19872,6,0,B|58:152|79:182|144:161,1,136,6|2,1:2|2:2,0:0:0:0:
200,123,20329,1,0,0:0:0:0:
103,241,20481,2,0,P|75:197|143:168,1,136,2|2,2:2|2:2,0:0:0:0:
230,234,20938,6,0,L|374:267,1,136,2|0,2:3|0:0,0:0:0:0:
186,306,21395,2,0,L|30:337,1,136,2|0,2:2|0:0,0:0:0:0:
271,340,21852,2,0,P|302:370|326:407,1,68,2|2,2:2|2:2,0:0:0:0:
415,343,22156,5,2,2:2:0:0:
421,341,22232,1,2,0:0:0:0:
427,338,22308,1,2,2:2:0:0:
505,302,22461,1,2,2:2:0:0:
392,257,22613,5,2,2:2:0:0:
277,207,22765,1,2,2:2:0:0:
454,166,22918,6,0,P|479:142|444:89,1,102,2|0,2:2|0:0,0:0:0:0:
512,33,23222,2,0,P|441:71|351:63,1,170,2|2,2:2|2:2,0:0:0:0:
236,88,23679,2,0,B|127:69|127:69|150:98,1,136,2|2,2:3|0:0,0:0:0:0:
22,184,24136,2,0,P|47:151|78:128,1,68,2|0,2:2|0:0,0:0:0:0:
1,0,24440,2,0,P|12:50|31:88,1,68,2|0,2:2|1:1,0:0:0:0:
145,167,24745,5,2,1:2:0:0:
236,202,24897,1,2,2:2:0:0:
105,247,25050,5,2,2:2:0:0:
7,295,25202,1,2,2:2:0:0:
187,364,25354,6,0,P|144:341|106:351,1,68,2|0,2:2|0:0,0:0:0:0:
239,265,25659,1,2,2:2:0:0:
126,342,25811,6,0,P|193:348|237:296,1,136,2|0,2:3|0:0,0:0:0:0:
316,350,26268,2,0,L|389:364,1,68,2|0,2:2|0:0,0:0:0:0:
329,261,26572,1,2,2:2:0:0:
324,249,26725,2,0,L|305:181,1,68,2|0,2:2|0:0,0:0:0:0:
440,188,27029,1,2,2:2:0:0:
402,80,27182,6,0,B|392:179|392:179|447:150,1,136,2|2,2:2|2:2,0:0:0:0:
506,117,27638,1,2,2:2:0:0:
306,76,27791,2,0,B|259:66|233:39|233:39|249:99,1,136,2|2,2:2|2:2,0:0:0:0:
467,15,28248,6,0,P|483:10|497:0,2,34,2|0|4,2:3|0:0|0:0,0:0:0:0:
371,24,28552,5,8,2:2:0:0:
275,112,28704,1,8,2:3:0:0:
239,191,28857,5,8,0:0:0:0:
238,197,28933,1,4,2:3:0:0:
237,203,29009,1,8,2:3:0:0:
173,283,29161,1,4,2:3:0:0:
90,305,29314,5,10,2:2:0:0:
36,330,29466,1,2,1:2:0:0:
216,342,29618,6,0,B|267:352|321:348|321:348|279:392,1,152.999995330811,6|10,1:2|2:2,0:0:0:0:
402,308,30075,1,2,2:2:0:0:
288,382,30227,6,0,P|256:333|321:273,1,152.999995330811,2|10,2:2|2:2,0:0:0:0:
268,173,30684,2,0,B|391:195|391:195|378:155,1,152.999995330811
512,280,31141,2,0,P|470:259|429:259,1,76.4999976654053,10|0,2:2|0:0,0:0:0:0:
355,70,31445,2,0,P|322:95|313:170,1,114.749996498108,2|0,2:2|0:0,0:0:0:0:
310,164,31750,2,0,L|393:148,1,76.4999976654053,10|2,2:2|0:0,0:0:0:0:
174,130,32055,6,0,B|80:113|121:136|6:110,1,152.999995330811,2|10,1:2|2:2,0:0:0:0:
174,247,32511,2,0,B|268:228|268:228|251:254,1,114.749996498108,2|0,2:2|0:0,0:0:0:0:
238,283,32816,2,0,L|231:326,2,38.2499988327027,2|0|10,2:2|0:0|2:2,0:0:0:0:
99,246,33121,1,2,1:2:0:0:
180,384,33273,6,0,P|206:349|121:328,1,152.999995330811,2|8,2:2|2:2,0:0:0:0:
55,370,33730,1,0,0:0:0:0:
132,311,33882,2,0,P|150:274|156:227,1,76.4999976654053,2|0,2:2|0:0,0:0:0:0:
221,93,34187,2,0,P|206:39|174:6,1,76.4999976654053,8|2,2:2|1:2,0:0:0:0:
11,123,34491,6,0,B|54:147|120:114|120:114|108:138|102:161,1,152.999995330811,2|10,1:2|2:2,0:0:0:0:
294,107,34948,2,0,P|235:95|233:37,1,114.749996498108,2|0,2:2|0:0,0:0:0:0:
303,7,35253,2,0,L|400:-2,1,76.4999976654053,2|10,2:2|2:2,0:0:0:0:
198,188,35557,6,0,B|179:277|179:277|233:242,1,152.999995330811,2|0,1:2|1:1,0:0:0:0:
362,181,36014,6,0,P|403:169|456:230,1,114.749996498108,8|0,2:2|0:0,0:0:0:0:
512,167,36319,2,0,P|479:182|454:199,1,38.2499988327027,6|0,2:3|0:0,0:0:0:0:
365,283,36471,5,0,1:1:0:0:
353,325,36547,1,0,1:1:0:0:
356,352,36623,1,14,2:2:0:0:
364,363,36928,6,0,B|491:330|491:330|478:390,1,187.000005706787,6|10,1:2|2:2,0:0:0:0:
273,225,37385,2,0,P|218:213|268:208,1,140.25000428009,2|0,1:2|0:0,0:0:0:0:
287,260,37689,2,0,P|265:272|244:274,1,46.7500014266968,2|0,1:2|0:0,0:0:0:0:
82,199,37841,6,0,B|12:243|12:243|136:231,1,187.000005706787,14|8,2:2|2:2,0:0:0:0:
333,106,38298,2,0,B|388:101|434:73|434:73|414:111|420:167,1,178.499994552612,4|0,1:1|0:0,0:0:0:0:
437,178,38603,1,0,1:1:0:0:
293,16,38755,6,0,L|357:25,1,59.4999981842042,8|0,2:2|0:0,0:0:0:0:
501,119,38907,2,0,B|402:99|431:127|309:101,1,170,0|10,1:1|2:2,0:0:0:0:
181,46,39364,6,0,P|169:77|256:93,1,136,6|2,1:2|2:2,0:0:0:0:
100,24,39821,2,0,P|184:16|255:-10,1,136,2|2,2:2|2:2,0:0:0:0:
61,124,40278,6,0,P|29:182|17:253,1,136,2|2,2:2|2:2,0:0:0:0:
128,342,40735,2,0,B|71:329|71:329|85:346,1,68,2|2,2:2|2:2,0:0:0:0:
207,298,41039,1,2,2:2:0:0:
77,336,41192,6,0,L|167:327,1,85,2|0,2:2|0:0,0:0:0:0:
281,257,41496,2,0,L|371:248,1,85,2|2,2:2|1:2,0:0:0:0:
491,328,41801,6,0,B|510:313|544:347|470:383|394:317,1,136,2|2,1:2|2:2,0:0:0:0:
302,316,42258,2,0,P|293:266|298:219,1,68,0|2,0:0|2:2,0:0:0:0:
372,142,42562,1,0,0:0:0:0:
478,215,42715,2,0,P|459:185|381:220,1,136,2|2,2:2|2:2,0:0:0:0:
451,78,43171,6,0,P|493:58|540:55,1,68,0|2,0:0|2:2,0:0:0:0:
346,11,43476,1,0,0:0:0:0:
451,78,43628,6,0,P|389:84|327:40,1,127.5,2|2,2:2|2:2,0:0:0:0:
309,88,43933,2,0,P|284:95|252:117,1,42.5,2|0,2:2|0:0,0:0:0:0:
182,69,44085,2,0,P|152:64|122:52,1,42.5,2|0,2:2|0:0,0:0:0:0:
42,105,44237,6,0,B|141:89|141:89|120:128,1,136,0|2,1:1|2:2,0:0:0:0:
0,32,44694,1,0,0:0:0:0:
144,187,44847,2,0,P|106:187|92:153,1,68,2|0,2:2|0:0,0:0:0:0:
220,145,45151,6,0,P|210:198|141:182,1,136,2|2,2:2|2:2,0:0:0:0:
81,274,45608,1,0,0:0:0:0:
0,249,45760,2,0,L|78:234,1,68,2|0,2:2|0:0,0:0:0:0:
199,342,46065,2,0,P|230:318|265:298,1,68,2|0,2:2|0:0,0:0:0:0:
437,375,46369,2,0,P|430:326|457:277,1,101.999996887207,2|0,2:2|1:1,0:0:0:0:
453,280,46674,6,0,L|304:257,1,136,2|2,1:2|2:2,0:0:0:0:
246,215,47131,2,0,L|111:235,1,136
10,341,47588,2,0,P|35:306|58:287,1,68,2|0,2:2|1:1,0:0:0:0:
246,215,47892,6,0,B|289:178|278:98|229:107|258:150,1,136,2|2,2:2|2:2,0:0:0:0:
355,214,48349,2,0,P|405:238|469:233,1,101.999996887207,0|0,1:1|0:0,0:0:0:0:
163,91,48806,2,0,P|121:97|66:119,1,85,2|2,1:2|1:2,0:0:0:0:
271,231,52613,6,0,L|262:170,1,42.5,0|0,1:1|1:1,0:0:0:0:
243,20,52765,6,0,B|232:120|232:120|291:88,1,152.999995330811,12|8,2:2|2:2,0:0:0:0:
393,110,53070,6,0,P|376:91|355:78,1,50.9999984436036,2|0,1:2|1:1,0:0:0:0:
512,23,53222,6,0,P|487:45|434:62,1,59.4999981842042,8|8,2:2|2:2,0:0:0:0:
279,96,53374,5,10,2:3:0:0:
223,115,53451,1,8,2:3:0:0:
171,101,53527,1,8,2:3:0:0:
139,65,53603,1,8,2:3:0:0:
71,17,53679,5,6,2:3:0:0:
66,46,53755,1,4,2:3:0:0:
31,105,53831,5,8,2:3:0:0:
25,132,53907,1,8,2:3:0:0:
0,200,53984,6,0,L|114:182,1,85,4|0,1:1|1:1,0:0:0:0:
241,285,54288,2,0,P|216:256|162:339,1,170,8|0,2:2|1:1,0:0:0:0:
55,337,54745,1,0,1:1:0:0:
241,285,54897,6,0,B|359:254|359:254|315:209,1,170,8|0,2:2|1:1,0:0:0:0:
494,339,55354,1,0,1:1:0:0:
335,301,55506,2,0,P|321:248|330:205,1,85,8|0,2:2|0:0,0:0:0:0:
397,75,55811,6,0,P|377:91|345:100,1,42.5,4|4,1:3|1:3,0:0:0:0:
264,97,55963,2,0,P|295:113|336:120,1,55.2499974708558,0|0,1:1|1:1,0:0:0:0:
431,0,56116,6,0,P|373:-15|349:78,1,165.749992412568,12|0,2:2|0:0,0:0:0:0:
363,198,56420,6,0,B|393:275|393:275|393:270|393:270|380:183,1,170,6|0,1:3|1:1,0:0:0:0:
227,106,56877,6,0,B|172:96|117:74|117:74|153:131,1,170,10|0,1:2|1:2,0:0:0:0:
71,257,57334,6,0,L|11:269,1,42.5,10|0,1:2|0:0,0:0:0:0:
2,241,58552,5,2,1:3:0:0:
9,245,58628,2,0,P|50:263|102:272,1,85,4|0,0:3|0:0,0:0:0:0:
103,348,58857,6,0,P|125:294|214:321,1,152.999995330811,6|0,1:2|0:0,0:0:0:0:
206,384,59161,2,0,L|316:370,1,101.999996887207,10|0,2:2|0:0,0:0:0:0:
469,248,59466,5,2,1:2:0:0:
346,219,59618,1,0,1:1:0:0:
440,316,59770,5,2,1:2:0:0:
446,326,59847,2,0,L|474:386,1,50.9999984436036,0|8,1:3|2:2,0:0:0:0:
379,143,59999,5,2,1:1:0:0:
371,105,60075,2,0,B|366:54|343:0|343:0|421:73,1,203.999993774414,0|10,0:0|2:2,0:0:0:0:
272,159,60532,6,0,P|250:168|207:168,2,50.9999984436036,0|8|2,1:2|2:2|1:2,0:0:0:0:
447,227,60836,1,0,1:1:0:0:
305,24,60989,6,0,P|393:44|366:109,1,178.499994552612,10|0,2:2|0:0,0:0:0:0:
278,130,61293,6,0,B|132:110|132:110|153:179,1,203.999993774414,6|8,1:2|2:2,0:0:0:0:
59,61,61750,1,8,0:3:0:0:
217,221,61902,2,0,P|218:193|247:164,1,50.9999984436036,2|0,1:2|0:0,0:0:0:0:
163,20,62055,2,0,P|182:77|233:85,1,101.999996887207,0|0,1:1|0:0,0:0:0:0:
347,94,62359,5,10,2:2:0:0:
108,176,62511,1,0,1:1:0:0:
87,182,62588,1,4,0:3:0:0:
54,188,62664,1,0,1:1:0:0:
155,103,62816,5,8,2:2:0:0:
306,180,62968,1,0,0:0:0:0:
258,263,63121,5,2,1:2:0:0:
231,153,63273,1,0,1:1:0:0:
226,13,63425,2,0,B|210:57|213:113|213:113|149:73,1,152.999995330811,14|0,2:2|0:0,0:0:0:0:
312,75,63730,6,0,B|425:121|495:29|386:11|382:68,1,203.999993774414,6|8,1:2|2:2,0:0:0:0:
165,186,64187,1,2,2:2:0:0:
303,268,64339,2,0,P|288:203|248:158,1,101.999996887207,0|0,1:1|1:1,0:0:0:0:
404,111,64643,5,2,2:2:0:0:
268,176,64796,2,0,P|235:231|339:306,1,203.999993774414,8|0,2:2|1:1,0:0:0:0:
503,250,65253,5,10,2:2:0:0:
457,238,65329,2,0,L|338:205,1,101.999996887207,2|0,0:3|0:0,0:0:0:0:
268,176,65557,2,0,B|163:155|163:155|251:207,1,203.999993774414,2|14,1:2|2:2,0:0:0:0:
391,94,66014,2,0,P|354:96|334:102,1,50.9999984436036,2|0,1:0|0:0,0:0:0:0:
163,156,66166,6,0,B|102:199|47:164|47:164|63:107,1,152.999995330811,6|0,1:2|0:0,0:0:0:0:
158,67,66471,6,0,L|245:91,1,50.9999984436036,10|0,2:2|0:0,0:0:0:0:
302,286,66623,6,0,B|282:319|282:319|257:242,1,101.999996887207,6|0,1:2|0:0,0:0:0:0:
443,208,66928,6,0,P|406:217|392:239,1,50.9999984436036,2|0,1:2|0:0,0:0:0:0:
195,354,67080,6,0,B|320:327|285:379|412:338,1,203.999993774414,14|0,2:2|1:1,0:0:0:0:
122,241,67537,2,0,B|73:233|38:194|38:194|54:256,1,152.999995330811,10|0,2:2|0:0,0:0:0:0:
27,290,67841,6,0,P|56:274|91:268,1,50.9999984436036,8|8,2:3|2:3,0:0:0:0:
205,218,67994,1,2,1:2:0:0:
359,246,68146,1,2,1:2:0:0:
472,182,68298,2,0,L|312:213,1,152.999995330811,12|0,2:2|0:0,0:0:0:0:
251,261,68603,6,0,P|230:310|262:355,1,101.999996887207,6|0,1:2|0:0,0:0:0:0:
131,133,68907,2,0,P|136:207|220:230,1,152.999995330811,10|2,2:2|0:0,0:0:0:0:
254,161,69212,2,0,L|358:133,1,101.999996887207,2|0,1:2|1:1,0:0:0:0:
216,72,69517,1,2,2:2:0:0:
421,201,69669,1,8,2:2:0:0:
351,59,69821,6,0,B|339:96|339:96|325:22,1,101.999996887207,0|0,0:0|1:1,0:0:0:0:
510,205,70126,2,0,B|390:176|390:176|459:105,1,203.999993774414,10|2,2:2|1:2,0:0:0:0:
237,273,70583,2,0,P|278:264|308:249,1,50.9999984436036,0|0,1:1|0:0,0:0:0:0:
467,306,70735,2,0,P|422:337|396:256,1,152.999995330811,10|0,2:2|0:0,0:0:0:0:
284,339,71039,6,0,L|60:309,1,203.999993774414,2|8,1:2|2:2,0:0:0:0:
221,188,71496,2,0,P|211:212|196:232,1,50.9999984436036,2|0,0:3|0:0,0:0:0:0:
59,358,71649,2,0,P|30:340|64:261,1,101.999996887207,2|0,1:2|1:1,0:0:0:0:
106,220,71953,5,0,0:0:0:0:
221,188,72105,1,10,2:2:0:0:
296,246,72258,5,2,1:2:0:0:
133,183,72410,1,0,1:1:0:0:
11,104,72562,2,0,P|-2:45|34:15,1,101.999996887207,10|2,2:2|0:0,0:0:0:0:
71,34,72791,1,2,0:0:0:0:
83,32,72867,2,0,L|201:12,1,101.999996887207,2|0,1:2|1:1,0:0:0:0:
385,135,73171,2,0,B|242:102|242:102|277:191,1,237.999992736817,14|6,2:2|1:2,0:0:0:0:
310,15,73628,5,0,0:0:0:0:
274,185,73781,2,0,P|309:123|309:76,1,101.999996887207,10|0,2:2|0:0,0:0:0:0:
512,263,74085,2,0,P|456:187|388:233,1,152.999995330811,2|0,1:2|0:0,0:0:0:0:
349,267,74390,2,0,L|233:282,1,101.999996887207,2|8,2:2|2:2,0:0:0:0:
91,196,74694,5,2,2:2:0:0:
128,305,74847,1,0,1:1:0:0:
197,365,74999,5,8,2:2:0:0:
268,203,75151,1,2,2:2:0:0:
189,47,75303,5,0,1:1:0:0:
142,245,75456,1,0,1:1:0:0:
261,125,75608,5,10,2:2:0:0:
280,128,75684,2,0,B|318:138|318:138|297:140,1,50.9999984436036,8|0,0:3|0:0,0:0:0:0:
138,156,75836,5,4,0:3:0:0:
123,168,75912,2,0,P|65:165|80:64,1,152.999995330811,0|0,1:1|0:0,0:0:0:0:
111,30,76217,2,0,B|186:15|186:15|160:-1,1,101.999996887207,8|0,2:2|0:0,0:0:0:0:
0,0,76522,1,0,1:1:0:0:
123,168,76674,2,0,P|156:167|200:109,1,101.999996887207,0|2,1:1|2:2,0:0:0:0:
4,82,76978,6,0,L|19:146,1,50.9999984436036,8|0,2:2|0:0,0:0:0:0:
8,278,77131,2,0,L|127:250,1,101.999996887207,2|0,1:2|1:1,0:0:0:0:
107,254,77359,1,0,1:0:0:0:
107,254,77435,1,10,2:2:0:0:
237,209,77588,1,2,0:0:0:0:
396,273,77740,1,2,1:2:0:0:
467,221,77892,1,0,1:1:0:0:
356,367,78044,5,14,2:2:0:0:
343,327,78121,2,0,B|319:230|319:230|374:256,1,144.500002756119,8|0,0:3|1:1,0:0:0:0:
434,297,78349,6,0,P|469:305|512:312,1,50.9999984436036,14|0,2:2|0:0,0:0:0:0:
501,291,78653,5,10,2:2:0:0:
284,370,78806,1,0,1:1:0:0:
159,192,78958,5,10,2:2:0:0:
391,249,79110,1,0,1:1:0:0:
468,88,79263,5,10,2:2:0:0:
277,151,79415,1,0,1:1:0:0:
207,26,79567,5,8,1:3:0:0:
354,87,79720,1,0,1:1:0:0:
503,142,79872,2,0,P|461:131|430:94,1,50.9999984436036,14|0,2:2|0:0,0:0:0:0:
131,49,80633,2,0,P|89:60|58:97,1,50.9999984436036,2|0,3:3|0:0,0:0:0:0:
30,137,80786,6,0,P|26:81|60:38,1,101.999996887207,6|0,1:2|0:0,0:0:0:0:
193,172,81090,1,10,2:2:0:0:
222,187,81166,2,0,B|284:205|332:202|332:202|297:256,1,152.999995330811,4|0,0:3|1:1,0:0:0:0:
131,272,81547,2,0,P|80:281|24:302,1,101.999996887207,2|8,1:2|2:2,0:0:0:0:
275,367,81852,6,0,P|324:328|224:293,1,203.999993774414,2|2,1:2|1:2,0:0:0:0:
236,275,82232,1,2,2:2:0:0:
236,275,82308,1,10,2:2:0:0:
182,363,82461,1,0,1:2:0:0:
34,236,82613,5,2,1:2:0:0:
151,272,82765,1,2,1:2:0:0:
281,173,82918,6,0,P|290:157|291:103,1,50.9999984436036,10|0,2:2|0:0,0:0:0:0:
239,43,83070,2,0,P|252:59|267:110,1,50.9999984436036,2|0,2:2|0:0,0:0:0:0:
172,132,83222,6,0,B|50:102|50:102|87:184,1,203.999993774414,2|10,1:2|2:2,0:0:0:0:
209,37,83679,1,0,1:2:0:0:
241,23,83755,1,8,2:2:0:0:
256,17,83831,1,2,1:2:0:0:
12,100,83984,6,0,L|79:87,1,50.9999984436036,2|0,1:2|0:0,0:0:0:0:
164,161,84136,2,0,L|237:141,1,50.9999984436036,8|0,2:2|0:0,0:0:0:0:
353,60,84288,6,0,B|407:65|461:44|461:44|461:48|461:48|384:104,1,203.999993774414,2|2,1:2|1:2,0:0:0:0:
247,225,84745,2,0,P|222:281|239:345,1,101.999996887207,10|0,2:2|1:0,0:0:0:0:
425,344,85050,5,2,1:2:0:0:
355,192,85202,1,2,1:2:0:0:
345,380,85354,5,14,2:2:0:0:
431,148,85506,1,0,0:0:0:0:
469,48,85659,2,0,B|438:97|438:97|416:-1,1,152.999995330811,6|0,1:2|0:0,0:0:0:0:
493,158,85963,6,0,P|449:89|343:168,1,203.999993774414,10|0,2:2|1:1,0:0:0:0:
196,298,86420,2,0,L|130:308,2,50.9999984436036,2|0|8,1:2|0:0|2:2,0:0:0:0:
380,238,86725,6,0,L|272:214,1,101.999996887207,2|0,1:2|0:0,0:0:0:0:
143,167,87029,1,2,1:2:0:0:
143,167,87105,1,2,2:2:0:0:
143,167,87182,1,10,2:2:0:0:
34,247,87334,1,2,2:2:0:0:
3,161,87486,5,2,1:2:0:0:
140,219,87638,1,2,1:2:0:0:
160,299,87791,5,10,2:2:0:0:
43,81,87943,1,2,2:2:0:0:
157,99,88095,6,0,B|261:81|261:81|219:25,1,170,2|2,2:2|2:2,0:0:0:0:
352,194,88552,2,0,L|398:207,2,42.5,2|0|2,2:2|0:0|2:2,0:0:0:0:
268,222,88857,2,0,P|276:172|324:160,1,85,2|2,2:2|2:2,0:0:0:0:
261,343,89161,2,0,L|247:403,1,42.5,2|0,2:2|0:0,0:0:0:0:
