osu file format v14

[General]
AudioFilename: audio.mp3
AudioLeadIn: 0
PreviewTime: 57334
Countdown: 0
SampleSet: Soft
StackLeniency: 0.7
Mode: 0
LetterboxInBreaks: 0
WidescreenStoryboard: 0

[Editor]
Bookmarks: 10049,19795,29541,39287,49033,52688,58780,78272,80709
DistanceSpacing: 1.4
BeatDivisor: 4
GridSize: 32
TimelineZoom: 1.8

[Metadata]
Title:Tentou (TV Size)
TitleUnicode:天灯 (TV Size)
Artist:sajou no hana
ArtistUnicode:sajou no hana
Creator:- Ex -
Version:Insane
Source:ダンジョンに出会いを求めるのは間違っているだろうかⅣ 新章 迷宮篇
Tags:Aakki finnish bn Pado -_Ex_- Kowari ShayKs Danmachi Is It Wrong to Try to Pick Up Girls in a Dungeon ni Deai wo Motomeru no wa Machigatteiru Darou ka shin fumi meikyuu hen IV New Chapter: The Labyrinth myth familia anime japanese JPop J-Pop Pop op opening watanabe sho kitani tatsuya sana Hestia
BeatmapID:3719287
BeatmapSetID:1813053

[Difficulty]
HPDrainRate:6
CircleSize:4
OverallDifficulty:8
ApproachRate:9
SliderMultiplier:1.6
SliderTickRate:1

[Events]
//Background and Video events
0,0,"bg.jpg",0,0
Video,-500,"video.mp4"
//Break Periods
2,49310,52013
//Storyboard Layer 0 (Background)
//Storyboard Layer 1 (Fail)
//Storyboard Layer 2 (Pass)
//Storyboard Layer 3 (Foreground)
//Storyboard Layer 4 (Overlay)
//Storyboard Sound Samples

[TimingPoints]
380,304.568527918782,4,2,1,50,1,0
380,-125,4,2,1,50,0,0
9136,-125,4,2,2,50,0,0
10126,-100,4,2,1,70,0,0
14694,-100,4,2,2,70,0,0
14999,-100,4,2,1,70,0,0
19567,-100,4,2,2,70,0,0
19872,-125,4,2,2,40,0,0
28400,-125,4,2,3,40,0,0
28476,-125,4,2,1,40,0,0
29314,-125,4,2,3,40,0,0
29618,-111.111111111111,4,2,1,50,0,0
29923,-111.111111111111,4,2,1,50,0,0
36623,-111.111111111111,4,2,2,50,0,0
36928,-111.111111111111,4,2,1,65,0,0
38298,-111.111111111111,4,2,2,65,0,0
38374,-111.111111111111,4,2,1,65,0,0
39364,-125,4,2,1,55,0,0
39669,-125,4,2,4,55,0,0
39821,-125,4,2,1,55,0,0
39973,-125,4,2,4,55,0,0
40126,-125,4,2,1,55,0,0
40278,-125,4,2,4,55,0,0
40735,-125,4,2,1,55,0,0
40887,-125,4,2,4,55,0,0
41039,-125,4,2,1,55,0,0
41192,-125,4,2,4,55,0,0
41649,-125,4,2,1,55,0,0
41801,-125,4,2,4,55,0,0
42029,-125,4,2,4,5,0,0
42105,-125,4,2,4,55,0,0
48197,-125,4,2,1,55,0,0
49110,-125,4,2,1,30,0,0
52765,-100,4,2,1,55,0,0
53070,-100,4,2,1,60,0,0
53374,-100,4,2,1,65,0,0
53831,-100,4,2,2,60,0,0
53984,-100,4,2,2,70,0,0
55811,-100,4,2,1,70,0,0
56877,-100,4,2,3,70,0,0
57334,-100,4,2,2,70,0,0
57638,-100,4,2,2,50,0,0
58857,-90.9090909090909,4,2,1,80,0,0
63425,-90.9090909090909,4,2,2,80,0,0
63730,-90.9090909090909,4,2,1,80,0,0
66166,-90.9090909090909,4,2,2,80,0,0
66623,-90.9090909090909,4,2,1,80,0,0
67080,-90.9090909090909,4,2,2,80,0,0
67841,-90.9090909090909,4,2,1,80,0,0
68298,-90.9090909090909,4,2,2,80,0,0
68603,-90.9090909090909,4,2,1,80,0,0
73171,-90.9090909090909,4,2,2,80,0,0
73476,-90.9090909090909,4,2,1,80,0,0
78044,-90.9090909090909,4,2,2,80,0,0
78349,-90.9090909090909,4,2,1,80,0,0
80786,-100,4,2,1,60,0,0
85354,-100,4,2,2,60,0,0
85659,-100,4,2,1,60,0,0
88095,-100,4,2,1,40,0,0

[Colours]
Combo1 : 240,140,140
Combo2 : 200,180,220
Combo3 : 240,200,155
Combo4 : 150,185,220

[HitObjects]
77,70,380,6,0,B|44:113|65:174|65:174|25:179,1,128,2|2,2:2|2:2,0:0:0:0:
164,131,836,2,0,P|217:124|294:101,1,128,2|2,2:2|2:2,0:0:0:0:
359,175,1293,2,0,P|393:179|443:194,1,64,2|0,2:2|0:0,0:0:0:0:
291,246,1598,5,2,2:2:0:0:
372,320,1750,2,0,P|360:373|356:404,1,64,2|0,2:2|0:0,0:0:0:0:
448,273,2055,2,0,P|501:261|532:257,2,64,2|2|0,2:2|2:2|0:0,0:0:0:0:
346,317,2511,2,0,P|293:329|262:333,1,64,2|0,2:2|0:0,0:0:0:0:
165,246,2816,6,0,P|151:295|168:377,1,128,2|2,2:2|2:2,0:0:0:0:
69,263,3273,2,0,P|16:253|-10:248,1,64,2|2,2:2|2:2,0:0:0:0:
167,150,3577,1,2,2:2:0:0:
167,150,3654,1,0,0:0:0:0:
167,150,3730,2,0,B|201:152|217:164|217:164|260:152|309:156,1,128,2|0,2:2|0:0,0:0:0:0:
383,100,4187,6,0,P|402:162|410:245,1,128,2|0,2:2|0:0,0:0:0:0:
493,274,4643,2,0,P|474:308|442:346,1,64,2|2,2:2|2:2,0:0:0:0:
314,252,4948,2,0,P|276:240|227:235,1,64,2|8,2:2|2:2,0:0:0:0:
252,236,5176,1,8,2:2:0:0:
252,236,5253,5,2,1:2:0:0:
383,100,5405,1,0,1:1:0:0:
383,100,5862,2,0,P|371:53|363:18,1,64,8|2,2:2|2:2,0:0:0:0:
470,73,6166,1,2,1:2:0:0:
275,142,6319,6,0,P|237:153|188:158,1,64,0|2,1:1|2:2,0:0:0:0:
77,134,6623,2,0,P|58:76|68:9,1,128,10|2,2:2|1:2,0:0:0:0:
164,69,7080,1,10,2:2:0:0:
70,171,7232,2,0,P|58:220|46:304,1,128,8|0,2:2|0:0,0:0:0:0:
127,369,7689,5,2,1:2:0:0:
210,296,7841,2,0,B|244:307|244:307|266:323|266:323|308:322|353:340,1,128,2|2,1:2|2:2,0:0:0:0:
423,275,8298,2,0,P|465:285|501:298,1,64,10|2,2:2|2:2,0:0:0:0:
359,184,8603,2,0,P|352:152|342:122,1,64,14|0,2:2|1:1,0:0:0:0:
200,224,8907,5,10,2:3:0:0:
124,74,9060,1,6,2:3:0:0:
271,138,9212,1,14,2:2:0:0:
63,345,9517,5,2,2:2:0:0:
63,345,9669,1,2,2:2:0:0:
137,138,10126,6,0,P|91:128|49:114,1,80,6|0,1:2|0:0,0:0:0:0:
29,259,10430,2,0,B|86:241|135:284|135:284|162:258|183:260,1,160,10|2,2:2|1:2,0:0:0:0:
304,224,10887,2,0,P|316:285|327:320,1,80,2|8,1:2|2:2,0:0:0:0:
471,364,11192,6,0,P|492:298|497:260,1,80,2|0,1:2|0:0,0:0:0:0:
376,174,11496,1,2,1:2:0:0:
376,174,11572,1,2,2:2:0:0:
376,174,11649,1,10,2:2:0:0:
512,118,11801,1,0,1:2:0:0:
512,118,11877,1,8,2:2:0:0:
512,118,11953,1,2,1:2:0:0:
400,52,12105,1,2,1:2:0:0:
461,195,12258,1,10,2:2:0:0:
461,195,12410,1,2,2:2:0:0:
333,139,12562,6,0,B|292:129|241:121,1,80,2|0,1:2|0:0,0:0:0:0:
433,52,12867,2,0,P|384:10|276:25,1,160,10|2,2:2|1:2,0:0:0:0:
215,161,13324,1,2,1:2:0:0:
167,70,13476,1,8,2:2:0:0:
347,143,13628,6,0,B|357:184|365:235,1,80,2|0,1:2|0:0,0:0:0:0:
287,363,13933,1,2,1:2:0:0:
250,229,14085,1,10,2:2:0:0:
184,335,14237,1,0,1:2:0:0:
184,335,14314,1,8,2:2:0:0:
184,335,14390,1,2,1:2:0:0:
132,189,14542,1,2,1:2:0:0:
247,262,14694,2,0,P|301:274|348:291,1,80,14|0,2:2|0:0,0:0:0:0:
153,358,14999,6,0,P|114:369|75:377,1,80,6|0,1:2|0:0,0:0:0:0:
0,227,15303,2,0,P|62:187|165:204,1,160,10|2,2:2|1:2,0:0:0:0:
247,262,15760,2,0,P|286:269|324:281,1,80,2|8,1:2|2:2,0:0:0:0:
463,159,16065,6,0,P|423:166|385:178,1,80,2|0,1:2|0:0,0:0:0:0:
248,105,16369,1,2,1:2:0:0:
248,105,16445,1,2,2:2:0:0:
248,105,16522,1,10,2:2:0:0:
368,38,16674,1,0,1:2:0:0:
340,177,16826,1,2,1:2:0:0:
244,53,16978,1,2,1:2:0:0:
206,215,17131,1,10,2:2:0:0:
206,215,17283,1,2,2:2:0:0:
123,117,17435,6,0,P|109:64|101:26,1,80,2|0,1:2|0:0,0:0:0:0:
16,151,17740,1,10,2:2:0:0:
161,235,17892,2,0,B|205:227|205:227|242:238|242:238|279:223|329:228,1,160,0|0,1:2|1:1,0:0:0:0:
295,316,18349,1,10,2:2:0:0:
150,147,18501,6,0,P|114:126|70:105,1,80,2|0,1:2|0:0,0:0:0:0:
283,136,18806,2,0,P|310:94|335:59,1,80,2|10,1:2|2:2,0:0:0:0:
161,235,19110,1,0,1:2:0:0:
295,316,19263,1,2,1:2:0:0:
317,227,19415,1,2,1:2:0:0:
193,341,19567,1,14,2:2:0:0:
193,341,19720,1,2,2:2:0:0:
356,360,19872,6,0,P|404:370|444:377,1,64,6|0,1:2|0:0,0:0:0:0:
447,265,20176,2,0,P|495:255|535:248,1,64,2|0,2:2|0:0,0:0:0:0:
349,225,20481,2,0,P|339:177|332:137,1,64,2|0,2:2|0:0,0:0:0:0:
366,52,20786,5,2,2:2:0:0:
366,52,20938,2,0,B|313:35|269:74|269:74|225:52,1,128,2|0,2:2|0:0,0:0:0:0:
419,147,21395,1,2,2:2:0:0:
419,147,21547,2,0,P|469:164|503:171,1,64,2|0,0:0|0:0,0:0:0:0:
327,223,21852,2,0,P|310:273|303:307,2,64,2|2|2,2:2|2:2|2:2,0:0:0:0:
243,131,22308,6,0,P|194:119|161:110,1,64,2|2,2:2|2:2,0:0:0:0:
77,187,22613,2,0,P|126:199|159:208,1,64,2|2,2:2|2:2,0:0:0:0:
197,21,22918,2,0,P|149:29|109:40,1,64,2|0,2:2|0:0,0:0:0:0:
17,131,23222,6,0,P|28:189|64:275,1,128,2|2,2:2|2:2,0:0:0:0:
121,331,23679,1,2,2:3:0:0:
121,331,24136,2,0,P|133:277|143:241,1,64,2|0,2:2|0:0,0:0:0:0:
162,176,24440,1,2,2:2:0:0:
245,264,24593,1,0,1:1:0:0:
289,164,24745,6,0,P|337:173|376:183,1,64,2|2,1:2|2:2,0:0:0:0:
479,150,25050,2,0,P|464:204|458:241,1,64,2|2,2:2|2:2,0:0:0:0:
380,64,25354,2,0,P|365:10|359:-27,1,64,2|0,2:2|0:0,0:0:0:0:
512,100,25659,6,0,P|463:136|384:130,1,128,2|0,2:2|0:0,0:0:0:0:
263,30,26268,2,0,P|257:67|252:117,1,64,2|0,2:2|0:0,0:0:0:0:
201,180,26572,1,2,2:2:0:0:
323,248,26725,2,0,P|341:296|315:374,1,128,2|2,2:2|2:2,0:0:0:0:
419,233,27182,6,0,P|464:222|506:212,1,64,2|2,2:2|2:2,0:0:0:0:
427,350,27486,2,0,P|382:339|340:329,1,64,2|2,2:2|2:2,0:0:0:0:
236,290,27791,2,0,P|228:321|220:352,1,64,2|0,2:2|0:0,0:0:0:0:
136,238,28095,1,2,2:2:0:0:
256,181,28248,5,2,2:3:0:0:
256,181,28552,1,8,2:2:0:0:
144,118,28704,1,8,2:3:0:0:
290,53,28857,1,8,0:0:0:0:
290,53,28933,1,4,2:3:0:0:
290,53,29009,1,8,2:3:0:0:
144,2,29161,1,4,2:3:0:0:
223,102,29314,1,10,2:2:0:0:
223,102,29466,1,2,1:2:0:0:
106,192,29618,6,0,P|61:203|24:216,1,71.9999978027344,6|2,1:2|2:2,0:0:0:0:
211,299,29923,2,0,P|225:342|242:377,1,71.9999978027344,10|2,2:2|2:2,0:0:0:0:
288,172,30227,2,0,P|308:124|327:90,1,71.9999978027344,2|0,2:2|0:0,0:0:0:0:
108,275,30532,6,0,P|62:231|86:137,1,143.999995605469,10|0,2:2|0:0,0:0:0:0:
257,241,31141,2,0,P|296:251|343:262,1,71.9999978027344,10|0,2:2|0:0,0:0:0:0:
430,173,31445,2,0,P|469:163|516:155,1,71.9999978027344,2|0,2:2|0:0,0:0:0:0:
347,30,31750,2,0,P|337:69|329:116,1,71.9999978027344,10|2,2:2|0:0,0:0:0:0:
288,277,32055,6,0,P|345:309|444:288,1,143.999995605469,2|10,1:2|2:2,0:0:0:0:
500,157,32511,2,0,P|429:148|366:181,1,143.999995605469,2|2,2:2|2:2,0:0:0:0:
288,277,32968,1,10,2:2:0:0:
212,165,33121,1,2,1:2:0:0:
140,285,33273,6,0,P|127:337|117:372,1,71.9999978027344,2|0,2:2|0:0,0:0:0:0:
28,253,33577,1,8,2:2:0:0:
28,253,33882,2,0,B|20:209|20:209|31:172|31:172|16:135|21:85,1,143.999995605469,2|8,2:2|2:2,0:0:0:0:
112,127,34339,1,2,1:2:0:0:
92,9,34491,6,0,P|45:17|13:25,1,71.9999978027344,2|0,1:2|0:0,0:0:0:0:
112,127,34796,1,10,2:2:0:0:
233,27,34948,2,0,B|290:9|339:52|339:52|366:26|387:28,1,143.999995605469,2|2,2:2|2:2,0:0:0:0:
264,130,35405,1,10,2:2:0:0:
415,124,35557,6,0,P|429:174|435:207,1,71.9999978027344,2|0,1:2|0:0,0:0:0:0:
331,333,35862,1,0,1:1:0:0:
431,304,36014,2,0,P|466:311|500:321,1,71.9999978027344,8|0,2:2|0:0,0:0:0:0:
328,206,36319,1,6,2:3:0:0:
303,199,36395,1,0,1:1:0:0:
279,203,36471,1,0,1:1:0:0:
257,216,36547,1,0,1:1:0:0:
243,236,36623,2,0,P|250:271|260:305,1,71.9999978027344,14|0,2:2|0:0,0:0:0:0:
432,193,36928,6,0,P|442:158|449:123,1,71.9999978027344,6|0,1:2|0:0,0:0:0:0:
362,14,37232,1,10,2:2:0:0:
246,127,37385,2,0,P|179:152|95:129,1,143.999995605469,2|2,1:2|1:2,0:0:0:0:
0,23,37841,2,0,P|52:34|88:42,1,71.9999978027344,14|0,2:2|0:0,0:0:0:0:
173,60,38146,5,8,2:2:0:0:
15,130,38298,2,0,B|11:152|26:189|26:189|15:226|15:226|23:270,1,143.999995605469,4|0,1:1|1:1,0:0:0:0:
141,311,38755,2,0,P|155:362|161:386,1,71.9999978027344,8|0,2:2|1:1,0:0:0:0:
251,256,39060,1,2,2:2:0:0:
162,198,39212,1,10,2:2:0:0:
285,109,39364,6,0,P|358:92|430:73,1,128,6|2,1:2|2:2,0:0:0:0:
312,207,39821,2,0,P|242:218|182:180,1,128,2|2,2:2|2:2,0:0:0:0:
403,270,40278,2,0,P|412:220|417:183,1,64,2|0,2:2|0:0,0:0:0:0:
292,360,40583,5,2,2:2:0:0:
292,360,40735,2,0,B|337:346|384:374|384:374|436:357,1,128,2|2,2:2|2:2,0:0:0:0:
196,271,41192,2,0,P|187:324|185:359,1,64,2|0,2:2|0:0,0:0:0:0:
267,159,41496,2,0,P|290:214|304:239,1,64,2|2,2:2|1:2,0:0:0:0:
494,103,41801,6,0,P|444:76|386:86,1,96,2|0,1:2|0:0,0:0:0:0:
400,106,42105,2,0,P|387:155|369:242,2,128,2|2|2,2:2|2:2|2:2,0:0:0:0:
202,10,43019,6,0,P|157:23|123:29,1,64,2|0,2:2|0:0,0:0:0:0:
244,122,43324,2,0,P|272:89|297:55,1,64,2|0,2:2|0:0,0:0:0:0:
400,106,43628,2,0,P|390:62|381:31,1,64,2|0,2:2|0:0,0:0:0:0:
384,43,43857,1,2,2:2:0:0:
384,43,43933,1,2,2:2:0:0:
494,84,44085,5,2,2:2:0:0:
494,84,44161,1,2,2:2:0:0:
494,84,44237,2,0,B|513:140|457:187|457:187|467:222,1,128,0|2,1:1|2:2,0:0:0:0:
421,302,44694,1,0,0:0:0:0:
345,231,44846,2,0,P|353:182|362:142,1,64,2|0,2:2|0:0,0:0:0:0:
261,299,45151,6,0,B|221:306|221:306|187:296|187:296|153:309|136:306,1,128,2|2,2:2|2:2,0:0:0:0:
44,252,45608,1,0,0:0:0:0:
111,163,45760,2,0,P|124:201|135:238,1,64,2|0,2:2|0:0,0:0:0:0:
32,92,46065,2,0,P|19:130|8:167,1,64,2|0,2:2|0:0,0:0:0:0:
134,45,46369,1,2,2:2:0:0:
134,45,46522,1,0,1:1:0:0:
221,141,46674,6,0,P|282:163|359:141,1,128,2|2,1:2|2:2,0:0:0:0:
466,58,47131,2,0,P|412:48|334:38,1,128
216,4,47588,2,0,P|207:45|199:79,1,64,2|0,2:2|1:1,0:0:0:0:
136,207,47892,6,0,B|88:192|44:231|44:231|19:207,1,128,2|2,2:2|2:2,0:0:0:0:
118,315,48349,1,0,1:1:0:0:
219,270,48501,2,0,P|230:310|236:340,1,64,2|0,2:2|0:0,0:0:0:0:
375,243,48806,2,0,P|335:232|305:226,1,64,2|0,1:2|0:0,0:0:0:0:
226,166,49110,5,2,1:2:0:0:
234,173,52613,5,0,1:1:0:0:
234,173,52689,1,0,1:1:0:0:
234,173,52765,2,0,L|186:183,1,40,12|8,2:2|2:2,0:0:0:0:
135,257,52918,2,0,L|96:248,1,40,8|8,2:2|2:2,0:0:0:0:
33,177,53070,5,2,1:2:0:0:
33,177,53146,1,0,1:1:0:0:
33,177,53222,1,8,2:2:0:0:
33,177,53298,1,8,2:2:0:0:
33,177,53374,2,0,L|42:138,3,40,10|8|8|8,2:3|2:3|2:3|2:3,0:0:0:0:
62,37,53679,5,6,2:3:0:0:
86,24,53755,1,4,2:3:0:0:
113,17,53831,1,8,2:3:0:0:
141,15,53907,1,8,2:3:0:0:
169,19,53984,6,0,B|209:38|209:38|248:37|248:37|279:61|329:69,1,160,4|8,1:1|2:2,0:0:0:0:
482,47,54440,1,0,1:2:0:0:
482,47,54517,1,8,2:2:0:0:
482,47,54593,2,0,P|472:85|461:124,1,80,0|0,1:1|1:1,0:0:0:0:
345,244,54897,2,0,P|333:205|324:166,1,80,8|0,2:2|0:0,0:0:0:0:
433,328,55202,6,0,P|484:342|523:354,1,80,0|0,1:1|1:1,0:0:0:0:
287,347,55506,2,0,B|230:329|181:372|181:372|151:338,1,160,8|4,2:2|1:3,0:0:0:0:
5,259,55963,1,0,1:1:0:0:
5,259,56039,1,0,1:1:0:0:
5,259,56116,2,0,P|56:243|96:233,1,80,12|0,2:2|1:1,0:0:0:0:
256,212,56420,6,0,P|283:160|250:39,1,160,6|0,1:3|1:1,0:0:0:0:
58,48,56877,2,0,P|89:97|210:129,1,160,10|0,1:2|1:2,0:0:0:0:
356,2,57334,5,10,1:2:0:0:
356,2,57943,1,2,2:2:0:0:
422,91,58248,1,2,2:2:0:0:
488,180,58552,1,2,2:2:0:0:
182,149,58857,6,0,P|168:103|159:65,1,88.000002685547,6|0,1:2|0:0,0:0:0:0:
317,169,59161,2,0,P|363:190|405:204,1,88.000002685547,10|0,2:2|0:0,0:0:0:0:
167,265,59466,2,0,P|123:287|78:304,1,88.000002685547,2|0,1:2|1:1,0:0:0:0:
319,384,59770,2,0,P|325:295|263:225,1,176.000005371094,2|0,2:2|0:0,0:0:0:0:
208,336,60227,5,0,1:1:0:0:
425,287,60380,2,0,P|437:332|449:380,1,88.000002685547,10|0,2:2|1:2,0:0:0:0:
447,372,60608,1,8,2:2:0:0:
447,372,60684,1,2,1:2:0:0:
512,181,60836,1,0,1:1:0:0:
332,230,60989,2,0,P|287:242|239:254,1,88.000002685547,10|0,2:2|0:0,0:0:0:0:
43,140,61293,6,0,B|76:134|111:141|111:141|168:98|244:108,1,176.000005371094,6|8,1:2|2:2,0:0:0:0:
76,243,61750,1,8,0:3:0:0:
76,243,61826,1,4,0:3:0:0:
76,243,61902,2,0,P|62:303|50:353,1,88.000002685547,2|0,1:2|1:1,0:0:0:0:
210,197,62207,1,0,0:0:0:0:
85,105,62359,5,10,2:2:0:0:
85,105,62435,1,4,0:3:0:0:
85,105,62511,2,0,P|71:45|59:-5,1,88.000002685547,0|0,1:1|1:1,0:0:0:0:
249,1,62816,1,8,2:2:0:0:
231,144,62968,1,0,0:0:0:0:
346,67,63121,1,2,1:2:0:0:
400,232,63273,1,0,1:1:0:0:
277,168,63425,1,14,2:2:0:0:
236,335,63577,1,0,0:0:0:0:
361,266,63730,6,0,B|429:262|471:325|471:325|506:301|532:313,1,176.000005371094,6|8,1:2|2:2,0:0:0:0:
247,371,64187,2,0,P|207:321|217:193,1,176.000005371094,2|0,2:2|1:1,0:0:0:0:
340,114,64643,1,2,2:2:0:0:
317,269,64796,1,8,2:2:0:0:
181,114,64948,6,0,P|170:71|160:28,1,88.000002685547,0|0,0:0|1:1,0:0:0:0:
87,220,65253,2,0,P|44:229|1:240,1,88.000002685547,10|0,2:2|0:0,0:0:0:0:
132,359,65557,2,0,P|174:368|217:379,1,88.000002685547,2|0,1:2|1:1,0:0:0:0:
323,244,65862,1,14,2:2:0:0:
391,376,66014,1,0,0:0:0:0:
466,273,66166,6,0,P|465:185|413:116,1,176.000005371094,6|10,1:2|2:2,0:0:0:0:
289,215,66623,2,0,P|341:220|379:226,1,88.000002685547,6|0,1:2|0:0,0:0:0:0:
512,81,66928,1,2,1:2:0:0:
404,8,67080,6,0,B|352:22|352:22|308:21|308:21|278:38|231:45,1,176.000005371094,14|0,2:2|1:1,0:0:0:0:
66,11,67537,2,0,P|40:84|71:193,1,176.000005371094,10|8,2:2|2:3,0:0:0:0:
60,177,67918,1,8,2:3:0:0:
60,177,67994,1,2,1:2:0:0:
172,320,68146,1,2,1:2:0:0:
269,176,68298,1,12,2:2:0:0:
148,220,68451,1,0,0:0:0:0:
320,291,68603,6,0,P|331:345|336:381,1,88.000002685547,6|0,1:2|0:0,0:0:0:0:
494,265,68907,2,0,P|438:292|407:311,1,88.000002685547,10|2,2:2|0:0,0:0:0:0:
169,232,69212,2,0,P|225:259|256:278,1,88.000002685547,2|0,1:2|1:1,0:0:0:0:
426,194,69517,2,0,P|454:147|418:8,1,176.000005371094,2|0,2:2|0:0,0:0:0:0:
266,11,69973,5,0,1:1:0:0:
236,185,70126,2,0,P|239:232|250:289,1,88.000002685547,10|2,2:2|0:0,0:0:0:0:
357,71,70430,2,0,B|327:58|286:63|286:63|232:28|177:29,1,176.000005371094,2|10,1:2|2:2,0:0:0:0:
19,97,70887,1,0,0:0:0:0:
188,128,71039,6,0,B|209:194|158:252|158:252|189:283|186:308,1,176.000005371094,2|8,1:2|2:2,0:0:0:0:
244,368,71496,1,0,0:0:0:0:
92,321,71649,2,0,P|48:312|-2:305,1,88.000002685547,2|0,1:2|1:1,0:0:0:0:
77,154,71953,1,0,0:0:0:0:
182,285,72105,1,10,2:2:0:0:
285,134,72258,6,0,P|299:88|308:50,1,88.000002685547,2|0,1:2|1:1,0:0:0:0:
169,147,72562,2,0,P|123:168|81:182,1,88.000002685547,10|2,2:2|0:0,0:0:0:0:
284,242,72867,2,0,P|328:264|373:281,1,88.000002685547,2|0,1:2|1:1,0:0:0:0:
168,367,73171,2,0,P|146:323|129:278,1,88.000002685547,14|0,2:2|0:0,0:0:0:0:
285,132,73476,5,6,1:2:0:0:
285,132,73781,2,0,B|346:117|396:165|396:165|445:115,1,176.000005371094,10|2,2:2|1:2,0:0:0:0:
311,233,74237,1,0,1:1:0:0:
184,182,74390,2,0,P|165:124|159:95,1,88.000002685547,2|8,2:2|2:2,0:0:0:0:
279,314,74694,6,0,P|294:273|311:233,1,88.000002685547,2|0,2:2|1:1,0:0:0:0:
383,372,74999,1,8,2:2:0:0:
185,312,75151,2,0,B|130:302|130:302|84:315|84:315|37:297|-24:303,1,176.000005371094,2|0,2:2|1:1,0:0:0:0:
198,209,75608,2,0,P|234:188|278:167,1,88.000002685547,10|0,2:2|0:0,0:0:0:0:
65,198,75912,6,0,P|38:156|13:121,1,88.000002685547,0|0,1:1|0:0,0:0:0:0:
167,46,76217,2,0,P|104:10|-2:28,1,176.000005371094,8|0,2:2|1:1,0:0:0:0:
148,153,76674,1,0,1:1:0:0:
279,97,76826,2,0,P|298:39|304:10,1,88.000002685547,2|8,2:2|2:2,0:0:0:0:
148,153,77131,6,0,P|157:195|172:237,1,88.000002685547,2|0,1:2|1:1,0:0:0:0:
319,364,77435,2,0,P|333:322|343:279,1,88.000002685547,10|2,2:2|0:0,0:0:0:0:
428,108,77740,1,2,1:2:0:0:
284,184,77892,1,0,1:1:0:0:
437,271,78044,1,14,2:2:0:0:
468,92,78197,5,0,1:1:0:0:
468,92,78273,1,0,1:1:0:0:
468,92,78349,2,0,P|485:43|498:-2,1,88.000002685547,14|0,2:2|0:0,0:0:0:0:
318,89,78654,1,10,2:2:0:0:
420,204,78806,1,0,1:1:0:0:
246,177,78958,1,10,2:2:0:0:
379,284,79110,1,0,1:1:0:0:
236,313,79263,1,10,2:2:0:0:
287,155,79415,1,0,1:1:0:0:
137,170,79567,5,8,1:3:0:0:
306,272,79720,1,0,1:1:0:0:
90,353,79872,1,14,2:2:0:0:
90,353,80786,6,0,P|44:363|2:377,1,80,6|0,1:2|0:0,0:0:0:0:
0,230,81090,2,0,B|57:248|106:205|106:205|133:231|154:229,1,160,10|0,2:2|1:1,0:0:0:0:
274,207,81547,2,0,P|288:264|296:298,1,80,2|8,1:2|2:2,0:0:0:0:
419,372,81852,6,0,P|433:315|441:281,1,80,2|0,1:2|0:0,0:0:0:0:
495,167,82156,1,2,1:2:0:0:
495,167,82232,1,2,2:2:0:0:
495,167,82308,1,10,2:2:0:0:
367,220,82461,1,0,1:2:0:0:
367,220,82537,1,8,2:2:0:0:
367,220,82613,1,2,1:2:0:0:
335,63,82765,1,2,1:2:0:0:
455,148,82918,1,10,2:2:0:0:
455,148,83070,1,2,2:2:0:0:
313,31,83222,6,0,P|299:81|289:128,1,80,2|0,1:2|0:0,0:0:0:0:
133,69,83527,2,0,B|115:126|158:175|158:175|132:202|134:223,1,160,10|2,2:2|1:2,0:0:0:0:
82,311,83984,1,2,1:2:0:0:
29,215,84136,1,8,2:2:0:0:
232,248,84288,6,0,P|291:262|335:277,1,80,2|0,1:2|0:0,0:0:0:0:
437,330,84593,1,2,1:2:0:0:
494,173,84745,1,10,2:2:0:0:
377,228,84897,1,0,1:0:0:0:
377,228,84973,1,8,2:2:0:0:
377,228,85050,1,2,1:2:0:0:
481,313,85202,1,2,1:2:0:0:
309,354,85354,2,0,P|250:368|206:383,1,80,14|0,2:2|0:0,0:0:0:0:
77,288,85659,6,0,P|18:274|-26:259,1,80,6|0,1:2|0:0,0:0:0:0:
163,209,85963,2,0,B|172:168|190:152|190:152|184:98|202:38,1,160,10|0,2:2|1:1,0:0:0:0:
92,88,86420,2,0,P|45:104|9:118,1,80,2|8,1:2|2:2,0:0:0:0:
206,21,86725,6,0,P|243:33|281:47,1,80,2|0,1:2|0:0,0:0:0:0:
407,105,87029,1,2,1:2:0:0:
407,105,87105,1,2,2:2:0:0:
407,105,87182,1,10,2:2:0:0:
289,169,87334,1,2,2:2:0:0:
414,237,87486,1,2,1:2:0:0:
297,307,87638,1,2,1:2:0:0:
413,360,87791,1,10,2:2:0:0:
413,360,87943,1,2,2:2:0:0:
488,246,88095,6,0,P|507:188|519:146,1,80,2|2,2:2|2:2,0:0:0:0:
438,94,88400,1,2,2:2:0:0:
322,193,88552,2,0,B|265:175|216:218|216:218|189:192|168:194,1,160,2|2,2:2|2:2,0:0:0:0:
89,130,89009,1,2,2:2:0:0:
138,289,89161,5,2,2:2:0:0:
