osu file format v14

[General]
AudioFilename: audio.mp3
AudioLeadIn: 0
PreviewTime: 57334
Countdown: 0
SampleSet: Soft
StackLeniency: 0.7
Mode: 0
LetterboxInBreaks: 0
WidescreenStoryboard: 1

[Editor]
Bookmarks: 10049,19795,29541,39287,58780,68526
DistanceSpacing: 1.4
BeatDivisor: 4
GridSize: 32
TimelineZoom: 1.8

[Metadata]
Title:Tentou (TV Size)
TitleUnicode:天灯 (TV Size)
Artist:sajou no hana
ArtistUnicode:sajou no hana
Creator:- Ex -
Version:Ex & Shayks' Hard
Source:ダンジョンに出会いを求めるのは間違っているだろうかⅣ 新章 迷宮篇
Tags:Aakki finnish bn Pado -_Ex_- Kowari ShayKs Danmachi Is It Wrong to Try to Pick Up Girls in a Dungeon ni Deai wo Motomeru no wa Machigatteiru Darou ka shin fumi meikyuu hen IV New Chapter: The Labyrinth myth familia anime japanese JPop J-Pop Pop op opening watanabe sho kitani tatsuya sana Hestia
BeatmapID:3720987
BeatmapSetID:1813053

[Difficulty]
HPDrainRate:4.5
CircleSize:4
OverallDifficulty:6
ApproachRate:7.5
SliderMultiplier:1.4
SliderTickRate:1

[Events]
//Background and Video events
0,0,"bg.jpg",0,0
Video,-500,"video.mp4"
//Break Periods
2,49310,51940
//Storyboard Layer 0 (Background)
//Storyboard Layer 1 (Fail)
//Storyboard Layer 2 (Pass)
//Storyboard Layer 3 (Foreground)
//Storyboard Layer 4 (Overlay)
//Storyboard Sound Samples

[TimingPoints]
380,304.568527918782,4,2,1,50,1,0
380,-125,4,2,1,50,0,0
9136,-125,4,2,2,50,0,0
10126,-100,4,2,1,70,0,0
12791,-100,4,2,1,5,0,0
12867,-100,4,2,1,70,0,0
14694,-100,4,2,2,70,0,0
14999,-100,4,2,1,70,0,0
17664,-100,4,2,1,5,0,0
17740,-100,4,2,1,70,0,0
19567,-100,4,2,2,70,0,0
19872,-125,4,2,2,40,0,0
28400,-125,4,2,3,40,0,0
28476,-125,4,2,1,40,0,0
29314,-125,4,2,3,40,0,0
29618,-111.111111111111,4,2,1,50,0,0
29923,-111.111111111111,4,2,1,50,0,0
36623,-111.111111111111,4,2,2,50,0,0
36852,-111.111111111111,4,2,2,5,0,0
36928,-111.111111111111,4,2,1,65,0,0
38070,-111.111111111111,4,2,1,5,0,0
38146,-111.111111111111,4,2,1,65,0,0
38298,-111.111111111111,4,2,2,65,0,0
38374,-111.111111111111,4,2,1,65,0,0
39364,-125,4,2,1,55,0,0
39669,-125,4,2,4,55,0,0
39821,-125,4,2,1,55,0,0
39973,-125,4,2,4,55,0,0
40126,-125,4,2,1,55,0,0
40278,-125,4,2,4,55,0,0
40735,-125,4,2,1,55,0,0
40887,-125,4,2,4,55,0,0
41039,-125,4,2,1,55,0,0
41192,-125,4,2,4,55,0,0
41649,-125,4,2,1,55,0,0
41801,-125,4,2,4,55,0,0
42029,-125,4,2,4,5,0,0
42105,-125,4,2,4,55,0,0
48197,-125,4,2,1,55,0,0
49110,-125,4,2,1,30,0,0
52765,-100,4,2,1,55,0,0
53070,-100,4,2,1,60,0,0
53374,-100,4,2,1,65,0,0
53831,-100,4,2,2,60,0,0
53984,-100,4,2,2,70,0,0
55811,-100,4,2,1,70,0,0
56877,-100,4,2,3,70,0,0
57334,-100,4,2,2,70,0,0
57638,-100,4,2,2,50,0,0
58857,-90.9090909090909,4,2,1,80,0,0
59085,-90.9090909090909,4,2,1,5,0,0
59161,-90.9090909090909,4,2,1,80,0,0
60608,-90.9090909090909,4,2,1,80,0,0
60684,-90.9090909090909,4,2,1,80,0,0
61217,-90.9090909090909,4,2,1,5,0,0
61293,-90.9090909090909,4,2,1,80,0,0
63425,-90.9090909090909,4,2,2,80,0,0
63730,-90.9090909090909,4,2,1,80,0,0
65481,-90.9090909090909,4,2,1,5,0,0
65557,-90.9090909090909,4,2,1,80,0,0
66166,-90.9090909090909,4,2,2,80,0,0
66623,-90.9090909090909,4,2,1,80,0,0
67080,-90.9090909090909,4,2,2,80,0,0
67841,-90.9090909090909,4,2,1,80,0,0
68298,-90.9090909090909,4,2,2,80,0,0
68603,-90.9090909090909,4,2,1,80,0,0
68831,-90.9090909090909,4,2,1,5,0,0
68907,-90.9090909090909,4,2,1,80,0,0
70354,-90.9090909090909,4,2,1,80,0,0
70430,-90.9090909090909,4,2,1,80,0,0
70963,-90.9090909090909,4,2,1,5,0,0
71039,-90.9090909090909,4,2,1,80,0,0
73095,-90.9090909090909,4,2,1,5,0,0
73171,-90.9090909090909,4,2,2,80,0,0
73476,-90.9090909090909,4,2,1,80,0,0
77359,-90.9090909090909,4,2,1,5,0,0
77435,-90.9090909090909,4,2,1,80,0,0
77968,-90.9090909090909,4,2,1,5,0,0
78044,-90.9090909090909,4,2,2,80,0,0
78349,-90.9090909090909,4,2,1,80,0,0
79491,-90.9090909090909,4,2,1,5,0,0
79567,-90.9090909090909,4,2,1,80,0,0
80786,-100,4,2,1,60,0,0
83451,-100,4,2,1,5,0,0
83527,-100,4,2,1,60,0,0
85354,-100,4,2,2,60,0,0
85659,-100,4,2,1,60,0,0
88095,-100,4,2,1,40,0,0

[Colours]
Combo1 : 240,140,140
Combo2 : 200,180,220
Combo3 : 240,200,155
Combo4 : 150,185,220

[HitObjects]
485,326,380,6,0,P|434:314|361:300,1,112,2|2,2:2|2:2,0:0:0:0:
312,348,836,2,0,P|261:360|188:374,1,112,2|2,2:2|2:2,0:0:0:0:
146,315,1293,1,2,2:2:0:0:
35,203,1598,5,2,2:2:0:0:
35,203,1750,2,0,P|23:250|16:280,1,56,2|0,2:2|0:0,0:0:0:0:
108,158,2055,2,0,P|96:111|89:81,2,56,2|2|0,2:2|2:2|0:0,0:0:0:0:
157,218,2511,1,2,2:2:0:0:
278,119,2816,6,0,P|310:141|403:146,1,112,2|2,2:2|2:2,0:0:0:0:
445,105,3273,2,0,P|460:151|465:172,1,56,2|2,2:2|2:2,0:0:0:0:
507,234,3577,1,2,2:2:0:0:
507,234,3654,1,0,0:0:0:0:
507,234,3730,2,0,P|492:280|470:363,1,112,2|0,2:2|0:0,0:0:0:0:
400,270,4187,5,2,2:2:0:0:
268,355,4491,1,0,0:0:0:0:
268,355,4643,2,0,P|226:348|201:343,1,56,2|2,2:2|2:2,0:0:0:0:
134,334,4948,1,2,2:2:0:0:
206,254,5100,5,8,2:2:0:0:
206,254,5176,1,8,2:2:0:0:
206,254,5253,1,2,1:2:0:0:
144,177,5405,2,0,P|121:123|130:63,1,112,0|2,1:1|2:2,0:0:0:0:
181,14,5862,2,0,P|230:22|306:34,1,112,8|2,2:2|1:2,0:0:0:0:
346,88,6319,6,0,P|393:78|422:73,1,56,0|2,1:1|2:2,0:0:0:0:
484,16,6623,1,10,2:2:0:0:
512,168,6928,1,2,1:2:0:0:
441,202,7080,2,0,P|429:247|423:272,1,56,10|8,2:2|2:2,0:0:0:0:
360,301,7385,2,0,P|372:346|378:371,1,56,2|0,2:2|2:2,0:0:0:0:
285,245,7689,5,2,1:2:0:0:
285,245,7841,2,0,P|235:225|162:242,1,112,2|2,1:2|2:2,0:0:0:0:
119,284,8298,2,0,P|111:337|108:362,1,56,10|2,2:2|2:2,0:0:0:0:
27,236,8603,2,0,P|19:183|16:158,1,56,14|0,2:2|1:1,0:0:0:0:
56,85,8907,5,10,2:3:0:0:
141,153,9060,1,6,2:3:0:0:
226,42,9212,1,14,2:2:0:0:
339,158,9517,5,2,2:2:0:0:
339,158,9669,1,2,2:2:0:0:
500,25,10126,6,0,P|494:62|489:109,1,70,6|0,1:2|0:0,0:0:0:0:
430,171,10430,2,0,P|463:194|478:297,1,140,10|2,2:2|1:2,0:0:0:0:
416,360,10887,2,0,P|381:359|341:356,1,70,2|8,1:2|2:2,0:0:0:0:
273,289,11192,6,0,P|232:296|196:304,1,70,2|0,1:2|0:0,0:0:0:0:
106,349,11496,2,0,L|113:383,2,35,2|2|10,1:2|2:2|2:2,0:0:0:0:
47,270,11801,1,0,1:2:0:0:
47,270,11877,1,8,2:2:0:0:
47,270,11953,2,0,P|69:232|63:192,1,70,2|2,1:2|1:2,0:0:0:0:
36,113,12258,1,10,2:2:0:0:
36,113,12410,1,2,2:2:0:0:
0,26,12562,6,0,P|53:5|102:40,1,105,2|0,1:2|0:0,0:0:0:0:
96,44,12867,2,0,P|135:40|178:34,1,70,10|0,2:2|1:2,0:0:0:0:
258,4,13171,2,0,P|297:11|347:21,1,70,2|2,1:2|1:2,0:0:0:0:
422,38,13476,1,8,2:2:0:0:
370,120,13628,6,0,P|364:158|384:198,1,70,2|0,1:2|0:0,0:0:0:0:
445,255,13933,1,2,1:2:0:0:
490,341,14085,2,0,P|453:340|398:336,1,70,10|0,2:2|1:2,0:0:0:0:
407,340,14314,1,8,2:2:0:0:
407,340,14390,1,2,1:2:0:0:
328,307,14542,1,2,1:2:0:0:
237,345,14694,2,0,P|201:351|147:350,1,70,14|0,2:2|0:0,0:0:0:0:
66,367,14999,6,0,P|84:333|74:288,1,70,6|0,1:2|0:0,0:0:0:0:
7,238,15303,2,0,B|13:192|13:192|37:152|37:152|39:100,1,140,10|2,2:2|1:2,0:0:0:0:
10,23,15760,2,0,P|54:15|87:37,1,70,2|8,1:2|2:2,0:0:0:0:
139,99,16065,6,0,P|172:93|217:83,1,70,2|0,1:2|0:0,0:0:0:0:
296,44,16369,2,0,L|303:0,2,35,2|2|10,1:2|2:2|2:2,0:0:0:0:
275,140,16674,1,0,1:2:0:0:
367,107,16826,2,0,L|439:112,1,70,2|2,1:2|1:2,0:0:0:0:
512,50,17131,1,10,2:2:0:0:
512,50,17283,1,2,2:2:0:0:
510,147,17435,6,0,P|502:196|494:265,1,105,2|0,1:2|0:0,0:0:0:0:
498,265,17740,2,0,P|459:259|419:280,1,70,10|0,2:2|1:2,0:0:0:0:
373,348,18044,2,0,P|338:342|295:338,1,70,0|0,1:1|1:1,0:0:0:0:
224,281,18349,1,10,2:2:0:0:
135,322,18501,6,0,P|126:251|182:198,1,140,2|2,1:2|1:2,0:0:0:0:
267,199,18958,2,0,P|261:165|255:125,1,70,10|0,2:2|1:2,0:0:0:0:
292,33,19263,1,2,1:2:0:0:
292,33,19415,1,2,1:2:0:0:
198,60,19567,2,0,P|152:70|125:56,1,70,14|2,2:2|2:2,0:0:0:0:
64,121,19872,6,0,P|45:81|58:8,2,112,6|2|2,1:2|2:2|2:2,0:0:0:0:
160,245,20786,2,0,P|173:298|190:375,1,112,2|0,2:2|0:0,0:0:0:0:
293,239,21395,1,2,2:2:0:0:
293,239,21547,2,0,P|335:248|369:256,1,56,2|0,0:0|0:0,0:0:0:0:
426,250,21852,2,0,P|435:292|443:326,2,56,2|2|2,2:2|2:2|2:2,0:0:0:0:
472,166,22308,6,0,P|481:124|489:90,1,56,2|2,2:2|2:2,0:0:0:0:
428,55,22613,2,0,P|419:13|411:-21,1,56,2|2,2:2|2:2,0:0:0:0:
347,110,22918,2,0,P|307:115|269:119,1,56,2|0,2:2|0:0,0:0:0:0:
233,64,23222,6,0,P|213:104|224:172,1,112,2|2,2:2|2:2,0:0:0:0:
270,231,23679,1,2,2:3:0:0:
65,346,24136,2,0,P|52:303|45:274,1,56,2|0,2:2|0:0,0:0:0:0:
1,230,24440,2,0,P|14:187|21:158,1,56,2|0,2:2|1:1,0:0:0:0:
71,120,24745,6,0,P|60:77|52:47,2,56,2|2|2,1:2|2:2|2:2,0:0:0:0:
116,190,25202,1,2,2:2:0:0:
116,190,25354,2,0,P|152:199|188:208,1,56,2|0,2:2|0:0,0:0:0:0:
235,159,25659,2,0,P|257:189|262:268,1,112,2|0,2:2|0:0,0:0:0:0:
390,354,26268,6,0,P|430:345|461:338,1,56,2|0,2:2|0:0,0:0:0:0:
508,296,26572,1,2,2:2:0:0:
431,242,26725,2,0,L|443:121,1,112,2|2,2:2|2:2,0:0:0:0:
384,77,27182,6,0,P|374:34|369:13,1,56,2|2,2:2|2:2,0:0:0:0:
318,135,27486,2,0,P|308:178|303:199,1,56,2|2,2:2|2:2,0:0:0:0:
255,70,27791,2,0,P|212:60|191:55,1,56,2|0,2:2|0:0,0:0:0:0:
135,13,28095,1,2,2:2:0:0:
70,83,28248,5,2,2:3:0:0:
206,158,28552,1,8,2:2:0:0:
134,189,28704,2,0,P|128:216|123:243,1,56,8|8,2:3|0:0,0:0:0:0:
119,263,28933,1,4,2:3:0:0:
119,263,29009,1,8,2:3:0:0:
74,356,29161,1,4,2:3:0:0:
185,361,29314,2,0,P|227:369|256:374,1,56,10|2,2:2|1:2,0:0:0:0:
316,327,29618,6,0,P|354:333|383:318,1,62.9999980773926,6|2,1:2|2:2,0:0:0:0:
453,365,29923,2,0,P|458:335|466:296,1,62.9999980773926,10|2,2:2|2:2,0:0:0:0:
418,234,30227,2,0,P|380:224|346:236,1,62.9999980773926,2|0,2:2|0:0,0:0:0:0:
265,270,30532,6,0,P|274:206|288:131,1,125.999996154785,10|0,2:2|0:0,0:0:0:0:
403,24,31141,2,0,P|366:28|326:33,1,62.9999980773926,10|0,2:2|0:0,0:0:0:0:
260,67,31445,2,0,P|229:61|175:56,1,62.9999980773926,2|0,2:2|0:0,0:0:0:0:
107,15,31750,1,10,2:2:0:0:
207,160,32055,6,0,B|69:178,1,125.999996154785,2|10,1:2|2:2,0:0:0:0:
0,208,32511,2,0,P|5:243|9:276,1,62.9999980773926,2|0,2:2|0:0,0:0:0:0:
30,356,32816,2,0,P|77:344|101:361,1,62.9999980773926,2|10,2:2|2:2,0:0:0:0:
172,378,33121,1,2,1:2:0:0:
207,297,33273,6,0,P|257:299|341:303,1,125.999996154785,2|8,2:2|2:2,0:0:0:0:
498,365,33882,2,0,P|501:333|505:290,1,62.9999980773926,2|0,2:2|0:0,0:0:0:0:
435,237,34187,1,8,2:2:0:0:
435,237,34339,1,2,1:2:0:0:
483,155,34491,6,0,P|420:135|365:191,1,125.999996154785,2|10,1:2|2:2,0:0:0:0:
324,228,34948,2,0,P|287:224|238:222,1,62.9999980773926,2|0,2:2|0:0,0:0:0:0:
201,157,35253,2,0,P|166:161|134:167,1,62.9999980773926,2|10,2:2|2:2,0:0:0:0:
69,220,35557,6,0,P|42:160|88:99,1,125.999996154785,2|0,1:2|1:1,0:0:0:0:
39,26,36014,2,0,P|73:30|114:35,1,62.9999980773926,8|0,2:2|0:0,0:0:0:0:
170,88,36319,1,6,2:3:0:0:
247,34,36471,1,0,1:1:0:0:
247,34,36547,1,0,1:1:0:0:
247,34,36623,2,0,P|278:51|341:33,1,94.499997116089,14|0,2:2|0:0,0:0:0:0:
343,29,36928,6,0,P|380:36|422:42,1,62.9999980773926,6|0,1:2|0:0,0:0:0:0:
492,24,37232,1,10,2:2:0:0:
451,109,37385,2,0,P|437:143|448:177,1,62.9999980773926,2|0,1:2|0:0,0:0:0:0:
505,237,37689,1,2,1:2:0:0:
441,306,37841,2,0,P|395:305|320:309,1,94.499997116089,14|0,2:2|0:0,0:0:0:0:
330,306,38146,5,8,2:2:0:0:
260,359,38298,2,0,P|214:366|186:347,1,62.9999980773926,4|0,1:1|0:0,0:0:0:0:
133,302,38603,1,0,1:1:0:0:
41,336,38755,2,0,P|33:270|24:202,1,125.999996154785,8|2,2:2|2:2,0:0:0:0:
10,116,39212,1,10,2:2:0:0:
95,158,39364,6,0,P|145:187|213:179,1,112,6|2,1:2|2:2,0:0:0:0:
271,158,39821,2,0,P|266:111|259:38,1,112,2|2,2:2|2:2,0:0:0:0:
360,88,40278,2,0,P|397:97|487:119,1,112,2|2,2:2|2:2,0:0:0:0:
505,184,40735,2,0,P|468:193|378:215,1,112,2|2,2:2|2:2,0:0:0:0:
321,235,41192,2,0,P|315:268|309:306,1,56,2|0,2:2|0:0,0:0:0:0:
239,320,41496,2,0,P|245:353|251:391,1,56,2|2,2:2|1:2,0:0:0:0:
148,270,41801,6,0,P|128:227|142:171,1,84,2|0,1:2|0:0,0:0:0:0:
158,172,42105,2,0,P|180:134|168:50,2,112,2|2|2,2:2|2:2|2:2,0:0:0:0:
9,41,43019,6,0,P|60:26|129:8,1,112,2|2,2:2|2:2,0:0:0:0:
271,77,43628,2,0,P|285:27|293:3,1,56,2|0,2:2|0:0,0:0:0:0:
302,17,43857,1,2,2:2:0:0:
302,17,43933,2,0,P|352:31|376:39,1,56,2|2,2:2|2:2,0:0:0:0:
446,8,44237,6,0,P|463:51|446:123,1,112,0|2,1:1|2:2,0:0:0:0:
385,156,44694,1,0,0:0:0:0:
431,219,44847,2,0,P|470:235|495:247,1,56,2|0,2:2|0:0,0:0:0:0:
424,322,45151,6,0,P|377:340|312:328,1,112,2|2,2:2|2:2,0:0:0:0:
266,270,45608,1,0,0:0:0:0:
199,310,45760,2,0,P|160:327|131:339,1,56,2|0,2:2|0:0,0:0:0:0:
77,296,46065,2,0,P|38:313|9:325,1,56,2|0,2:2|0:0,0:0:0:0:
129,219,46369,1,2,2:2:0:0:
129,219,46522,1,0,1:1:0:0:
36,188,46674,6,0,P|14:145|28:67,1,112,2|2,1:2|2:2,0:0:0:0:
54,12,47131,2,0,P|118:24|176:32,1,112
223,83,47588,2,0,P|263:77|296:72,1,56,2|0,2:2|1:1,0:0:0:0:
161,150,47892,6,0,P|146:188|163:271,1,112,2|2,2:2|2:2,0:0:0:0:
213,309,48349,1,0,1:1:0:0:
278,265,48501,2,0,P|286:224|293:192,1,56,2|0,2:2|0:0,0:0:0:0:
353,320,48806,2,0,P|361:361|368:393,1,56,2|0,1:2|0:0,0:0:0:0:
431,268,49110,5,2,1:2:0:0:
431,268,52765,5,12,2:2:0:0:
493,191,52918,1,8,2:2:0:0:
493,191,52994,1,8,2:2:0:0:
493,191,53070,2,0,L|506:142,3,35,2|0|8|8,1:2|1:1|2:2|2:2,0:0:0:0:
488,134,53374,2,0,L|475:85,3,35,10|8|8|8,2:3|2:3|2:3|2:3,0:0:0:0:
458,81,53679,2,0,P|468:40|478:2,1,70,6|8,2:3|2:3,0:0:0:0:
363,114,53984,6,0,P|323:124|231:86,1,140,4|8,1:1|2:2,0:0:0:0:
168,16,54440,1,0,1:2:0:0:
168,16,54517,1,8,2:2:0:0:
168,16,54593,2,0,P|111:28|80:34,1,70,0|0,1:1|1:1,0:0:0:0:
68,123,54897,2,0,P|11:111|-20:105,1,70,8|0,2:2|0:0,0:0:0:0:
115,221,55202,6,0,P|127:278|133:309,1,70,0|0,1:1|1:1,0:0:0:0:
192,364,55506,2,0,P|251:373|332:383,1,140,8|4,2:2|1:3,0:0:0:0:
429,331,55963,1,0,1:1:0:0:
429,331,56039,1,0,1:1:0:0:
429,331,56116,2,0,P|485:323|522:318,1,70,12|0,2:2|1:1,0:0:0:0:
348,246,56420,6,0,P|334:192|311:88,1,140,6|0,1:3|1:1,0:0:0:0:
187,165,56877,2,0,P|201:111|224:7,1,140,10|0,1:2|1:2,0:0:0:0:
102,97,57334,1,10,1:2:0:0:
102,97,58857,6,0,P|93:155|83:212,1,115.50000352478,6|0,1:2|0:0,0:0:0:0:
78,223,59161,2,0,P|116:240|129:280,1,77.0000023498536,10|0,2:2|0:0,0:0:0:0:
41,374,59466,2,0,P|36:332|64:301,1,77.0000023498536,2|0,1:2|1:1,0:0:0:0:
150,356,59770,2,0,P|189:351|310:338,1,154.000004699707,2|0,2:2|0:0,0:0:0:0:
393,284,60227,5,0,1:1:0:0:
480,353,60380,2,0,P|501:319|463:239,1,115.50000352478,10|8,2:2|2:2,0:0:0:0:
468,249,60684,2,0,L|478:167,1,77.0000023498536,2|0,1:2|1:1,0:0:0:0:
511,69,60989,2,0,P|461:36|391:78,1,115.50000352478,10|0,2:2|0:0,0:0:0:0:
405,67,61293,6,0,P|368:64|299:58,1,77.0000023498536,6|0,1:2|0:0,0:0:0:0:
240,124,61598,2,0,P|192:111|170:78,1,77.0000023498536,8|8,2:2|0:3,0:0:0:0:
88,27,61902,2,0,P|90:67|95:119,1,77.0000023498536,2|0,1:2|1:1,0:0:0:0:
16,179,62207,1,0,0:0:0:0:
23,297,62359,5,10,2:2:0:0:
23,297,62435,1,4,0:3:0:0:
23,297,62511,2,0,P|34:348|42:388,1,77.0000023498536,0|0,1:1|1:1,0:0:0:0:
134,283,62816,2,0,P|179:292|194:322,1,77.0000023498536,8|0,2:2|0:0,0:0:0:0:
293,374,63121,2,0,P|332:365|379:357,1,77.0000023498536,2|0,1:2|1:1,0:0:0:0:
451,290,63425,2,0,P|485:326|481:361,1,77.0000023498536,14|0,2:2|0:0,0:0:0:0:
376,285,63730,6,0,P|387:210|399:129,1,154.000004699707,6|8,1:2|2:2,0:0:0:0:
455,40,64187,1,2,2:2:0:0:
349,58,64339,2,0,P|311:72|263:51,1,77.0000023498536,0|0,1:1|1:1,0:0:0:0:
176,23,64643,6,0,B|149:66|168:106|191:88|210:135|191:173,1,154.000004699707,2|0,2:2|0:0,0:0:0:0:
152,266,65100,1,0,1:1:0:0:
96,358,65253,2,0,P|155:355|224:354,1,115.50000352478,10|0,2:2|0:0,0:0:0:0:
226,349,65557,1,2,1:2:0:0:
315,291,65709,1,0,1:1:0:0:
411,340,65862,2,0,P|426:302|403:258,1,77.0000023498536,14|0,2:2|0:0,0:0:0:0:
345,187,66166,6,0,L|376:18,1,154.000004699707,6|10,1:2|2:2,0:0:0:0:
271,112,66623,2,0,P|226:125|182:101,1,77.0000023498536,6|0,1:2|0:0,0:0:0:0:
126,34,66928,1,2,1:2:0:0:
19,15,67080,6,0,P|8:61|91:128,1,154.000004699707,14|0,2:2|1:1,0:0:0:0:
161,197,67537,2,0,L|132:281,1,77.0000023498536,10|0,2:2|1:1,0:0:0:0:
64,350,67841,1,8,2:3:0:0:
64,350,67918,1,8,2:3:0:0:
64,350,67994,2,0,P|98:372|160:359,1,77.0000023498536,2|2,1:2|1:2,0:0:0:0:
240,314,68298,1,12,2:2:0:0:
240,314,68451,1,0,0:0:0:0:
362,368,68603,6,0,P|388:329|379:242,1,115.50000352478,6|0,1:2|0:0,0:0:0:0:
375,241,68907,2,0,P|331:229|294:221,1,77.0000023498536,10|2,2:2|0:0,0:0:0:0:
432,167,69212,2,0,P|476:155|513:147,1,77.0000023498536,2|0,1:2|1:1,0:0:0:0:
375,65,69517,2,0,P|328:42|217:91,1,154.000004699707,2|0,2:2|0:0,0:0:0:0:
179,161,69973,5,0,1:1:0:0:
107,79,70126,2,0,P|77:121|78:197,1,115.50000352478,10|0,2:2|0:0,0:0:0:0:
82,208,70430,2,0,P|95:256|104:293,1,77.0000023498536,2|0,1:2|1:1,0:0:0:0:
198,368,70735,2,0,P|216:300|229:248,1,115.50000352478,10|0,2:2|0:0,0:0:0:0:
244,237,71039,6,0,P|236:187|217:79,1,154.000004699707,2|8,1:2|2:2,0:0:0:0:
335,155,71496,1,0,0:0:0:0:
419,87,71649,2,0,P|426:35|431:-3,1,77.0000023498536,2|0,1:2|1:1,0:0:0:0:
503,158,71953,1,0,0:0:0:0:
503,158,72105,1,10,2:2:0:0:
452,254,72258,6,0,P|409:266|370:276,1,77.0000023498536,2|0,1:2|1:1,0:0:0:0:
314,377,72562,2,0,P|275:355|240:334,1,77.0000023498536,10|2,2:2|0:0,0:0:0:0:
198,241,72867,2,0,P|139:247|66:262,1,115.50000352478,2|0,1:2|0:0,0:0:0:0:
76,283,73171,2,0,P|33:278|-19:267,1,77.0000023498536,14|0,2:2|0:0,0:0:0:0:
38,167,73476,5,6,1:2:0:0:
169,9,73781,2,0,P|242:18|289:96,1,154.000004699707,10|2,2:2|1:2,0:0:0:0:
340,173,74237,1,0,1:1:0:0:
392,78,74390,2,0,P|439:85|474:91,1,77.0000023498536,2|8,2:2|2:2,0:0:0:0:
482,196,74694,6,0,P|501:232|480:351,1,154.000004699707,2|8,2:2|2:2,0:0:0:0:
378,342,75151,2,0,P|334:334|199:316,1,154.000004699707,2|0,2:2|1:1,0:0:0:0:
128,271,75608,2,0,P|115:319|118:354,1,77.0000023498536,10|0,2:2|0:0,0:0:0:0:
224,233,75912,6,0,P|224:194|212:158,1,77.0000023498536,0|0,1:1|0:0,0:0:0:0:
169,58,76217,2,0,P|105:30|9:63,1,154.000004699707,8|0,2:2|1:1,0:0:0:0:
4,155,76674,1,0,1:1:0:0:
105,191,76826,2,0,P|151:181|195:173,1,77.0000023498536,2|8,2:2|2:2,0:0:0:0:
271,117,77131,6,0,P|324:125|410:137,1,115.50000352478,2|0,1:2|0:0,0:0:0:0:
416,139,77435,2,0,P|431:88|443:46,1,77.0000023498536,10|2,2:2|0:0,0:0:0:0:
508,175,77740,2,0,P|520:226|496:295,1,115.50000352478,2|0,1:2|0:0,0:0:0:0:
477,296,78044,2,0,P|463:353|458:379,1,77.0000023498536,14|0,2:2|1:1,0:0:0:0:
370,263,78349,6,0,P|356:206|351:180,1,77.0000023498536,14|0,2:2|0:0,0:0:0:0:
331,55,78654,2,0,P|374:40|416:29,1,77.0000023498536,10|0,2:2|1:1,0:0:0:0:
281,136,78958,2,0,P|238:121|196:110,1,77.0000023498536,10|0,2:2|1:1,0:0:0:0:
119,17,79263,2,0,P|70:43|44:121,1,115.50000352478,10|0,2:2|0:0,0:0:0:0:
51,120,79567,5,8,1:3:0:0:
122,207,79720,1,0,1:1:0:0:
38,308,79872,1,14,2:2:0:0:
407,359,80786,6,0,P|418:316|429:270,1,70,6|0,1:2|0:0,0:0:0:0:
492,220,81090,2,0,P|484:169|465:75,1,140,10|0,2:2|1:1,0:0:0:0:
368,74,81547,2,0,P|372:48|381:1,1,70,2|8,1:2|2:2,0:0:0:0:
268,87,81852,6,0,P|211:96|178:102,1,70,2|0,1:2|0:0,0:0:0:0:
110,56,82156,2,0,L|116:15,2,35,2|2|10,1:2|2:2|2:2,0:0:0:0:
39,123,82461,1,0,1:2:0:0:
39,123,82537,1,8,2:2:0:0:
39,123,82613,2,0,P|49:173|57:207,1,70,2|2,1:2|1:2,0:0:0:0:
10,282,82918,1,10,2:2:0:0:
10,282,83070,1,2,2:2:0:0:
88,340,83222,6,0,P|140:347|206:356,1,105,2|0,1:2|0:0,0:0:0:0:
210,331,83527,2,0,P|265:319|291:314,1,70,10|0,2:2|1:2,0:0:0:0:
171,225,83831,2,0,P|116:213|90:208,1,70,2|2,1:2|1:2,0:0:0:0:
247,153,84136,1,8,2:2:0:0:
174,87,84288,6,0,P|161:27|156:3,1,70,2|0,1:2|0:0,0:0:0:0:
263,116,84593,1,2,1:2:0:0:
334,46,84745,2,0,P|381:40|416:37,1,70,10|0,2:2|1:0,0:0:0:0:
428,37,84973,1,8,2:2:0:0:
428,37,85050,1,2,1:2:0:0:
492,110,85202,1,2,1:2:0:0:
437,191,85354,2,0,P|429:235|423:274,1,70,14|0,2:2|0:0,0:0:0:0:
338,306,85659,6,0,P|346:350|352:389,1,70,6|0,1:2|0:0,0:0:0:0:
247,279,85963,2,0,P|222:232|235:143,1,140,10|0,2:2|1:1,0:0:0:0:
313,92,86420,2,0,P|321:42|326:9,1,70,2|8,1:2|2:2,0:0:0:0:
206,66,86725,6,0,P|166:77|119:90,1,70,2|0,1:2|0:0,0:0:0:0:
51,39,87029,2,0,L|37:-3,2,35,2|2|10,1:2|2:2|2:2,0:0:0:0:
4,125,87334,1,2,2:2:0:0:
43,214,87486,2,0,P|94:203|133:195,1,70,2|2,1:2|1:2,0:0:0:0:
199,152,87791,1,10,2:2:0:0:
199,152,87943,1,2,2:2:0:0:
205,249,88095,6,0,P|257:262|292:270,1,70,2|2,2:2|2:2,0:0:0:0:
335,177,88400,1,2,2:2:0:0:
440,245,88552,2,0,P|461:298|431:377,1,140,2|2,2:2|2:2,0:0:0:0:
364,303,89009,1,2,2:2:0:0:
294,372,89161,5,2,2:2:0:0:
