osu file format v14

[General]
AudioFilename: audio.mp3
AudioLeadIn: 0
PreviewTime: 57334
Countdown: 0
SampleSet: Soft
StackLeniency: 0.5
Mode: 0
LetterboxInBreaks: 0
WidescreenStoryboard: 1

[Editor]
Bookmarks: 10049,19795,29541,39287,49033,52688,58780,78272,80709
DistanceSpacing: 1.4
BeatDivisor: 4
GridSize: 32
TimelineZoom: 1.8

[Metadata]
Title:Tentou (TV Size)
TitleUnicode:天灯 (TV Size)
Artist:sajou no hana
ArtistUnicode:sajou no hana
Creator:- Ex -
Version:Aakki's Insane
Source:ダンジョンに出会いを求めるのは間違っているだろうかⅣ 新章 迷宮篇
Tags:Aakki finnish bn Pado -_Ex_- Kowari ShayKs Danmachi Is It Wrong to Try to Pick Up Girls in a Dungeon ni Deai wo Motomeru no wa Machigatteiru Darou ka shin fumi meikyuu hen IV New Chapter: The Labyrinth myth familia anime japanese JPop J-Pop Pop op opening watanabe sho kitani tatsuya sana Hestia
BeatmapID:3721434
BeatmapSetID:1813053

[Difficulty]
HPDrainRate:5
CircleSize:4.3
OverallDifficulty:7.5
ApproachRate:8
SliderMultiplier:1.55
SliderTickRate:1

[Events]
//Background and Video events
0,0,"bg.jpg",0,0
Video,-500,"video.mp4"
//Break Periods
2,49310,51863
//Storyboard Layer 0 (Background)
//Storyboard Layer 1 (Fail)
//Storyboard Layer 2 (Pass)
//Storyboard Layer 3 (Foreground)
//Storyboard Layer 4 (Overlay)
//Storyboard Sound Samples

[TimingPoints]
380,304.568527918782,4,2,1,50,1,0
380,-125,4,2,1,50,0,0
9136,-125,4,2,2,50,0,0
10050,-125,4,2,2,5,0,0
10126,-100,4,2,1,70,0,0
12791,-100,4,2,1,5,0,0
12867,-100,4,2,1,70,0,0
14694,-100,4,2,2,70,0,0
14923,-100,4,2,2,5,0,0
14999,-100,4,2,1,70,0,0
19567,-100,4,2,2,70,0,0
19872,-125,4,2,2,40,0,0
21775,-125,4,2,2,5,0,0
21852,-125,4,2,2,40,0,0
28019,-125,4,2,2,5,0,0
28095,-125,4,2,2,40,0,0
28400,-125,4,2,3,40,0,0
28476,-125,4,2,1,40,0,0
29314,-125,4,2,3,40,0,0
29618,-111.111111111111,4,2,1,50,0,0
29923,-111.111111111111,4,2,1,50,0,0
32283,-111.111111111111,4,2,1,5,0,0
32359,-111.111111111111,4,2,1,50,0,0
36623,-111.111111111111,4,2,2,50,0,0
36852,-111.111111111111,4,2,2,5,0,0
36928,-111.111111111111,4,2,1,65,0,0
38298,-111.111111111111,4,2,2,65,0,0
38374,-111.111111111111,4,2,1,65,0,0
39364,-125,4,2,1,55,0,0
39669,-125,4,2,4,55,0,0
39821,-125,4,2,1,55,0,0
39973,-125,4,2,4,55,0,0
40126,-125,4,2,1,55,0,0
40278,-125,4,2,4,55,0,0
40735,-125,4,2,1,55,0,0
40887,-125,4,2,4,55,0,0
41039,-125,4,2,1,55,0,0
41192,-125,4,2,4,55,0,0
41649,-125,4,2,1,55,0,0
41801,-125,4,2,4,55,0,0
42029,-125,4,2,4,5,0,0
42105,-125,4,2,4,55,0,0
46598,-125,4,2,4,5,0,0
46674,-125,4,2,4,55,0,0
48197,-125,4,2,1,55,0,0
49110,-125,4,2,1,30,0,0
52765,-100,4,2,1,55,0,0
53070,-100,4,2,1,60,0,0
53374,-100,4,2,1,65,0,0
53831,-100,4,2,2,60,0,0
53984,-100,4,2,2,70,0,0
55811,-100,4,2,1,70,0,0
56877,-100,4,2,3,70,0,0
57334,-100,4,2,2,70,0,0
57638,-100,4,2,2,50,0,0
58781,-100,4,2,2,5,0,0
58857,-90.9090909090909,4,2,1,80,0,0
61522,-90.9090909090909,4,2,1,5,0,0
61598,-90.9090909090909,4,2,1,80,0,0
63425,-90.9090909090909,4,2,2,80,0,0
63654,-90.9090909090909,4,2,2,5,0,0
63730,-90.9090909090909,4,2,1,80,0,0
66090,-90.9090909090909,4,2,1,5,0,0
66166,-90.9090909090909,4,2,2,80,0,0
66623,-90.9090909090909,4,2,1,80,0,0
67080,-90.9090909090909,4,2,2,80,0,0
67841,-90.9090909090909,4,2,1,80,0,0
68298,-90.9090909090909,4,2,2,80,0,0
68527,-90.9090909090909,4,2,2,5,0,0
68603,-90.9090909090909,4,2,1,80,0,0
69136,-90.9090909090909,4,2,1,80,0,0
69212,-90.9090909090909,4,2,1,80,0,0
70963,-90.9090909090909,4,2,1,5,0,0
71039,-90.9090909090909,4,2,1,80,0,0
73171,-90.9090909090909,4,2,2,80,0,0
73400,-90.9090909090909,4,2,2,5,0,0
73476,-90.9090909090909,4,2,1,80,0,0
77359,-90.9090909090909,4,2,1,5,0,0
77435,-90.9090909090909,4,2,1,80,0,0
78044,-90.9090909090909,4,2,2,80,0,0
78273,-90.9090909090909,4,2,2,80,0,0
78349,-90.9090909090909,4,2,1,80,0,0
79491,-90.9090909090909,4,2,1,5,0,0
79567,-90.9090909090909,4,2,1,80,0,0
80786,-100,4,2,1,60,0,0
83451,-100,4,2,1,5,0,0
83527,-100,4,2,1,60,0,0
85354,-100,4,2,2,60,0,0
85583,-100,4,2,2,5,0,0
85659,-100,4,2,1,60,0,0
88095,-100,4,2,1,40,0,0

[Colours]
Combo1 : 240,140,140
Combo2 : 200,180,220
Combo3 : 240,200,155
Combo4 : 150,185,220

[HitObjects]
44,67,380,6,0,B|108:51|90:32|166:19,1,124,2|2,2:2|2:2,0:0:0:0:
212,94,836,2,0,P|167:110|152:120,2,62,2|0|2,2:2|0:0|2:2,0:0:0:0:
286,25,1293,6,0,P|302:102|320:158,1,124,2|2,2:2|2:2,0:0:0:0:
392,201,1750,2,0,P|426:197|441:164,2,62,2|0|2,2:2|0:0|2:2,0:0:0:0:
287,299,2207,5,2,2:2:0:0:
265,379,2511,1,2,2:2:0:0:
287,299,2816,6,0,P|277:262|266:174,1,124,2|2,2:2|2:2,0:0:0:0:
218,109,3273,1,2,2:2:0:0:
210,121,3425,2,0,P|177:141|149:149,1,62,2|2,2:2|2:2,0:0:0:0:
151,30,3730,6,0,P|179:57|323:87,1,186,2|2,2:2|2:2,0:0:0:0:
318,88,4491,5,0,0:0:0:0:
395,55,4643,2,0,P|403:25|419:0,1,62,2|2,2:2|2:2,0:0:0:0:
419,0,4948,1,2,2:2:0:0:
495,146,5100,5,8,2:2:0:0:
491,161,5176,1,8,2:2:0:0:
488,176,5253,1,2,1:2:0:0:
420,261,5405,2,0,P|390:240|389:159,1,124,0|2,1:1|2:2,0:0:0:0:
512,270,5862,2,0,P|491:310|464:387,1,124,8|2,2:2|1:2,0:0:0:0:
325,357,6319,6,0,B|263:341|287:317|205:299,1,124,0|10,1:1|2:2,0:0:0:0:
151,340,6775,1,0,0:0:0:0:
34,273,6928,5,2,1:2:0:0:
23,257,7004,1,0,1:2:0:0:
22,238,7080,1,10,2:2:0:0:
139,146,7232,1,8,2:2:0:0:
74,87,7385,2,0,P|69:126|59:149,1,62,2|0,2:2|0:0,0:0:0:0:
183,255,7689,5,2,1:2:0:0:
235,190,7841,2,0,B|211:126|246:134|217:53,1,124,2|2,1:2|2:2,0:0:0:0:
291,7,8298,2,0,P|326:25|362:35,1,62,10|2,2:2|2:2,0:0:0:0:
502,118,8603,5,14,2:2:0:0:
356,212,8755,1,0,1:1:0:0:
414,78,8907,1,10,2:3:0:0:
417,96,8984,1,8,2:3:0:0:
419,114,9060,1,6,2:3:0:0:
422,132,9136,1,8,2:3:0:0:
426,150,9212,1,14,2:2:0:0:
27,347,9517,6,0,B|26:347|29:347|18:336|-2:334,1,31,2|0,2:2|0:0,0:0:0:0:
38,354,9669,2,0,B|49:368|74:366|74:366|25:319|53:242,1,155,2|0,2:2|0:0,0:0:0:0:
66,245,10126,6,0,P|118:266|152:287,1,77.5,6|0,1:2|0:0,0:0:0:0:
243,368,10430,2,0,B|213:279|261:294|226:190,1,155,10|2,2:2|1:2,0:0:0:0:
181,160,10887,1,2,1:2:0:0:
282,18,11039,1,8,2:2:0:0:
124,65,11192,6,0,B|207:98|195:51|285:104,1,155,2|2,1:2|1:2,0:0:0:0:
287,115,11572,1,2,2:2:0:0:
287,115,11649,1,10,2:2:0:0:
401,213,11801,1,0,1:2:0:0:
420,224,11877,1,8,2:2:0:0:
443,222,11953,1,2,1:2:0:0:
501,170,12105,1,2,1:2:0:0:
448,63,12258,2,0,P|445:101|427:143,1,77.5,10|2,2:2|2:2,0:0:0:0:
491,345,12562,6,0,B|481:316|442:310|430:338|402:338|369:297,1,116.25,2|0,1:2|0:0,0:0:0:0:
368,302,12867,1,10,2:2:0:0:
233,379,13019,1,0,1:2:0:0:
211,370,13095,1,8,2:2:0:0:
190,359,13171,1,2,1:2:0:0:
87,291,13324,1,2,1:2:0:0:
131,223,13476,1,8,2:2:0:0:
24,219,13628,6,0,P|88:237|171:297,1,155,2|2,1:2|1:2,0:0:0:0:
287,136,14085,2,0,P|244:156|214:164,1,77.5,10|0,2:2|1:2,0:0:0:0:
193,155,14314,1,8,2:2:0:0:
193,155,14390,1,2,1:2:0:0:
266,237,14542,1,2,1:2:0:0:
369,76,14694,6,0,B|392:135|354:123|393:211,1,116.25,14|0,2:2|0:0,0:0:0:0:
404,207,14999,6,0,P|460:176|504:173,1,77.5,6|0,1:2|0:0,0:0:0:0:
356,73,15303,2,0,P|300:104|256:107,1,77.5,10|0,2:2|0:0,0:0:0:0:
124,71,15608,1,2,1:2:0:0:
164,0,15760,2,0,P|203:36|207:74,1,77.5,2|8,1:2|2:2,0:0:0:0:
138,199,16065,6,0,B|110:182|82:182|82:182|62:157|62:157|31:162|-1:141,1,155,2|2,1:2|1:2,0:0:0:0:
1,142,16522,1,10,2:2:0:0:
56,250,16674,2,0,P|36:274|21:282,1,38.75,0|8,1:2|2:2,0:0:0:0:
24,364,16826,2,0,P|64:344|98:336,1,77.5,2|2,1:2|1:2,0:0:0:0:
210,376,17131,1,10,2:2:0:0:
282,334,17283,1,2,2:2:0:0:
237,200,17435,5,2,1:2:0:0:
196,260,17588,1,0,0:0:0:0:
296,145,17740,2,0,P|277:97|271:65,1,77.5,10|0,2:2|1:2,0:0:0:0:
212,28,18044,1,0,1:1:0:0:
351,82,18197,1,0,1:1:0:0:
201,25,18349,5,10,2:2:0:0:
142,71,18501,2,0,B|98:79|62:44|94:34|61:-9|-15:3,1,155,2|2,1:2|1:2,0:0:0:0:
37,235,18958,5,10,2:2:0:0:
4,150,19110,1,0,1:2:0:0:
111,227,19263,1,2,1:2:0:0:
21,324,19415,1,2,1:2:0:0:
95,377,19567,6,0,B|190:359|138:341|259:317,1,155,14|6,2:2|1:2,0:0:0:0:
469,202,20176,5,2,2:2:0:0:
469,202,20481,2,0,P|441:226|413:233,1,62,2|0,2:2|0:0,0:0:0:0:
339,195,20786,2,0,P|361:98|366:55,1,124,2|0,2:2|0:0,0:0:0:0:
364,73,21395,5,2,2:2:0:0:
301,21,21547,2,0,P|266:41|195:53,1,93,2|0,0:0|0:0,0:0:0:0:
207,60,21852,2,0,P|227:88|230:114,1,62,2|2,2:2|2:2,0:0:0:0:
182,184,22156,1,2,2:2:0:0:
182,184,22232,1,2,2:2:0:0:
182,184,22308,6,0,P|145:168|117:159,1,62,2|2,2:2|2:2,0:0:0:0:
36,144,22613,2,0,P|56:199|60:214,1,62,2|2,2:2|2:2,0:0:0:0:
79,281,22918,2,0,P|111:256|131:243,1,62,2|0,2:2|0:0,0:0:0:0:
273,198,23222,6,0,P|255:234|238:321,1,124,2|2,2:2|2:2,0:0:0:0:
238,315,24136,6,0,P|232:280|218:248,1,62,2|0,2:2|0:0,0:0:0:0:
316,325,24440,2,0,P|322:360|336:392,1,62,2|0,2:2|1:1,0:0:0:0:
456,289,24745,5,2,1:2:0:0:
456,289,24897,1,2,2:2:0:0:
405,232,25050,1,2,2:2:0:0:
432,167,25202,1,2,2:2:0:0:
381,88,25354,6,0,P|351:105|311:114,1,62,2|0,2:2|0:0,0:0:0:0:
221,47,25659,1,2,2:2:0:0:
287,0,25811,2,0,B|302:73|284:57|309:130,1,124
250,228,26268,6,0,P|222:207|126:184,2,124,2|2|0,2:2|2:2|0:0,0:0:0:0:
250,228,27182,6,0,P|236:268|208:281,1,62,2|2,2:2|2:2,0:0:0:0:
186,353,27486,2,0,P|153:335|146:304,1,62,2|2,2:2|2:2,0:0:0:0:
78,262,27791,2,0,P|95:215|100:162,1,93,2|0,2:2|0:0,0:0:0:0:
94,154,28095,1,2,2:2:0:0:
186,30,28248,2,0,P|167:75|160:105,1,62,2|0,2:3|0:0,0:0:0:0:
163,87,28552,5,8,2:2:0:0:
307,30,28704,1,8,2:3:0:0:
230,148,28857,1,8,0:0:0:0:
233,166,28933,1,4,2:3:0:0:
236,184,29009,5,8,2:3:0:0:
190,267,29161,1,4,2:3:0:0:
247,321,29314,1,10,2:2:0:0:
216,384,29466,1,2,1:2:0:0:
331,379,29618,6,0,B|398:362|376:328|466:312,2,139.499995742798,6|10|2,1:2|2:2|2:2,0:0:0:0:
269,304,30380,1,0,0:0:0:0:
341,189,30532,1,10,2:2:0:0:
284,136,30684,6,0,P|265:57|259:-8,1,139.499995742798
137,132,31141,2,0,P|173:139|209:165,1,69.749997871399,10|0,2:2|0:0,0:0:0:0:
129,37,31445,2,0,P|93:30|57:4,1,69.749997871399,2|0,2:2|0:0,0:0:0:0:
5,85,31750,2,0,P|-2:127|29:149,1,69.749997871399,10|2,2:2|0:0,0:0:0:0:
139,224,32055,6,0,P|102:251|29:247,1,104.624996807098,2|0,1:2|0:0,0:0:0:0:
30,254,32359,1,10,2:2:0:0:
133,368,32511,2,0,B|156:293|131:304|158:215,1,139.499995742798,2|2,2:2|2:2,0:0:0:0:
229,142,32968,1,10,2:2:0:0:
181,89,33121,1,2,1:2:0:0:
286,2,33273,6,0,P|268:41|260:80,1,69.749997871399,2|0,2:2|0:0,0:0:0:0:
349,137,33577,2,0,B|426:113|393:85|491:66,1,139.499995742798,8|2,2:2|2:2,0:0:0:0:
485,71,34034,2,0,P|511:100|510:135,1,69.749997871399,0|8,0:0|2:2,0:0:0:0:
407,246,34339,1,2,1:2:0:0:
328,213,34491,5,2,1:2:0:0:
495,383,34796,1,10,2:2:0:0:
422,353,34948,2,0,B|350:375|365:336|275:361,1,139.499995742798,2|2,2:2|2:2,0:0:0:0:
151,290,35405,1,10,2:2:0:0:
195,231,35557,6,0,P|209:192|223:94,1,139.499995742798,2|0,1:2|1:1,0:0:0:0:
99,40,36014,2,0,P|85:79|71:177,1,139.499995742798,8|6,2:2|2:3,0:0:0:0:
52,322,36471,5,0,1:1:0:0:
52,322,36547,1,0,1:1:0:0:
52,322,36623,2,0,B|109:312|94:297|158:288,1,104.624996807098,14|0,2:2|0:0,0:0:0:0:
170,308,36928,6,0,P|231:325|306:377,1,139.499995742798,6|10,1:2|2:2,0:0:0:0:
429,210,37385,2,0,P|381:212|324:300,1,139.499995742798,2|2,1:2|1:2,0:0:0:0:
206,180,37841,6,0,B|183:97|213:116|178:12,1,139.499995742798,14|8,2:2|2:2,0:0:0:0:
9,179,38298,2,0,B|26:191|60:192|60:192|84:216|84:216|113:212|145:228,1,139.499995742798,4|0,1:1|1:1,0:0:0:0:
302,363,38755,5,8,2:2:0:0:
370,315,38907,2,0,B|283:346|329:297|222:336,1,139.499995742798,0|10,1:1|2:2,0:0:0:0:
40,378,39364,5,6,1:2:0:0:
40,378,39669,1,2,2:2:0:0:
90,327,39821,2,0,P|73:284|74:198,1,124,2|2,2:2|2:2,0:0:0:0:
0,145,40278,2,0,B|62:118|54:152|131:116,1,124,2|2,2:2|2:2,0:0:0:0:
214,42,40735,2,0,B|212:67|198:90|198:90|207:121|207:121|191:150|188:175,1,124,2|2,2:2|2:2,0:0:0:0:
264,265,41192,5,2,2:2:0:0:
196,238,41344,1,0,0:0:0:0:
116,328,41496,1,2,2:2:0:0:
171,378,41649,1,2,1:2:0:0:
326,346,41801,6,0,B|384:348|376:306|453:312,3,124,2|2|2|2,1:2|2:2|2:2|2:2,0:0:0:0:
442,311,43019,6,0,P|470:278|464:249,1,62,2|0,2:2|0:0,0:0:0:0:
440,172,43324,2,0,P|407:182|368:192,1,62,2|0,2:2|0:0,0:0:0:0:
276,124,43628,6,0,P|265:90|262:58,1,62,2|0,2:2|0:0,0:0:0:0:
326,4,43933,2,0,P|359:14|398:24,1,62,2|2,2:2|2:2,0:0:0:0:
507,57,44237,6,0,P|471:62|388:117,1,124,0|2,1:1|2:2,0:0:0:0:
396,106,44847,2,0,P|411:147|416:172,1,62,2|0,2:2|0:0,0:0:0:0:
507,206,45151,2,0,P|492:165|487:140,1,62,2|0,2:2|0:0,0:0:0:0:
393,253,45456,6,0,P|361:236|261:220,2,124,2|2|2,2:2|2:2|2:2,0:0:0:0:
393,253,46217,1,0,0:0:0:0:
493,369,46369,2,0,P|473:336|492:269,1,93,2|0,2:2|0:0,0:0:0:0:
480,283,46674,6,0,P|461:317|366:338,1,124,2|2,1:2|2:2,0:0:0:0:
270,381,47131,2,0,B|294:314|267:326|292:257,1,124
352,199,47588,2,0,P|338:172|328:124,1,62,2|0,2:2|1:1,0:0:0:0:
139,42,48197,6,0,P|93:56|73:126,2,124,2|2|2,2:2|2:2|1:2,0:0:0:0:
139,42,49110,1,2,1:2:0:0:
139,42,52613,5,0,1:1:0:0:
147,62,52689,1,0,1:1:0:0:
157,87,52765,1,12,2:2:0:0:
105,152,52918,1,8,2:2:0:0:
236,61,53070,1,2,1:2:0:0:
139,232,53222,1,8,2:2:0:0:
299,123,53374,1,10,2:3:0:0:
324,133,53451,1,8,2:3:0:0:
349,141,53527,1,8,2:3:0:0:
374,149,53603,1,8,2:3:0:0:
399,157,53679,2,0,L|447:142,3,38.75,6|4|8|8,2:3|2:3|2:3|2:3,0:0:0:0:
363,263,53984,6,0,P|369:314|382:345,1,77.5,4|0,1:1|1:1,0:0:0:0:
512,307,54288,2,0,P|506:256|493:225,1,77.5,8|0,2:2|1:2,0:0:0:0:
481,208,54517,1,8,2:2:0:0:
481,209,54593,1,0,1:1:0:0:
393,25,54745,1,0,1:1:0:0:
457,71,54897,2,0,P|438:132|434:165,1,77.5,8|0,2:2|0:0,0:0:0:0:
363,263,55202,6,0,P|317:302|281:295,1,77.5,0|0,1:1|1:1,0:0:0:0:
96,168,55506,2,0,B|119:184|150:183|150:183|176:218|176:218|216:219|241:231,1,155,8|4,2:2|1:3,0:0:0:0:
255,219,55887,1,4,1:3:0:0:
255,219,55963,2,0,P|261:192|266:172,1,38.75,0|0,1:1|1:1,0:0:0:0:
246,4,56116,2,0,P|211:35|210:86,1,77.5,12|0,2:2|1:1,0:0:0:0:
394,220,56420,6,0,P|440:206|452:104,1,155,6|0,1:3|1:1,0:0:0:0:
402,0,56877,2,0,B|304:25|330:-7|229:26,1,155,10|0,1:2|1:2,0:0:0:0:
130,140,57334,6,0,B|151:149|162:198|162:198|174:165|167:143|135:125,1,155,10|0,1:2|0:0,0:0:0:0:
136,126,58552,6,0,B|100:142|80:140|80:140|62:110|30:108,1,116.25,2|0,2:2|0:0,0:0:0:0:
33,108,58857,6,0,P|23:159|7:196,1,85.2500026016236,6|0,1:2|0:0,0:0:0:0:
92,332,59161,2,0,P|102:281|118:244,1,85.2500026016236,10|0,2:2|0:0,0:0:0:0:
271,172,59466,1,2,1:2:0:0:
309,250,59618,2,0,P|355:264|393:282,1,85.2500026016236,0|2,1:1|2:2,0:0:0:0:
503,78,59923,6,0,B|406:109|449:48|328:79,1,170.500005203247,8|0,2:2|1:1,0:0:0:0:
183,0,60380,2,0,P|200:44|205:97,1,85.2500026016236,10|0,2:2|1:2,0:0:0:0:
197,105,60608,1,8,2:2:0:0:
197,105,60684,1,2,1:2:0:0:
88,223,60836,1,0,1:1:0:0:
0,169,60989,2,0,P|46:159|88:125,1,85.2500026016236,10|0,2:2|0:0,0:0:0:0:
318,215,61293,6,0,P|282:258|266:339,1,127.875003902435,6|0,1:2|0:0,0:0:0:0:
266,339,61598,2,0,P|219:309|190:315,1,85.2500026016236,8|8,2:2|0:3,0:0:0:0:
25,368,61902,1,2,1:2:0:0:
65,304,62055,2,0,P|74:258|92:214,1,85.2500026016236,0|0,1:1|0:0,0:0:0:0:
192,38,62359,5,10,2:2:0:0:
119,77,62511,1,0,1:1:0:0:
40,111,62664,1,0,1:1:0:0:
197,172,62816,1,8,2:2:0:0:
261,120,62968,1,0,0:0:0:0:
392,204,63121,6,0,P|411:249|422:300,1,85.2500026016236,2|0,1:2|1:1,0:0:0:0:
291,349,63425,2,0,P|273:294|263:202,1,127.875003902435,14|0,2:2|0:0,0:0:0:0:
271,214,63730,6,0,P|245:286|136:274,1,170.500005203247,6|8,1:2|2:2,0:0:0:0:
77,119,64187,2,0,P|120:133|167:155,1,85.2500026016236,2|0,2:2|1:1,0:0:0:0:
181,221,64491,1,0,1:1:0:0:
37,384,64643,6,0,B|6:293|60:316|10:208,1,170.500005203247,2|0,2:2|0:0,0:0:0:0:
14,217,65100,1,0,1:1:0:0:
77,119,65253,2,0,P|122:136|157:151,1,85.2500026016236,10|0,2:2|0:0,0:0:0:0:
324,18,65557,1,2,1:2:0:0:
253,111,65709,1,0,1:1:0:0:
328,174,65862,2,0,P|342:232|362:307,1,127.875003902435,14|0,2:2|0:0,0:0:0:0:
376,320,66166,6,0,B|335:362|335:362|263:366|228:304,1,170.500005203247,6|10,1:2|2:2,0:0:0:0:
61,202,66623,2,0,B|158:236|126:178|233:217,1,170.500005203247,6|2,1:2|1:2,0:0:0:0:
470,124,67080,6,0,B|438:113|415:92|415:92|369:95|369:95|345:72|316:65,1,170.500005203247,14|0,2:2|1:1,0:0:0:0:
256,9,67537,1,10,2:2:0:0:
358,176,67689,1,0,1:1:0:0:
405,242,67841,1,8,2:3:0:0:
401,254,67918,1,8,2:3:0:0:
396,266,67994,1,2,1:2:0:0:
325,307,68146,1,2,1:2:0:0:
227,214,68298,6,0,B|158:197|182:183|96:165,1,127.875003902435,12|0,2:2|0:0,0:0:0:0:
99,177,68603,6,0,P|113:233|116:272,1,85.2500026016236,6|0,1:2|0:0,0:0:0:0:
15,74,68907,2,0,P|73:71|150:38,1,127.875003902435,10|0,2:2|0:0,0:0:0:0:
147,38,69212,1,2,1:2:0:0:
317,129,69364,2,0,P|265:112|228:94,1,85.2500026016236,0|2,1:1|2:2,0:0:0:0:
423,0,69669,6,0,B|446:103|397:72|435:178,1,170.500005203247,8|0,2:2|1:1,0:0:0:0:
507,298,70126,2,0,P|462:272|413:258,1,85.2500026016236,10|2,2:2|0:0,0:0:0:0:
256,353,70430,1,2,1:2:0:0:
371,212,70583,1,0,1:1:0:0:
357,384,70735,6,0,B|346:373|349:345|349:345|324:305|324:305|327:277|309:233,1,127.875003902435,10|0,2:2|0:0,0:0:0:0:
310,257,71039,6,0,P|236:236|138:197,2,170.500005203247,2|8|2,1:2|2:2|1:2,0:0:0:0:
172,384,71801,2,0,P|184:338|197:299,1,85.2500026016236,0|0,1:1|0:0,0:0:0:0:
373,143,72105,5,10,2:2:0:0:
276,79,72258,2,0,P|297:130|305:183,1,85.2500026016236,2|0,1:2|1:1,0:0:0:0:
397,297,72562,1,10,2:2:0:0:
444,232,72715,1,2,0:0:0:0:
322,317,72867,2,0,P|267:298|233:283,1,85.2500026016236,2|0,1:2|1:1,0:0:0:0:
86,203,73171,6,0,B|87:171|59:141|59:141|66:104|111:88,1,127.875003902435,14|0,2:2|0:0,0:0:0:0:
105,91,73476,6,0,P|165:74|190:45,1,85.2500026016236,6|0,1:2|0:0,0:0:0:0:
333,31,73781,2,0,P|287:59|279:100,1,85.2500026016236,10|0,2:2|0:0,0:0:0:0:
203,243,74085,1,2,1:2:0:0:
268,192,74237,2,0,P|326:202|418:277,1,170.500005203247,0|8,1:1|2:2,0:0:0:0:
137,379,74694,6,0,B|98:294|150:314|104:195,1,170.500005203247,2|8,2:2|2:2,0:0:0:0:
74,72,75151,2,0,P|22:97|5:211,1,170.500005203247,2|0,2:2|1:1,0:0:0:0:
194,322,75608,6,0,P|257:332|367:391,1,170.500005203247,10|0,2:2|1:1,0:0:0:0:
352,378,76065,1,0,0:0:0:0:
480,312,76217,2,0,P|507:272|495:233,1,85.2500026016236,8|0,2:2|0:0,0:0:0:0:
392,142,76522,2,0,P|409:196|418:243,1,85.2500026016236,0|0,1:1|1:1,0:0:0:0:
299,284,76826,1,2,2:2:0:0:
229,236,76978,1,8,2:2:0:0:
126,349,77131,6,0,P|60:350|12:281,1,127.875003902435,2|0,1:2|0:0,0:0:0:0:
15,296,77435,2,0,P|30:260|37:210,1,85.2500026016236,10|2,2:2|0:0,0:0:0:0:
140,73,77740,1,2,1:2:0:0:
0,145,77892,1,0,1:1:0:0:
35,13,78044,6,0,B|73:71|39:66|91:148,1,127.875003902435,14|0,2:2|1:1,0:0:0:0:
86,141,78349,6,0,P|141:155|172:183,1,85.2500026016236,14|0,2:2|0:0,0:0:0:0:
416,31,78654,2,0,P|361:17|330:-11,1,85.2500026016236,10|0,2:2|1:1,0:0:0:0:
266,73,78958,1,10,2:2:0:0:
433,200,79110,1,0,1:1:0:0:
329,294,79263,2,0,B|253:275|279:260|184:242,1,127.875003902435,10|0,2:2|0:0,0:0:0:0:
202,257,79567,5,8,1:3:0:0:
137,326,79720,1,0,1:1:0:0:
0,157,79872,2,0,B|34:162|60:143|98:119|91:17|91:17|16:87|77:124|29:142|62:225|116:251,1,426.250013008118,14|0,2:2|0:0,0:0:0:0:
261,168,80786,6,0,P|213:187|173:193,1,77.5,6|0,1:2|0:0,0:0:0:0:
350,308,81090,2,0,B|320:219|368:234|333:130,1,155,10|0,2:2|1:1,0:0:0:0:
401,97,81547,1,2,1:2:0:0:
339,0,81699,1,8,2:2:0:0:
142,49,81852,6,0,B|225:82|213:35|303:88,1,155,2|2,1:2|1:2,0:0:0:0:
304,93,82232,1,2,2:2:0:0:
304,93,82309,1,10,2:2:0:0:
224,203,82461,1,0,1:2:0:0:
205,214,82537,1,8,2:2:0:0:
182,212,82613,1,2,1:2:0:0:
124,160,82765,1,2,1:2:0:0:
34,246,82918,2,0,P|48:281|51:320,1,77.5,10|2,2:2|2:2,0:0:0:0:
21,155,83222,6,0,B|50:128|49:110|26:87|31:62|69:33,1,116.25,2|0,1:2|0:0,0:0:0:0:
62,34,83527,1,10,2:2:0:0:
180,105,83679,1,0,1:2:0:0:
201,116,83755,1,8,2:2:0:0:
223,125,83831,1,2,1:2:0:0:
331,74,83984,1,2,1:2:0:0:
270,5,84136,1,8,2:2:0:0:
454,151,84288,6,0,P|390:169|307:229,1,155,2|2,1:2|1:2,0:0:0:0:
187,299,84745,2,0,P|230:319|260:327,1,77.5,10|0,2:2|1:0,0:0:0:0:
274,328,84974,1,8,2:2:0:0:
274,328,85050,1,2,1:2:0:0:
175,205,85202,1,2,1:2:0:0:
86,265,85354,6,0,B|109:324|71:312|110:400,1,116.25,14|0,2:2|0:0,0:0:0:0:
101,378,85659,6,0,P|157:347|201:344,1,77.5,6|0,1:2|0:0,0:0:0:0:
87,171,85963,2,0,P|31:202|-13:205,1,77.5,10|0,2:2|0:0,0:0:0:0:
4,300,86268,1,0,1:1:0:0:
120,83,86420,2,0,P|159:119|163:157,1,77.5,2|8,1:2|2:2,0:0:0:0:
264,230,86725,6,0,B|292:213|320:213|320:213|340:188|340:188|371:193|403:172,1,155,2|2,1:2|1:2,0:0:0:0:
407,164,87105,1,2,2:2:0:0:
407,164,87182,1,10,2:2:0:0:
317,64,87334,1,2,2:2:0:0:
424,0,87486,2,0,P|416:23|412:48,1,38.75,2|0,1:2|0:0,0:0:0:0:
420,58,87638,1,2,1:2:0:0:
282,135,87791,1,10,2:2:0:0:
194,79,87943,1,2,2:2:0:0:
138,130,88095,5,2,2:2:0:0:
