osu file format v14

[General]
AudioFilename: audio.mp3
AudioLeadIn: 0
PreviewTime: 127811
Countdown: 0
SampleSet: Soft
StackLeniency: 0.7
Mode: 0
LetterboxInBreaks: 0
WidescreenStoryboard: 1

[Editor]
DistanceSpacing: 1.4
BeatDivisor: 4
GridSize: 16
TimelineZoom: 1

[Metadata]
Title:Tentou
TitleUnicode:天灯
Artist:sajou no hana
ArtistUnicode:sajou no hana
Creator:Astromi
Version:Insane
Source:ダンジョンに出会いを求めるのは間違っているだろうかⅣ 新章 迷宮篇
Tags:danmachi fourth 4th season 4 IV ダンまち anime op opening sana japanese pop jpop j-pop full version is it wrong to try to pick up girls in a dungeon? new chapter: the labyrinth arc danjon ni deai o motomeru no wa machigatteiru darou ka familia myth sho watanabe tatsuya kitani hestia
BeatmapID:3944496
BeatmapSetID:1863628

[Difficulty]
HPDrainRate:5
CircleSize:3.8
OverallDifficulty:8
ApproachRate:9
SliderMultiplier:1.7
SliderTickRate:1

[Events]
//Background and Video events
0,0,"background.jpg",0,0
//Break Periods
2,90627,92263
2,119664,122566
//Storyboard Layer 0 (Background)
//Storyboard Layer 1 (Fail)
//Storyboard Layer 2 (Pass)
//Storyboard Layer 3 (Foreground)
//Storyboard Layer 4 (Overlay)
//Storyboard Sound Samples

[TimingPoints]
275,304.568527918782,4,2,1,50,1,0
275,-125,4,2,1,50,0,0
5148,-125,4,2,1,60,0,0
10021,-100,4,2,1,70,0,0
19767,-125,4,2,1,60,0,0
29513,-111.111111111111,4,2,1,60,0,0
36823,-99.9999999999999,4,2,1,60,0,0
39259,-142.857142857143,4,2,1,50,0,0
49005,-166.666666666667,4,2,1,40,0,0
52051,-166.666666666667,4,2,1,50,0,0
52660,-100,4,2,1,60,0,0
53879,-100,4,2,1,70,0,0
56315,-111.111111111111,4,2,1,70,0,0
57838,-125,4,2,1,70,0,0
58752,-95.2380952380952,4,2,1,70,0,1
79767,-100,4,2,1,70,0,0
90427,-100,4,2,1,60,0,0
92863,-111.111111111111,4,2,1,60,0,0
107483,292.682926829268,4,2,1,60,1,0
107483,-100,4,2,1,60,0,0
108361,320.855614973262,4,2,1,60,1,0
108681,309.278350515464,4,2,1,60,1,0
109918,304.568527918782,4,2,1,60,1,0
109918,-111.111111111111,4,2,1,60,0,0
119664,-111.111111111111,4,2,1,50,0,0
123319,-100,4,2,1,60,0,0
124537,-100,4,2,1,70,0,0
128496,-125,4,2,1,50,0,0
129410,-95.2380952380952,4,2,1,70,0,1
150730,-125,4,2,1,70,0,0
151339,301.507537688443,4,2,1,60,1,0
151339,-125,4,2,1,60,0,0
152545,306.122448979592,4,2,1,60,1,0
152545,-125,4,2,1,60,0,0
153157,294.117647058824,4,2,1,60,1,0
153157,-125,4,2,1,60,0,0
153745,317.460317460317,4,2,1,60,1,0
153745,-125,4,2,1,60,0,0
154379,260.869565217392,4,2,1,60,1,0
154379,-142.857142857143,4,2,1,60,0,0
154639,394.736842105264,4,2,1,60,1,0
154639,-125,4,2,1,60,0,0
154836,309.278350515464,4,2,1,60,1,0
154836,-125,4,2,1,60,0,0
155609,297.029702970297,4,2,1,60,1,0
155609,-125,4,2,1,60,0,0
156203,306.122448979592,4,2,1,60,1,0
156203,-111.111111111111,4,2,1,60,0,0
158651,304.568527918782,4,2,1,60,1,0
158651,-111.111111111111,4,2,1,60,0,0
161087,-142.857142857143,4,2,1,60,0,0
170833,-125,4,2,1,60,0,0
175706,-111.111111111111,4,2,1,60,0,0
180579,-100,4,2,1,60,0,0
183016,-166.666666666667,4,2,1,50,0,0
185453,-200,4,2,1,40,0,0
187280,-222.222222222222,4,2,1,40,0,0
187889,-95.2380952380952,4,2,1,70,0,1
206468,-100,4,2,1,70,0,0
214691,-125,4,2,1,60,0,0

[Colours]
Combo1 : 226,180,101
Combo2 : 158,160,163
Combo3 : 124,184,205
Combo4 : 213,101,85

[HitObjects]
394,254,275,6,0,P|327:269|263:290,1,136,2|2,0:0|0:0,0:0:0:0:
134,203,731,2,0,P|152:143|222:146,1,136,2|2,0:0|0:0,0:0:0:0:
296,190,1188,2,0,P|303:156|312:122,2,68,2|0|2,0:0|0:0|0:0,0:0:0:0:
223,295,1645,2,0,B|149:277|173:334|92:315,1,136,2|2,0:0|0:0,0:0:0:0:
16,268,2102,1,2,0:0:0:0:
166,115,2406,2,0,P|154:81|144:36,1,68,2|0,0:0|0:0,0:0:0:0:
1,163,2711,6,0,P|62:176|149:203,1,136,2|0,0:0|0:0,0:0:0:0:
198,253,3168,2,0,P|228:240|262:232,2,68,2|0|0,0:0|0:0|0:0,0:0:0:0:
324,301,3625,2,0,P|359:242|332:176,1,136,2|0,0:0|0:0,0:0:0:0:
274,130,4082,1,2,0:0:0:0:
274,130,4234,2,0,P|285:98|294:51,1,68,0|2,0:0|0:0,0:0:0:0:
369,19,4538,2,0,B|442:1|418:58|499:39,1,136,2|2,0:0|0:0,0:0:0:0:
455,182,4995,5,8,0:0:0:0:
455,182,5071,1,8,0:0:0:0:
455,182,5148,1,2,1:2:0:0:
364,139,5300,2,0,P|305:163|230:181,1,136,0|0,1:2|0:0,0:0:0:0:
98,326,5757,2,0,P|148:268|217:290,1,136,10|0,0:0|1:2,0:0:0:0:
279,374,6214,6,0,P|294:292|314:216,1,136,2|10,1:2|0:0,0:0:0:0:
366,176,6670,1,2,0:0:0:0:
289,119,6823,1,0,1:2:0:0:
289,119,6899,1,0,1:2:0:0:
289,119,6975,1,10,0:0:0:0:
402,40,7127,2,0,P|412:73|424:107,2,68,10|2|2,0:0|0:0|0:0,0:0:0:0:
512,192,7584,6,0,P|479:201|447:212,1,68,2|2,1:2|1:2,0:0:0:0:
339,287,7889,2,0,P|371:296|403:307,1,68,2|2,0:0|0:0,0:0:0:0:
358,176,8193,1,8,0:0:0:0:
358,176,8346,1,0,0:0:0:0:
254,344,8498,2,0,P|245:305|228:252,1,68,10|0,0:0|1:2,0:0:0:0:
232,249,8726,1,0,1:2:0:0:
232,249,8802,2,0,L|182:259,3,34,10|8|0|0,0:3|0:3|1:2|1:2,0:0:0:0:
114,322,9107,1,10,0:0:0:0:
0,96,9412,5,2,0:0:0:0:
106,35,9564,2,0,P|91:101|78:168,1,136,2|0,0:0|0:0,0:0:0:0:
195,232,10021,6,0,B|287:210|258:280|356:253,2,170,6|10|0,1:2|0:0|1:2,0:0:0:0:
235,55,10782,1,2,1:2:0:0:
106,169,10934,1,8,0:0:0:0:
249,34,11087,2,0,P|316:57|411:76,1,127.5,2|0,1:2|0:0,0:0:0:0:
407,81,11391,6,0,L|392:131,2,42.5,2|2|10,1:2|0:0|0:0,0:0:0:0:
455,205,11696,1,10,0:0:0:0:
455,205,11772,1,8,0:0:0:0:
455,205,11848,2,0,P|414:216|374:232,1,85,2|2,1:2|1:2,0:0:0:0:
303,306,12153,1,10,0:0:0:0:
303,306,12305,1,2,0:0:0:0:
114,200,12457,6,0,B|169:184|169:184|194:137|194:137|250:118,1,170,2|10,1:2|0:0,0:0:0:0:
119,27,12914,1,10,0:0:0:0:
119,27,12990,1,8,0:0:0:0:
119,27,13066,2,0,P|108:72|97:111,1,85,2|2,1:2|1:2,0:0:0:0:
19,246,13371,1,10,0:0:0:0:
206,185,13523,6,0,P|245:220|234:330,1,170,2|0,1:2|1:2,0:0:0:0:
420,191,13980,2,0,P|378:181|338:167,1,85,10|8,0:0|0:0,0:0:0:0:
312,160,14209,1,8,0:0:0:0:
312,160,14285,1,2,1:2:0:0:
156,268,14437,1,0,1:2:0:0:
182,103,14589,2,0,P|191:144|205:184,1,85,14|2,0:0|0:0,0:0:0:0:
314,358,14894,6,0,B|333:320|379:319|379:319|412:363|478:349,1,170,6|10,1:2|0:0,0:0:0:0:
458,351,15503,1,0,1:2:0:0:
512,259,15655,1,2,1:2:0:0:
305,168,15807,1,8,0:0:0:0:
377,271,15960,6,0,P|391:200|421:100,1,170,2|2,1:2|1:2,0:0:0:0:
431,77,16340,1,2,0:0:0:0:
431,77,16417,1,10,0:0:0:0:
205,143,16569,2,0,L|218:197,2,42.5,10|8|2,0:0|0:0|1:2,0:0:0:0:
236,266,16873,1,2,1:2:0:0:
309,75,17026,2,0,P|264:64|225:53,1,85,10|2,0:0|0:0,0:0:0:0:
0,210,17330,6,0,P|60:197|134:278,1,170,2|10,1:2|0:0,0:0:0:0:
82,349,17787,1,2,1:2:0:0:
82,349,17863,1,0,1:2:0:0:
82,349,17939,2,0,P|34:334|-12:326,1,85,0|0,1:2|1:2,0:0:0:0:
77,163,18244,1,10,0:0:0:0:
221,260,18396,6,0,B|313:238|284:308|382:281,1,170,2|2,1:2|1:2,0:0:0:0:
445,84,18853,2,0,P|398:72|355:59,1,85,10|2,0:0|0:0,0:0:0:0:
236,119,19158,1,2,1:2:0:0:
359,188,19310,1,0,1:2:0:0:
210,107,19462,2,0,P|198:60|185:17,1,85,14|2,0:0|0:0,0:0:0:0:
76,203,19767,6,0,B|123:214|123:214|145:247|145:247|191:257,1,136,6|2,1:2|0:0,0:0:0:0:
344,384,20376,2,0,P|350:350|360:318,1,68,2|0,0:0|0:0,0:0:0:0:
392,231,20681,2,0,P|357:284|269:278,1,136,2|0,0:0|0:0,0:0:0:0:
71,353,21290,1,2,0:0:0:0:
133,256,21442,2,0,P|153:320|178:383,1,136,2|2,0:0|0:0,0:0:0:0:
225,226,21899,2,0,P|210:186|198:146,1,68,2|0,0:0|0:0,0:0:0:0:
56,115,22203,6,0,P|59:57|147:42,1,136,2|2,0:0|0:0,0:0:0:0:
212,72,22660,1,0,0:0:0:0:
212,72,22813,1,2,0:0:0:0:
132,235,23117,1,2,0:0:0:0:
333,197,23422,2,0,P|265:183|193:157,1,136,2|0,0:0|0:0,0:0:0:0:
379,52,24031,2,0,P|387:85|400:118,2,68,2|0|2,0:0|0:0|0:0,0:0:0:0:
305,10,24488,1,0,1:2:0:0:
494,122,24640,6,0,P|473:184|455:266,1,136,2|2,1:2|0:0,0:0:0:0:
393,316,25097,1,0,0:0:0:0:
393,316,25249,1,2,0:0:0:0:
284,177,25554,2,0,P|357:167|376:105,1,136,2|0,0:0|0:0,0:0:0:0:
140,63,26163,6,0,P|164:126|184:207,1,136,2|2,0:0|0:0,0:0:0:0:
220,277,26620,2,0,P|176:224|110:234,1,136,2|2,0:0|0:0,0:0:0:0:
14,375,27077,2,0,B|61:364|61:364|83:331|83:331|129:321,1,136,2|2,0:0|0:0,0:0:0:0:
206,372,27533,1,0,0:0:0:0:
332,267,27686,2,0,P|308:200|290:130,1,136,2|2,0:0|0:0,0:0:0:0:
223,221,28143,1,2,0:0:0:0:
34,107,28447,5,8,0:0:0:0:
88,37,28599,2,0,P|130:49|173:58,1,68,8|8,0:3|0:3,0:0:0:0:
193,78,28828,1,8,0:3:0:0:
193,78,28904,2,0,P|235:66|278:57,2,68,8|4|6,0:3|0:3|0:3,0:0:0:0:
131,150,29361,1,2,1:2:0:0:
304,242,29513,6,0,B|221:222|249:284|157:261,1,152.999995330811,6|10,1:2|0:0,0:0:0:0:
96,330,29970,1,0,0:0:0:0:
248,376,30122,2,0,P|231:334|220:291,1,76.4999976654053,2|0,0:0|0:0,0:0:0:0:
401,170,30427,2,0,P|410:206|320:257,1,152.999995330811,10|0,0:0|0:0,0:0:0:0:
217,149,31036,2,0,P|253:138|295:119,1,76.4999976654053,10|0,0:0|0:0,0:0:0:0:
438,66,31340,2,0,P|359:49|286:23,1,152.999995330811,2|10,0:0|0:0,0:0:0:0:
206,0,31797,1,2,0:0:0:0:
86,156,31950,6,0,P|99:79|176:91,1,152.999995330811,6|10,1:2|0:0,0:0:0:0:
97,254,32406,2,0,P|60:242|23:233,1,76.4999976654053,2|0,0:0|0:0,0:0:0:0:
173,180,32711,1,2,0:0:0:0:
112,340,32863,2,0,P|148:328|185:319,1,76.4999976654053,10|2,0:0|1:2,0:0:0:0:
298,384,33168,2,0,P|314:309|337:236,1,152.999995330811,2|8,0:0|0:0,0:0:0:0:
509,85,33777,2,0,P|485:125|419:130,1,114.749996498108,2|2,0:0|0:0,0:0:0:0:
394,112,34082,1,8,0:0:0:0:
336,16,34234,1,2,1:2:0:0:
273,177,34386,6,0,B|329:189|329:189|356:227|356:227|405:238,1,152.999995330811,6|10,1:2|0:0,0:0:0:0:
257,77,34843,2,0,P|220:90|168:104,1,76.4999976654053,2|0,0:0|0:0,0:0:0:0:
149,180,35148,1,2,0:0:0:0:
149,180,35300,1,10,0:0:0:0:
246,338,35452,2,0,P|219:282|127:276,1,152.999995330811,2|0,1:2|1:2,0:0:0:0:
3,367,35909,2,0,P|23:288|34:219,1,114.749996498108,8|0,0:0|0:0,0:0:0:0:
59,211,36214,2,0,P|52:192|46:174,3,38.2499988327027,10|8|0|0,0:3|0:3|1:2|1:2,0:0:0:0:
0,93,36518,2,0,P|15:44|76:35,1,114.749996498108,14|0,0:0|0:0,0:0:0:0:
108,53,36823,6,0,P|177:30|285:5,1,170,6|10,1:2|0:0,0:0:0:0:
429,178,37280,2,0,B|410:140|364:139|364:139|331:183|265:169,1,170,6|2,1:2|1:2,0:0:0:0:
137,321,37736,2,0,P|119:248|159:197,1,127.5,14|0,0:0|0:0,0:0:0:0:
174,187,38041,1,8,0:0:0:0:
392,346,38193,6,0,B|300:324|329:394|231:367,1,170,6|0,1:2|1:2,0:0:0:0:
286,175,38650,1,14,0:0:0:0:
382,231,38802,2,0,P|398:139|421:59,1,170,0|10,1:2|0:0,0:0:0:0:
256,1,39259,6,0,P|228:43|163:45,2,118.999996368408,6|0|0,1:2|3:2|3:2,0:0:0:0:
124,129,40173,1,2,3:2:0:0:
198,181,40478,1,0,3:2:0:0:
142,256,40782,1,0,3:2:0:0:
264,367,41087,2,0,P|325:342|398:326,1,118.999996368408,2|2,3:2|3:2,0:0:0:0:
469,370,41544,1,2,1:2:0:0:
512,236,41696,6,0,P|487:190|419:192,1,118.999996368408,0|2,1:2|3:2,0:0:0:0:
284,137,42305,2,0,P|309:91|377:93,1,118.999996368408,0|0,3:2|3:2,0:0:0:0:
314,258,42914,1,2,3:2:0:0:
238,211,43219,1,2,3:2:0:0:
381,355,43523,2,0,P|392:311|406:269,1,89.2499972763062,2|0,3:2|3:2,0:0:0:0:
442,241,43828,2,0,P|429:204|420:166,1,59.4999981842042,2|0,3:2|3:2,0:0:0:0:
277,88,44132,6,0,P|334:92|369:46,2,118.999996368408,2|2|2,1:2|3:2|3:2,0:0:0:0:
104,235,45046,2,0,P|156:245|218:266,1,118.999996368408,2|0,3:2|3:2,0:0:0:0:
289,201,45655,1,2,3:2:0:0:
212,147,45960,1,2,3:2:0:0:
305,80,46264,2,0,P|294:46|289:16,1,59.4999981842042,2|0,3:2|1:2,0:0:0:0:
147,7,46569,6,0,P|106:48|49:43,1,118.999996368408,2|0,1:2|3:2,0:0:0:0:
0,117,47178,1,0,3:2:0:0:
117,198,47483,2,0,P|105:235|96:279,1,59.4999981842042,2|0,3:2|1:2,0:0:0:0:
181,333,47787,2,0,P|192:274|211:218,1,118.999996368408,0|2,1:2|0:0,0:0:0:0:
240,140,48244,1,0,3:2:0:0:
240,140,48396,1,2,0:0:0:0:
429,222,48701,1,2,1:2:0:0:
350,325,49005,6,0,P|303:267|320:195,1,152.999995330811,2|2,1:2|0:0,0:0:0:0:
428,128,49615,2,0,P|444:69|357:72,1,152.999995330811,2|2,0:0|0:0,0:0:0:0:
291,93,50224,1,2,0:0:0:0:
239,26,50528,1,2,0:0:0:0:
341,167,50833,2,0,P|291:174|231:194,1,101.999996887207,2|2,0:0|0:0,0:0:0:0:
0,166,51442,6,0,P|0:117|103:97,1,152.999995330811,2|0,0:0|0:0,0:0:0:0:
145,145,52051,1,2,0:0:0:0:
67,294,52356,2,0,L|86:362,1,50.9999984436036,2|0,0:0|1:2,0:0:0:0:
95,375,52584,1,0,1:2:0:0:
95,375,52660,6,0,P|143:356|188:344,1,85,14|8,0:0|0:0,0:0:0:0:
206,318,52889,1,8,0:0:0:0:
206,318,52965,2,0,L|252:331,3,42.5,2|0|8|0,1:2|1:2|0:0|1:2,0:0:0:0:
350,378,53269,2,0,L|396:365,3,42.5,2|0|8|8,1:2|1:2|0:0|0:0,0:0:0:0:
475,293,53574,1,2,0:3:0:0:
470,261,53650,1,8,0:3:0:0:
451,236,53726,1,4,0:3:0:0:
422,224,53802,1,4,0:3:0:0:
391,227,53879,6,0,P|406:182|417:136,1,85,6|2,1:2|1:2,0:0:0:0:
335,16,54183,2,0,P|294:62|232:63,1,127.5,10|8,0:0|0:0,0:0:0:0:
204,56,54488,1,2,1:2:0:0:
271,199,54640,1,2,1:2:0:0:
95,166,54792,2,0,P|136:155|176:141,1,85,10|0,0:0|0:0,0:0:0:0:
312,291,55097,6,0,P|298:331|287:372,1,85,2|2,1:2|1:2,0:0:0:0:
391,227,55401,2,0,P|380:185|366:145,1,85,10|0,0:0|0:0,0:0:0:0:
210,278,55706,1,10,0:3:0:0:
190,272,55782,1,8,0:3:0:0:
169,266,55858,1,4,0:3:0:0:
149,260,55934,1,4,0:3:0:0:
129,254,56011,2,0,P|152:194|172:118,1,127.5,14|0,0:0|0:0,0:0:0:0:
227,70,56315,6,0,P|311:96|301:158,1,152.999995330811,6|0,0:3|1:2,0:0:0:0:
457,230,56772,2,0,B|374:210|401:273|311:252,1,152.999995330811,6|0,0:3|1:2,0:0:0:0:
131,145,57229,1,14,0:2:0:0:
174,337,57838,6,0,P|187:286|215:197,2,136,2|2|2,0:0|0:0|0:0,0:0:0:0:
40,110,58752,6,0,P|58:64|139:57,1,133.874995914459,6|0,1:2|0:0,0:0:0:0:
164,77,59056,2,0,P|203:60|254:45,1,89.2499972763062,10|0,0:0|0:0,0:0:0:0:
36,212,59361,1,2,1:2:0:0:
223,290,59513,1,0,1:2:0:0:
146,172,59665,2,0,P|133:214|115:255,1,89.2499972763062,2|8,0:0|0:0,0:0:0:0:
296,372,59970,6,0,P|330:316|403:321,1,133.874995914459,2|0,1:2|0:0,0:0:0:0:
421,330,60275,1,10,0:0:0:0:
320,190,60427,1,8,0:0:0:0:
320,190,60503,1,8,0:0:0:0:
320,190,60579,2,0,P|361:202|407:220,1,89.2499972763062,2|0,1:2|1:2,0:0:0:0:
482,39,60884,2,0,P|447:92|373:88,1,133.874995914459,10|0,0:0|0:0,0:0:0:0:
347,63,61188,6,0,B|252:40|275:115|175:86,1,178.499994552612,2|8,1:2|0:0,0:0:0:0:
98,45,61645,1,0,0:0:0:0:
167,215,61797,1,2,1:2:0:0:
15,177,61950,2,0,P|55:164|108:145,1,89.2499972763062,0|2,1:2|0:0,0:0:0:0:
247,259,62254,1,10,0:0:0:0:
179,326,62406,2,0,P|152:317|124:308,2,44.6249986381531,2|2|2,1:2|0:0|1:2,0:0:0:0:
326,379,62711,6,0,P|335:330|351:277,1,89.2499972763062,10|2,0:0|0:0,0:0:0:0:
317,161,63016,1,2,1:2:0:0:
442,249,63168,1,0,1:2:0:0:
511,112,63320,2,0,P|471:102|418:83,1,89.2499972763062,14|0,0:0|0:0,0:0:0:0:
218,117,63625,6,0,P|211:57|331:35,1,178.499994552612,6|8,1:2|0:0,0:0:0:0:
80,174,64082,2,0,P|123:184|166:196,1,89.2499972763062,2|0,0:0|1:2,0:0:0:0:
233,268,64386,1,0,1:2:0:0:
321,120,64538,1,2,0:0:0:0:
448,283,64691,6,0,B|388:265|388:265|366:221|366:221|298:200,1,178.499994552612,8|0,0:0|1:2,0:0:0:0:
130,280,65148,2,0,P|149:328|163:371,1,89.2499972763062,10|0,0:0|0:0,0:0:0:0:
47,184,65452,2,0,P|66:135|80:93,1,89.2499972763062,2|0,1:2|1:2,0:0:0:0:
241,149,65757,2,0,P|198:163|157:179,1,89.2499972763062,10|0,0:0|0:0,0:0:0:0:
222,0,66061,6,0,P|267:56|378:25,1,178.499994552612,6|10,1:2|0:0,0:0:0:0:
458,208,66518,2,0,B|363:185|386:260|286:231,1,178.499994552612,6|2,1:2|1:2,0:0:0:0:
126,121,66975,2,0,P|152:194|179:299,1,178.499994552612,14|0,0:0|1:2,0:0:0:0:
309,355,67432,2,0,P|267:364|217:382,1,89.2499972763062,10|0,0:0|1:2,0:0:0:0:
78,314,67736,5,8,0:3:0:0:
78,314,67813,1,8,0:3:0:0:
78,314,67889,1,6,0:3:0:0:
204,220,68041,1,2,1:2:0:0:
28,121,68193,2,0,P|36:61|117:48,1,133.874995914459,12|0,0:0|0:0,0:0:0:0:
136,50,68498,6,0,B|114:116|114:116|125:163|125:163|103:238,1,178.499994552612,6|10,1:2|0:0,0:0:0:0:
282,131,68955,1,0,0:0:0:0:
232,304,69107,2,0,P|220:260|203:219,1,89.2499972763062,2|0,1:2|1:2,0:0:0:0:
317,359,69412,1,2,0:0:0:0:
124,312,69564,1,8,0:0:0:0:
296,146,69716,6,0,P|335:196|416:181,1,133.874995914459,2|0,1:2|0:0,0:0:0:0:
434,182,70021,2,0,P|447:222|466:269,1,89.2499972763062,10|0,0:0|1:2,0:0:0:0:
364,83,70325,2,0,P|377:42|396:-4,1,89.2499972763062,2|0,1:2|1:2,0:0:0:0:
216,204,70630,1,10,0:0:0:0:
216,204,70934,6,0,B|195:163|145:161|145:161|110:209|39:194,1,178.499994552612,2|8,1:2|0:0,0:0:0:0:
0,250,71391,1,0,0:0:0:0:
131,363,71544,2,0,P|138:318|149:275,1,89.2499972763062,2|0,1:2|1:2,0:0:0:0:
285,149,71848,1,0,0:0:0:0:
191,83,72000,1,10,0:0:0:0:
273,254,72153,6,0,P|313:236|357:224,1,89.2499972763062,2|0,1:2|1:2,0:0:0:0:
442,354,72457,2,0,P|398:342|357:324,1,89.2499972763062,10|0,0:0|0:0,0:0:0:0:
387,130,72762,1,2,1:2:0:0:
464,242,72914,1,0,1:2:0:0:
285,149,73066,2,0,P|302:108|314:64,1,89.2499972763062,14|0,0:0|0:0,0:0:0:0:
80,186,73371,6,0,P|122:234|186:226,1,133.874995914459,6|0,1:2|0:0,0:0:0:0:
209,220,73676,2,0,P|220:263|238:304,1,89.2499972763062,10|0,0:0|0:0,0:0:0:0:
285,149,73980,1,2,1:2:0:0:
119,90,74132,1,0,1:2:0:0:
239,6,74285,2,0,P|221:46|210:89,1,89.2499972763062,2|8,0:0|0:0,0:0:0:0:
335,282,74589,6,0,P|382:259|373:132,1,178.499994552612,2|8,0:0|0:0,0:0:0:0:
492,256,75046,2,0,P|473:301|464:350,1,89.2499972763062,2|0,0:0|1:2,0:0:0:0:
312,193,75351,1,0,1:2:0:0:
400,125,75503,2,0,P|381:80|372:31,1,89.2499972763062,10|0,0:0|0:0,0:0:0:0:
223,7,75807,6,0,B|163:25|163:25|141:69|141:69|73:90,2,178.499994552612,2|10|2,1:2|0:0|1:2,0:0:0:0:
153,179,76569,1,2,1:2:0:0:
311,132,76721,2,0,P|265:120|226:104,1,89.2499972763062,2|8,0:0|0:0,0:0:0:0:
106,285,77026,6,0,P|122:326|133:369,1,89.2499972763062,2|0,1:2|1:2,0:0:0:0:
318,314,77330,2,0,P|294:261|221:263,1,133.874995914459,10|0,0:0|0:0,0:0:0:0:
201,271,77635,1,2,1:2:0:0:
53,190,77787,1,0,1:2:0:0:
180,68,77939,2,0,P|164:109|153:152,1,89.2499972763062,14|0,0:0|1:2,0:0:0:0:
153,179,78168,1,0,1:2:0:0:
153,179,78244,1,14,0:0:0:0:
342,164,78549,5,10,0:0:0:0:
400,277,78701,1,0,1:2:0:0:
408,107,78853,5,10,0:0:0:0:
290,238,79005,1,0,1:2:0:0:
327,56,79158,5,10,0:0:0:0:
484,160,79310,1,0,1:2:0:0:
445,0,79462,6,0,P|433:42|417:84,1,89.2499972763062,8|0,0:3|1:2,0:0:0:0:
512,249,79767,1,10,0:0:0:0:
181,322,80681,6,0,B|121:307|121:307|97:266|97:266|39:252,2,170,6|10|0,1:2|0:0|1:2,0:0:0:0:
257,384,81442,1,2,1:2:0:0:
358,293,81594,1,8,0:0:0:0:
221,219,81747,6,0,P|242:158|262:54,1,170,2|2,1:2|1:2,0:0:0:0:
268,29,82127,1,2,0:0:0:0:
268,29,82203,1,10,0:0:0:0:
97,163,82356,1,2,0:0:0:0:
138,7,82508,2,0,P|150:47|159:89,1,85,2|2,1:2|1:2,0:0:0:0:
95,269,82813,2,0,P|54:256|12:247,1,85,10|2,0:0|0:0,0:0:0:0:
238,204,83117,6,0,B|330:182|301:252|399:225,1,170,2|10,1:2|0:0,0:0:0:0:
283,378,83574,1,2,0:0:0:0:
283,378,83650,1,2,0:0:0:0:
283,378,83726,2,0,P|273:334|261:295,1,85,2|2,1:2|1:2,0:0:0:0:
152,163,84031,1,10,0:0:0:0:
333,109,84183,6,0,P|315:189|229:199,1,170,2|2,1:2|1:2,0:0:0:0:
304,4,84640,2,0,P|344:17|385:27,1,85,10|2,0:0|0:0,0:0:0:0:
240,94,84945,1,2,1:2:0:0:
240,94,85097,1,2,1:2:0:0:
417,197,85249,2,0,P|426:155|440:115,1,85,14|0,0:0|0:0,0:0:0:0:
466,318,85554,6,0,P|385:290|302:272,1,170,6|10,1:2|0:0,0:0:0:0:
302,272,86163,1,0,1:2:0:0:
156,363,86315,1,2,1:2:0:0:
227,181,86467,1,8,0:0:0:0:
34,201,86620,6,0,B|94:216|94:216|118:257|118:257|176:271,1,170,2|2,1:2|1:2,0:0:0:0:
209,282,87000,1,2,0:0:0:0:
209,282,87077,1,10,0:0:0:0:
143,109,87229,1,2,0:0:0:0:
309,159,87381,2,0,P|267:168|226:180,1,85,2|2,1:2|1:2,0:0:0:0:
330,327,87686,2,0,P|339:285|351:244,1,85,10|2,0:0|0:0,0:0:0:0:
512,99,87990,6,0,P|505:160|402:162,1,170,2|10,1:2|0:0,0:0:0:0:
260,67,88447,1,2,0:0:0:0:
375,13,88599,2,0,P|366:55|353:96,1,85,0|0,1:2|1:2,0:0:0:0:
258,247,88904,1,10,0:0:0:0:
89,222,89056,6,0,P|121:159|229:169,1,170,2|10,1:2|0:0,0:0:0:0:
335,324,89513,2,0,P|343:282|356:241,1,85,10|4,0:3|0:3,0:0:0:0:
363,214,89742,1,4,0:3:0:0:
363,214,89818,1,10,0:0:0:0:
161,282,89970,1,10,0:0:0:0:
161,282,90427,1,6,1:2:0:0:
166,92,92863,6,0,P|109:146|142:226,1,152.999995330811,6|10,1:2|0:0,0:0:0:0:
204,293,93320,1,2,1:2:0:0:
204,293,93396,1,0,1:2:0:0:
204,293,93472,2,0,P|242:277|297:265,1,76.4999976654053,2|0,1:2|1:2,0:0:0:0:
350,330,93777,1,10,0:0:0:0:
452,206,93929,6,0,P|378:183|307:156,1,152.999995330811,0|0,1:2|1:2,0:0:0:0:
204,46,94386,1,10,0:0:0:0:
204,46,94691,2,0,P|240:35|276:21,1,76.4999976654053,2|0,1:2|1:2,0:0:0:0:
350,80,94995,1,10,0:0:0:0:
350,80,95148,1,0,1:2:0:0:
179,232,95300,6,0,P|158:182|244:155,1,152.999995330811,6|10,1:2|0:0,0:0:0:0:
67,244,95757,2,0,P|79:280|88:317,1,76.4999976654053,2|0,0:0|1:2,0:0:0:0:
12,380,96061,1,2,1:2:0:0:
12,380,96214,1,10,0:0:0:0:
196,322,96366,6,0,P|266:348|342:365,1,152.999995330811,0|0,1:2|1:2,0:0:0:0:
459,255,96823,2,0,P|446:293|435:342,1,76.4999976654053,10|2,0:0|0:0,0:0:0:0:
357,211,97127,1,2,1:2:0:0:
357,211,97280,1,2,1:2:0:0:
486,154,97432,2,0,P|473:115|462:67,1,76.4999976654053,8|2,0:0|0:0,0:0:0:0:
272,59,97736,6,0,P|344:66|385:6,1,152.999995330811,6|10,1:2|0:0,0:0:0:0:
228,139,98193,1,2,1:2:0:0:
179,11,98346,2,0,B|123:23|123:23|96:61|96:61|47:72,1,152.999995330811,2|10,1:2|0:0,0:0:0:0:
49,235,98802,6,0,P|111:233|113:144,1,152.999995330811,0|2,1:2|1:2,0:0:0:0:
221,234,99259,2,0,P|206:278|197:326,1,76.4999976654053,10|10,0:0|0:0,0:0:0:0:
190,341,99488,1,8,0:0:0:0:
190,341,99564,2,0,P|134:354|81:376,2,114.749996498108,2|2|2,1:2|1:2|1:2,0:0:0:0:
311,188,100173,5,6,1:2:0:0:
311,188,100325,1,2,0:0:0:0:
377,275,100478,2,0,P|428:223|408:153,1,152.999995330811,10|2,0:0|1:2,0:0:0:0:
291,99,100934,1,0,1:2:0:0:
352,28,101087,1,10,0:0:0:0:
165,168,101239,6,0,B|248:148|220:210|312:187,1,152.999995330811,0|0,1:2|1:2,0:0:0:0:
189,278,101696,1,10,0:0:0:0:
189,278,102000,2,0,P|201:314|206:352,1,76.4999976654053,2|0,1:2|1:2,0:0:0:0:
295,288,102305,1,10,0:0:0:0:
295,288,102457,1,2,0:0:0:0:
150,149,102610,6,0,P|115:210|15:198,1,152.999995330811,6|10,1:2|0:0,0:0:0:0:
139,55,103066,2,0,P|175:67|212:74,1,76.4999976654053,2|0,0:0|1:2,0:0:0:0:
61,131,103371,1,2,1:2:0:0:
218,236,103523,2,0,P|225:198|237:162,2,76.4999976654053,10|2|2,0:0|1:2|0:0,0:0:0:0:
159,306,103980,1,0,1:2:0:0:
318,236,104132,6,0,B|401:216|373:278|465:255,1,152.999995330811,8|2,0:0|1:2,0:0:0:0:
403,74,104589,1,0,1:2:0:0:
403,74,104665,1,2,0:0:0:0:
403,74,104742,1,8,0:0:0:0:
490,166,104894,1,2,1:2:0:0:
280,146,105046,6,0,P|306:68|325:-7,1,152.999995330811,6|10,1:2|0:0,0:0:0:0:
170,149,105503,2,0,P|186:191|200:239,1,76.4999976654053,2|0,0:0|1:2,0:0:0:0:
150,298,105807,1,2,1:2:0:0:
150,298,105960,1,10,0:0:0:0:
338,372,106112,6,0,P|347:322|249:302,1,152.999995330811,2|0,1:2|1:2,0:0:0:0:
430,168,106569,2,0,P|394:181|357:193,1,76.4999976654053,8|0,0:0|1:2,0:0:0:0:
261,105,106873,1,10,0:3:0:0:
253,87,106949,1,8,0:3:0:0:
252,68,107025,1,4,0:3:0:0:
259,50,107101,1,4,0:3:0:0:
270,36,107178,2,0,P|305:49|342:61,1,76.4999976654053,14|0,0:0|1:2,0:0:0:0:
188,202,107483,6,0,B|125:186|125:186|102:148|102:148|41:133,1,170,14|2,0:0|1:2,0:0:0:0:
135,339,107922,2,0,P|214:308|296:286,1,170,14|2,0:0|1:2,0:0:0:0:
324,285,108287,1,0,1:2:0:0:
324,285,108361,1,14,0:0:0:0:
386,364,108521,1,2,1:2:0:0:
474,319,108681,1,2,1:2:0:0:
357,196,108835,6,0,P|372:129|476:129,1,170,14|10,0:0|0:0,0:0:0:0:
493,131,109222,1,8,0:0:0:0:
493,131,109299,2,0,P|472:180|463:221,1,85,10|10,0:0|0:3,0:0:0:0:
370,87,109608,2,0,P|349:38|340:-3,1,85,6|6,0:3|0:3,0:0:0:0:
201,119,109918,6,0,P|238:128|273:141,2,76.4999976654053,14|0|2,0:0|1:2|0:0,0:0:0:0:
79,274,110374,2,0,B|135:262|135:262|162:224|162:224|211:213,1,152.999995330811,2|2,1:2|1:2,0:0:0:0:
266,348,110831,2,0,P|274:311|290:265,1,76.4999976654053,14|0,0:0|1:2,0:0:0:0:
487,203,111136,5,2,0:0:0:0:
422,272,111288,1,2,1:2:0:0:
337,92,111593,1,2,1:2:0:0:
337,92,111669,1,0,1:2:0:0:
337,92,111745,2,0,P|409:95|439:29,1,152.999995330811,14|2,0:0|0:0,0:0:0:0:
295,0,112202,1,2,1:2:0:0:
259,153,112354,6,0,P|218:142|177:133,1,76.4999976654053,12|0,0:0|1:2,0:0:0:0:
121,50,112659,1,2,0:0:0:0:
24,233,112811,2,0,B|41:196|85:195|85:195|117:237|179:224,1,152.999995330811,2|0,1:2|1:2,0:0:0:0:
237,274,113268,1,12,0:0:0:0:
174,350,113420,1,2,1:2:0:0:
340,268,113572,6,0,P|324:232|311:197,1,76.4999976654053,2|0,0:0|1:2,0:0:0:0:
249,91,113877,2,0,P|232:130|224:165,1,76.4999976654053,2|0,0:0|1:2,0:0:0:0:
155,68,114181,1,10,0:0:0:0:
155,68,114334,1,0,1:2:0:0:
300,7,114486,2,0,P|335:21|384:32,1,76.4999976654053,10|4,0:3|0:3,0:0:0:0:
485,190,114791,5,14,0:0:0:0:
394,140,114943,1,0,1:2:0:0:
435,326,115247,1,0,1:2:0:0:
435,326,115400,2,0,P|397:335|362:349,1,76.4999976654053,2|0,0:0|1:2,0:0:0:0:
188,256,115704,1,14,0:0:0:0:
260,369,115857,2,0,P|276:291|309:197,1,152.999995330811,0|0,1:2|1:2,0:0:0:0:
115,151,116313,6,0,P|103:111|87:75,1,76.4999976654053,2|0,0:0|1:2,0:0:0:0:
78,52,116542,1,0,1:2:0:0:
78,52,116618,2,0,P|115:42|151:29,1,76.4999976654053,14|0,0:0|1:2,0:0:0:0:
283,103,116923,2,0,P|246:112|210:125,1,76.4999976654053,2|0,0:0|1:2,0:0:0:0:
36,219,117227,5,14,0:0:0:0:
86,302,117379,2,0,P|137:249|121:178,2,152.999995330811,2|2|2,1:2|1:2|1:2,0:0:0:0:
234,382,118141,1,14,0:0:0:0:
285,299,118293,2,0,P|363:323|454:343,1,152.999995330811,2|0,1:2|1:2,0:0:0:0:
297,198,118750,2,0,P|260:209|223:217,1,76.4999976654053,2|0,0:0|1:2,0:0:0:0:
204,224,118978,1,0,1:2:0:0:
204,224,119055,1,10,0:3:0:0:
249,69,119207,1,4,0:3:0:0:
116,152,119359,1,10,0:0:0:0:
157,334,123166,5,0,1:2:0:0:
157,334,123242,1,0,1:2:0:0:
157,334,123319,2,0,P|147:289|129:238,1,85,14|8,0:0|0:0,0:0:0:0:
197,178,123623,1,2,1:2:0:0:
197,178,123699,1,0,1:2:0:0:
197,178,123775,1,8,0:0:0:0:
136,104,123928,2,0,L|82:118,2,42.5,2|0|8,1:2|1:2|0:0,0:0:0:0:
254,247,124232,2,0,P|299:257|350:275,1,85,14|8,0:0|0:0,0:0:0:0:
370,280,124461,1,8,0:0:0:0:
370,280,124537,6,0,P|381:234|395:189,1,85,6|2,1:2|1:2,0:0:0:0:
512,62,124841,2,0,P|472:107|397:84,1,127.5,10|8,0:0|0:0,0:0:0:0:
382,84,125146,1,2,1:2:0:0:
479,213,125298,1,2,1:2:0:0:
274,125,125450,2,0,P|287:84|296:42,1,85,10|0,0:0|0:0,0:0:0:0:
170,158,125755,5,2,1:2:0:0:
170,158,125907,1,2,1:2:0:0:
328,230,126060,2,0,P|287:239|246:251,1,85,10|0,0:0|1:2,0:0:0:0:
164,296,126364,1,10,0:3:0:0:
234,369,126516,1,2,1:2:0:0:
65,291,126669,2,0,P|78:250|87:208,1,85,6|0,0:3|1:2,0:0:0:0:
263,106,126973,6,0,P|305:97|346:85,1,85,14|0,0:0|1:2,0:0:0:0:
412,201,127278,1,0,1:2:0:0:
512,43,127430,2,0,P|471:34|430:22,1,85,10|0,0:3|1:2,0:0:0:0:
310,198,127735,1,0,1:2:0:0:
497,132,127887,1,14,0:0:0:0:
324,356,128496,6,0,P|282:306|217:313,2,136,2|2|2,0:0|0:0|0:0,0:0:0:0:
90,374,129410,6,0,P|109:307|127:211,1,133.874995914459,6|0,1:2|0:0,0:0:0:0:
156,217,129714,2,0,P|143:176|131:131,1,89.2499972763062,10|0,0:0|0:0,0:0:0:0:
216,32,130019,1,2,1:2:0:0:
289,202,130171,1,0,1:2:0:0:
365,130,130324,2,0,P|322:118|280:105,1,89.2499972763062,2|8,0:0|0:0,0:0:0:0:
230,290,130628,6,0,B|325:267|302:342|402:313,1,178.499994552612,2|10,1:2|0:0,0:0:0:0:
474,258,131085,1,0,0:0:0:0:
378,106,131237,2,0,P|393:62|407:7,1,89.2499972763062,2|0,1:2|1:2,0:0:0:0:
512,153,131542,2,0,P|469:164|427:178,1,89.2499972763062,10|0,0:0|0:0,0:0:0:0:
193,137,131846,6,0,P|186:63|288:69,1,178.499994552612,2|8,1:2|0:0,0:0:0:0:
289,138,132303,1,0,0:0:0:0:
125,242,132456,1,2,1:2:0:0:
209,331,132608,2,0,P|221:287|235:245,1,89.2499972763062,0|2,1:2|0:0,0:0:0:0:
82,160,132912,1,10,0:0:0:0:
164,112,133065,2,0,P|155:82|148:47,2,44.6249986381531,2|2|2,1:2|0:0|1:2,0:0:0:0:
242,10,133369,6,0,P|285:24|328:35,1,89.2499972763062,10|0,0:0|0:0,0:0:0:0:
460,96,133674,1,2,1:2:0:0:
303,159,133826,1,0,1:2:0:0:
425,246,133978,2,0,P|411:203|400:160,1,89.2499972763062,14|0,0:0|0:0,0:0:0:0:
201,231,134283,6,0,B|261:249|261:249|285:295|285:295|351:314,1,178.499994552612,6|8,1:2|0:0,0:0:0:0:
150,384,134740,2,0,P|142:347|128:297,1,89.2499972763062,2|0,0:0|1:2,0:0:0:0:
174,124,135044,1,0,1:2:0:0:
62,200,135197,1,2,0:0:0:0:
145,34,135349,6,0,P|187:83|251:80,1,133.874995914459,8|0,0:0|0:0,0:0:0:0:
276,68,135654,1,0,1:2:0:0:
371,242,135806,2,0,P|414:229|458:220,1,89.2499972763062,10|0,0:0|0:0,0:0:0:0:
291,159,136110,1,2,1:2:0:0:
467,35,136263,1,2,1:2:0:0:
390,136,136415,2,0,P|381:92|369:49,1,89.2499972763062,8|2,0:0|0:0,0:0:0:0:
206,211,136720,6,0,P|231:284|251:387,1,178.499994552612,6|10,1:2|0:0,0:0:0:0:
438,311,137176,2,0,P|431:276|342:257,1,133.874995914459,6|0,1:2|0:0,0:0:0:0:
324,269,137481,1,2,1:2:0:0:
169,111,137633,2,0,B|264:88|241:163|341:134,1,178.499994552612,14|0,0:0|1:2,0:0:0:0:
452,84,138090,2,0,P|434:43|423:0,1,89.2499972763062,10|0,0:0|1:2,0:0:0:0:
396,217,138395,5,8,0:3:0:0:
396,217,138471,1,8,0:3:0:0:
396,217,138547,1,6,0:3:0:0:
512,165,138699,1,2,1:2:0:0:
433,329,138852,2,0,P|373:301|306:284,1,133.874995914459,12|0,0:0|0:0,0:0:0:0:
275,279,139156,6,0,B|215:297|215:297|191:343|191:343|125:362,1,178.499994552612,6|10,1:2|0:0,0:0:0:0:
56,290,139613,1,0,0:0:0:0:
148,131,139765,2,0,P|134:87|122:30,1,89.2499972763062,2|0,1:2|1:2,0:0:0:0:
44,147,140070,1,2,0:0:0:0:
157,224,140222,1,8,0:0:0:0:
244,73,140374,6,0,P|288:120|353:115,1,133.874995914459,2|0,1:2|0:0,0:0:0:0:
382,95,140679,2,0,P|418:112|477:130,1,89.2499972763062,10|0,0:0|1:2,0:0:0:0:
277,207,140983,1,2,1:2:0:0:
456,302,141136,1,0,1:2:0:0:
388,201,141288,2,0,P|375:243|356:283,1,89.2499972763062,10|0,0:0|0:0,0:0:0:0:
152,381,141593,6,0,P|168:305|257:312,1,178.499994552612,2|8,1:2|0:0,0:0:0:0:
324,362,142049,1,0,0:0:0:0:
407,187,142202,2,0,B|386:146|336:144|336:144|301:192|230:177,1,178.499994552612,2|0,1:2|0:0,0:0:0:0:
104,83,142659,1,10,0:0:0:0:
138,257,142811,6,0,P|150:213|164:171,1,89.2499972763062,2|0,1:2|1:2,0:0:0:0:
40,328,143115,2,0,P|29:284|15:242,1,89.2499972763062,10|0,0:0|0:0,0:0:0:0:
232,302,143420,1,2,1:2:0:0:
133,378,143572,1,0,1:2:0:0:
254,285,143725,2,0,P|295:300|338:315,1,89.2499972763062,14|0,0:0|0:0,0:0:0:0:
497,190,144029,6,0,P|484:148|395:141,1,133.874995914459,6|0,1:2|0:0,0:0:0:0:
377,148,144334,2,0,P|391:190|403:233,1,89.2499972763062,10|0,0:0|0:0,0:0:0:0:
270,162,144638,1,2,1:2:0:0:
340,29,144791,1,0,1:2:0:0:
160,45,144943,2,0,P|203:56|246:71,1,89.2499972763062,2|8,0:0|0:0,0:0:0:0:
154,236,145247,6,0,P|122:173|14:182,1,178.499994552612,2|8,0:0|0:0,0:0:0:0:
133,339,145704,2,0,P|173:327|226:315,1,89.2499972763062,2|0,0:0|1:2,0:0:0:0:
336,172,146009,1,0,1:2:0:0:
424,285,146161,2,0,P|384:273|331:261,1,89.2499972763062,10|0,0:0|0:0,0:0:0:0:
235,175,146466,6,0,B|213:109|213:109|224:62|224:62|202:-13,1,178.499994552612,2|10,1:2|0:0,0:0:0:0:
120,51,146923,1,0,0:0:0:0:
323,155,147075,2,0,P|332:110|344:66,1,89.2499972763062,2|2,1:2|1:2,0:0:0:0:
176,255,147379,2,0,P|220:263|263:275,1,89.2499972763062,2|8,0:0|0:0,0:0:0:0:
512,254,147684,6,0,P|492:207|415:200,1,133.874995914459,2|0,1:2|0:0,0:0:0:0:
390,215,147989,1,10,0:0:0:0:
486,372,148141,1,0,0:0:0:0:
338,328,148293,2,0,P|383:317|425:300,1,89.2499972763062,2|0,1:2|1:2,0:0:0:0:
440,107,148598,1,14,0:0:0:0:
288,246,148750,1,0,1:2:0:0:
288,246,148826,1,0,1:2:0:0:
288,246,148902,1,14,0:0:0:0:
204,59,149207,5,10,0:0:0:0:
313,27,149359,1,0,1:2:0:0:
118,102,149511,5,10,0:0:0:0:
266,154,149664,1,0,1:2:0:0:
94,275,149816,5,10,0:0:0:0:
178,174,149968,1,0,1:2:0:0:
267,338,150121,6,0,P|222:347|169:367,1,89.2499972763062,8|0,0:3|1:2,0:0:0:0:
374,269,150425,2,0,P|331:259|289:245,1,89.2499972763062,10|0,0:0|1:2,0:0:0:0:
64,178,150730,6,0,P|82:224|95:275,2,102,10|8|6,0:0|0:3|0:3,0:0:0:0:
26,151,151263,1,6,0:3:0:0:
26,151,151339,6,0,P|41:107|47:74,1,68,6|2,1:2|0:0,0:0:0:0:
127,15,151640,2,0,P|142:59|148:92,1,68,2|2,0:0|0:0,0:0:0:0:
205,160,151942,1,2,0:0:0:0:
278,94,152092,1,2,0:0:0:0:
358,342,152394,5,2,1:2:0:0:
306,235,152698,2,0,L|292:277,2,34,2|2|2,0:0|0:0|0:0,0:0:0:0:
369,164,153004,1,2,1:2:0:0:
212,253,153157,2,0,P|180:243|147:236,1,68,2|2,0:0|0:0,0:0:0:0:
75,290,153451,1,2,0:0:0:0:
10,172,153598,1,0,1:2:0:0:
10,172,153671,1,0,1:2:0:0:
10,172,153745,6,0,P|43:133|97:137,1,102,14|0,0:0|0:0,0:0:0:0:
114,144,154062,1,2,0:0:0:0:
219,44,154221,1,10,0:3:0:0:
219,44,154300,1,8,0:3:0:0:
219,44,154379,2,0,P|161:32|106:10,1,118.999996368408,2|0,1:2|1:2,0:0:0:0:
216,150,154836,5,10,0:0:0:0:
216,150,155145,2,0,P|212:165|208:183,2,34,2|2|2,0:0|0:0|0:0,0:0:0:0:
300,115,155454,1,2,0:0:0:0:
263,263,155609,1,2,0:0:0:0:
347,228,155757,2,0,P|411:252|475:274,1,136,2|2,0:0|0:0,0:0:0:0:
498,288,156128,1,2,0:0:0:0:
498,288,156203,6,0,P|484:323|472:359,2,76.4999976654053,6|2|10,1:2|0:0|0:0,0:0:0:0:
412,107,156662,1,2,0:0:0:0:
512,178,156815,1,2,1:2:0:0:
512,178,156968,2,0,P|475:185|439:197,1,76.4999976654053,2|0,1:2|0:0,0:0:0:0:
197,58,157274,6,0,P|221:126|293:127,1,152.999995330811,10|2,0:0|1:2,0:0:0:0:
317,111,157657,1,2,0:0:0:0:
317,111,157733,2,0,P|326:74|341:38,1,76.4999976654053,10|2,0:0|0:0,0:0:0:0:
199,156,158039,1,2,1:2:0:0:
269,222,158192,2,0,P|256:254|244:299,1,76.4999976654053,2|8,1:2|0:0,0:0:0:0:
178,365,158498,1,2,0:0:0:0:
178,365,158575,1,2,0:0:0:0:
178,365,158651,6,0,B|123:352|123:352|97:313|97:313|48:302,1,152.999995330811,2|8,1:2|0:0,0:0:0:0:
0,223,159107,1,2,0:0:0:0:
108,138,159260,2,0,P|98:105|89:64,1,76.4999976654053,0|0,1:2|1:2,0:0:0:0:
9,121,159564,1,2,0:0:0:0:
152,228,159716,6,0,B|235:208|207:270|299:247,1,152.999995330811,10|2,0:0|1:2,0:0:0:0:
410,183,160173,1,8,0:0:0:0:
277,87,160326,1,2,0:0:0:0:
392,20,160478,2,0,P|380:53|364:117,1,76.4999976654053,2|2,1:2|1:2,0:0:0:0:
482,246,160782,2,0,P|439:285|382:281,1,114.749996498108,14|0,0:0|0:0,0:0:0:0:
354,269,161087,6,0,P|279:257|287:345,1,178.499994552612,6|2,1:2|1:2,0:0:0:0:
186,224,161696,2,0,P|194:195|199:165,1,59.4999981842042,10|2,0:0|0:0,0:0:0:0:
301,71,162001,6,0,B|396:45|373:120|471:92,1,178.499994552612,6|0,1:2|1:2,0:0:0:0:
434,3,162610,1,0,1:2:0:0:
298,178,162914,2,0,P|328:182|356:190,1,59.4999981842042,14|2,0:0|0:0,0:0:0:0:
487,319,163219,1,2,1:2:0:0:
487,319,163524,6,0,P|456:363|394:353,1,118.999996368408,6|2,1:2|0:0,0:0:0:0:
344,287,163980,1,0,1:2:0:0:
344,287,164133,1,10,0:0:0:0:
181,370,164437,6,0,P|164:272|140:180,1,178.499994552612,6|0,1:2|1:2,0:0:0:0:
76,291,165046,1,0,1:2:0:0:
231,129,165351,2,0,P|203:122|170:109,1,59.4999981842042,10|10,0:0|0:3,0:0:0:0:
76,51,165656,2,0,P|105:44|137:31,1,59.4999981842042,6|2,0:3|0:0,0:0:0:0:
298,198,165960,6,0,P|331:149|317:93,1,118.999996368408,4|2,1:2|0:0,0:0:0:0:
392,46,166417,1,2,1:2:0:0:
392,46,166569,2,0,P|420:56|449:63,1,59.4999981842042,10|2,0:0|0:0,0:0:0:0:
512,195,166874,6,0,B|453:208|453:208|422:254|422:254|362:270,1,178.499994552612,6|0,1:2|1:2,0:0:0:0:
305,339,167483,1,0,1:2:0:0:
121,279,167788,2,0,P|130:251|137:222,1,59.4999981842042,14|2,0:0|0:0,0:0:0:0:
220,168,168092,2,0,P|227:196|237:225,1,59.4999981842042,2|2,1:2|0:0,0:0:0:0:
68,129,168397,6,0,P|110:84|166:92,1,118.999996368408,4|2,1:2|0:0,0:0:0:0:
304,143,168854,1,2,1:2:0:0:
270,13,169006,2,0,P|263:42|251:80,1,59.4999981842042,10|0,0:0|1:2,0:0:0:0:
348,220,169310,1,14,0:0:0:0:
292,288,169463,6,0,P|238:267|180:249,1,118.999996368408,0|8,1:2|0:0,0:0:0:0:
117,311,169920,1,0,1:2:0:0:
45,185,170072,1,8,0:0:0:0:
45,185,170148,1,8,0:0:0:0:
45,185,170224,2,0,P|83:175|118:161,2,59.4999981842042,10|8|6,0:0|0:3|0:3,0:0:0:0:
18,268,170681,1,0,1:2:0:0:
136,81,170833,5,14,0:0:0:0:
201,146,170986,2,0,B|247:136|247:136|270:100|270:100|316:88,1,136,0|0,1:2|1:2,0:0:0:0:
397,203,171442,2,0,P|361:188|328:178,1,68,2|0,0:0|1:2,0:0:0:0:
261,234,171747,2,0,P|275:265|285:297,1,68,14|0,0:0|1:2,0:0:0:0:
510,248,172052,5,2,0:0:0:0:
467,371,172204,2,0,P|450:319|374:313,1,136,0|0,1:2|1:2,0:0:0:0:
245,378,172661,2,0,P|208:365|173:355,1,68,14|0,0:0|1:2,0:0:0:0:
90,283,172965,2,0,P|123:273|155:261,1,68,2|0,0:0|1:2,0:0:0:0:
319,192,173270,5,14,0:0:0:0:
221,144,173422,2,0,P|241:209|257:275,2,136,0|0|0,1:2|1:2|1:2,0:0:0:0:
265,67,174183,1,14,0:0:0:0:
132,157,174336,2,0,B|87:147|87:147|64:111|64:111|18:99,1,136,0|0,1:2|1:2,0:0:0:0:
123,342,174945,5,0,1:2:0:0:
183,273,175097,2,0,P|217:283|260:294,1,68,10|8,0:0|0:3,0:0:0:0:
300,369,175402,1,14,0:3:0:0:
300,369,175554,1,14,0:3:0:0:
415,252,175706,6,0,P|396:188|301:188,1,152.999995330811,6|2,1:2|0:0,0:0:0:0:
151,109,176163,2,0,P|212:91|262:72,1,114.749996498108,10|0,0:0|0:0,0:0:0:0:
289,62,176468,1,2,1:2:0:0:
216,213,176620,2,0,B|133:193|160:256|70:235,1,152.999995330811,14|0,0:0|1:2,0:0:0:0:
191,304,177077,1,8,0:0:0:0:
49,111,177381,5,0,1:2:0:0:
49,111,177458,1,0,1:2:0:0:
49,111,177534,2,0,P|40:73|28:37,1,76.4999976654053,14|0,0:0|1:2,0:0:0:0:
139,176,177838,2,0,P|148:138|160:102,1,76.4999976654053,2|0,0:0|0:0,0:0:0:0:
369,67,178143,6,0,P|328:134|260:121,1,152.999995330811,14|2,0:0|0:0,0:0:0:0:
381,223,178600,2,0,P|458:197|538:176,1,152.999995330811,10|2,0:0|1:2,0:0:0:0:
396,366,179057,6,0,B|371:313|304:311|304:311|265:370|197:360,1,229.499992996216,14|8,0:0|0:0,0:0:0:0:
122,255,179666,2,0,P|136:216|149:175,1,76.4999976654053,2|0,0:0|1:2,0:0:0:0:
224,239,179970,1,14,0:0:0:0:
224,239,180123,1,0,1:2:0:0:
50,344,180275,2,0,P|39:307|26:271,1,76.4999976654053,2|0,0:0|0:0,0:0:0:0:
92,60,180579,6,0,P|128:132|208:128,1,170,6|10,1:2|0:0,0:0:0:0:
295,81,181036,1,8,0:0:0:0:
295,81,181112,1,8,0:0:0:0:
295,81,181189,2,0,P|281:41|268:0,1,85,2|0,1:2|1:2,0:0:0:0:
310,181,181493,2,0,P|371:200|431:222,1,127.5,10|0,0:0|0:0,0:0:0:0:
457,234,181798,5,2,1:2:0:0:
434,370,181950,1,0,1:2:0:0:
327,283,182102,2,0,P|288:297|247:310,1,85,10|8,0:0|0:0,0:0:0:0:
216,337,182331,1,8,0:0:0:0:
216,337,182407,2,0,P|177:323|136:310,1,85,10|8,0:0|0:3,0:0:0:0:
67,225,182711,1,6,0:3:0:0:
67,225,183016,6,0,P|38:95|177:161,1,356.999989105225,6|2,1:2|0:0,0:0:0:0:
181,183,184158,1,2,0:0:0:0:
181,183,184234,2,0,B|251:140|362:183|284:211|386:259|465:216,1,305.999990661621,2|2,0:0|0:0,0:0:0:0:
309,374,185453,6,0,P|269:358|228:347,1,85,2|2,0:0|0:0,0:0:0:0:
162,278,185909,1,0,0:0:0:0:
162,278,186062,1,2,0:0:0:0:
320,211,186366,2,0,P|313:191|306:170,2,42.5,2|0|2,0:0|0:0|0:0,0:0:0:0:
392,270,186823,1,0,0:0:0:0:
392,270,186975,2,0,P|385:289|378:310,1,42.5,2|0,0:0|0:0,0:0:0:0:
439,117,187280,6,0,P|401:107|366:93,1,76.4999976654053,2|2,0:0|0:0,0:0:0:0:
367,94,187889,6,0,B|346:53|296:51|296:51|261:99|190:84,1,178.499994552612,6|8,1:2|0:0,0:0:0:0:
145,35,188346,1,0,0:0:0:0:
66,225,188498,1,2,1:2:0:0:
207,175,188651,2,0,P|164:162|122:146,1,89.2499972763062,0|2,1:2|0:0,0:0:0:0:
151,372,188955,1,10,0:0:0:0:
267,309,189107,6,0,P|239:297|215:291,2,44.6249986381531,2|2|2,1:2|0:0|1:2,0:0:0:0:
339,237,189412,2,0,P|323:195|312:152,1,89.2499972763062,10|2,0:0|0:0,0:0:0:0:
375,70,189716,1,2,1:2:0:0:
221,154,189869,1,0,1:2:0:0:
450,219,190021,2,0,P|428:274|405:350,1,133.874995914459,14|0,0:0|0:0,0:0:0:0:
398,366,190326,6,0,B|302:391|325:316|228:345,1,178.499994552612,6|8,1:2|0:0,0:0:0:0:
79,268,190782,2,0,P|95:310|104:353,1,89.2499972763062,2|0,0:0|1:2,0:0:0:0:
123,159,191087,1,0,1:2:0:0:
0,232,191239,1,2,0:0:0:0:
82,63,191392,6,0,P|137:127|222:104,1,178.499994552612,8|0,0:0|1:2,0:0:0:0:
318,194,191848,2,0,P|274:203|232:219,1,89.2499972763062,10|0,0:0|0:0,0:0:0:0:
394,106,192153,2,0,P|407:63|414:19,1,89.2499972763062,2|0,1:2|1:2,0:0:0:0:
432,215,192458,2,0,P|462:247|497:275,1,89.2499972763062,10|0,0:0|0:0,0:0:0:0:
289,384,192762,6,0,P|287:320|388:306,1,178.499994552612,6|10,1:2|0:0,0:0:0:0:
206,227,193219,2,0,P|143:251|79:270,1,133.874995914459,6|0,1:2|0:0,0:0:0:0:
53,276,193524,1,2,1:2:0:0:
199,83,193676,2,0,B|259:101|259:101|283:147|283:147|349:166,1,178.499994552612,14|0,0:0|1:2,0:0:0:0:
499,96,194133,6,0,P|486:51|477:6,1,89.2499972763062,10|0,0:0|1:2,0:0:0:0:
385,71,194437,1,8,0:3:0:0:
385,71,194513,1,8,0:3:0:0:
385,71,194590,1,6,0:3:0:0:
467,215,194742,1,2,1:2:0:0:
257,226,194894,2,0,P|279:169|351:170,1,133.874995914459,12|0,0:0|0:0,0:0:0:0:
370,180,195199,6,0,P|344:266|322:357,1,178.499994552612,6|10,1:2|0:0,0:0:0:0:
426,297,195656,1,0,0:0:0:0:
245,207,195808,2,0,P|230:164|214:123,1,89.2499972763062,2|0,1:2|1:2,0:0:0:0:
294,76,196112,1,2,0:0:0:0:
137,185,196265,1,8,0:0:0:0:
241,302,196417,6,0,B|145:276|168:351|71:323,1,178.499994552612,2|10,1:2|0:0,0:0:0:0:
10,254,196874,1,0,0:0:0:0:
137,90,197026,2,0,P|121:48|109:5,1,89.2499972763062,2|0,1:2|1:2,0:0:0:0:
18,147,197331,2,0,P|60:159|102:174,1,89.2499972763062,10|0,0:0|0:0,0:0:0:0:
367,77,197635,6,0,P|335:136|274:138,1,133.874995914459,2|0,1:2|0:0,0:0:0:0:
248,129,197940,2,0,P|236:85|220:44,1,89.2499972763062,8|0,0:0|0:0,0:0:0:0:
435,175,198244,2,0,P|404:258|387:346,1,178.499994552612,2|0,1:2|0:0,0:0:0:0:
505,293,198701,1,10,0:0:0:0:
311,228,198854,6,0,P|269:243|226:255,1,89.2499972763062,2|0,1:2|1:2,0:0:0:0:
99,334,199158,2,0,P|142:345|183:361,1,89.2499972763062,10|0,0:0|0:0,0:0:0:0:
211,144,199463,1,2,1:2:0:0:
69,239,199615,1,0,1:2:0:0:
89,70,199767,2,0,P|100:113|116:154,1,89.2499972763062,14|0,0:0|0:0,0:0:0:0:
282,349,200072,6,0,B|303:308|353:306|353:306|388:354|459:339,1,178.499994552612,6|10,1:2|0:0,0:0:0:0:
501,270,200529,1,0,0:0:0:0:
331,135,200681,2,0,P|346:89|360:41,1,89.2499972763062,2|0,1:2|1:2,0:0:0:0:
495,165,200986,2,0,P|452:177|409:191,1,89.2499972763062,2|8,0:0|0:0,0:0:0:0:
151,252,201290,6,0,P|165:195|248:198,1,133.874995914459,2|0,0:0|0:0,0:0:0:0:
260,195,201595,1,8,0:0:0:0:
98,131,201747,1,10,0:0:0:0:
98,131,201823,1,8,0:0:0:0:
98,131,201899,2,0,P|112:81|125:36,1,89.2499972763062,0|0,1:2|1:2,0:0:0:0:
0,282,202204,1,10,0:0:0:0:
0,282,202508,6,0,B|60:300|60:300|84:346|84:346|150:365,1,178.499994552612,2|8,1:2|0:0,0:0:0:0:
319,288,202965,1,2,0:0:0:0:
202,207,203118,2,0,P|215:249|226:292,1,89.2499972763062,2|2,1:2|1:2,0:0:0:0:
395,369,203422,2,0,P|406:325|419:283,1,89.2499972763062,2|8,0:0|0:0,0:0:0:0:
505,214,203727,5,2,1:2:0:0:
331,156,203879,1,0,1:2:0:0:
511,34,204031,2,0,P|492:86|409:90,1,133.874995914459,10|0,0:0|0:0,0:0:0:0:
395,86,204336,2,0,P|410:38|421:-7,1,89.2499972763062,2|0,1:2|1:2,0:0:0:0:
256,103,204640,1,14,0:0:0:0:
413,211,204793,1,0,1:2:0:0:
413,211,204869,1,0,1:2:0:0:
413,211,204945,1,14,0:0:0:0:
170,357,205249,5,10,0:0:0:0:
141,262,205402,1,0,1:2:0:0:
330,306,205554,5,10,0:0:0:0:
264,379,205706,1,0,1:2:0:0:
207,191,205859,5,10,0:0:0:0:
302,214,206011,1,0,1:2:0:0:
70,331,206163,6,0,P|59:288|44:246,1,89.2499972763062,8|0,0:3|1:2,0:0:0:0:
157,109,206468,1,10,0:0:0:0:
217,323,207381,6,0,P|258:254|346:258,1,170,6|10,1:2|0:0,0:0:0:0:
399,319,207838,1,0,0:0:0:0:
469,166,207991,2,0,P|425:157|377:137,1,85,0|2,1:2|1:2,0:0:0:0:
269,214,208294,1,8,0:0:0:0:
364,50,208447,6,0,B|272:28|301:98|203:71,1,170,2|2,1:2|1:2,0:0:0:0:
178,62,208827,1,2,0:0:0:0:
178,62,208903,1,10,0:0:0:0:
74,223,209056,1,2,1:2:0:0:
6,146,209208,2,0,P|47:137|88:124,1,85,2|2,1:2|1:2,0:0:0:0:
161,288,209513,2,0,P|169:246|182:205,1,85,10|2,0:0|0:0,0:0:0:0:
372,259,209818,6,0,P|342:333|261:333,1,170,2|10,1:2|0:0,0:0:0:0:
352,162,210274,1,8,0:0:0:0:
352,162,210350,1,8,0:0:0:0:
352,162,210426,2,0,P|392:174|434:183,1,85,2|2,1:2|1:2,0:0:0:0:
315,76,210731,1,10,0:0:0:0:
257,226,210884,6,0,B|238:188|192:187|192:187|159:231|93:217,1,170,2|2,1:2|1:2,0:0:0:0:
41,297,211340,2,0,P|82:307|122:320,1,85,10|0,0:0|1:2,0:0:0:0:
118,125,211645,1,2,1:2:0:0:
18,200,211797,1,2,1:2:0:0:
82,44,211950,2,0,P|127:86|187:74,1,127.5,14|0,0:0|0:0,0:0:0:0:
221,51,212255,6,0,B|277:70|277:70|302:117|302:117|357:133,1,170,6|10,1:2|0:0,0:0:0:0:
357,133,212863,1,0,1:2:0:0:
366,328,213015,1,2,1:2:0:0:
250,178,213167,1,8,0:0:0:0:
462,197,213321,6,0,P|382:222|303:255,1,170,2|2,1:2|1:2,0:0:0:0:
280,272,213700,1,2,0:0:0:0:
280,272,213777,1,10,0:0:0:0:
129,198,213929,1,2,0:0:0:0:
165,352,214081,2,0,P|174:310|186:269,1,85,2|2,1:2|1:2,0:0:0:0:
28,162,214387,2,0,P|39:202|48:244,1,85,10|2,0:0|0:0,0:0:0:0:
210,104,214691,6,0,P|176:98|144:87,2,68,2|2|2,0:0|0:0|0:0,0:0:0:0:
286,54,215148,2,0,P|319:48|351:37,2,68,2|2|2,0:0|0:0|0:0,0:0:0:0:
256,192,215605,1,2,0:0:0:0:
256,192,215757,1,2,0:0:0:0:
