osu file format v14

[General]
AudioFilename: audio.ogg
AudioLeadIn: 0
PreviewTime: 56356
Countdown: 0
SampleSet: Soft
StackLeniency: 0.7
Mode: 0
LetterboxInBreaks: 0
WidescreenStoryboard: 1

[Editor]
DistanceSpacing: 1
BeatDivisor: 4
GridSize: 16
TimelineZoom: 1

[Metadata]
Title:Shura ni Otoshite (TV Size)
TitleUnicode:修羅に堕として (TV Size)
Artist:sajou no hana
ArtistUnicode:sajou no hana
Creator:Fufla
Version:aika's Insane
Source:異修羅
Tags:Tatsuya Kitani キタニタツヤ Ishura anime Season 1 opening op female vocals japanese jpop j-pop jrock j-rock tesla173 tesla darkebluu actiol fujinn ryuusei aika sana 渡辺翔 Watanabe Sho
BeatmapID:4515528
BeatmapSetID:2128121

[Difficulty]
HPDrainRate:5.5
CircleSize:5
OverallDifficulty:8
ApproachRate:8.5
SliderMultiplier:1.5
SliderTickRate:1

[Events]
//Background and Video events
0,0,"bg.jpg",0,0
Video,230,"video.mp4"
//Break Periods
//Storyboard Layer 0 (Background)
//Storyboard Layer 1 (Fail)
//Storyboard Layer 2 (Pass)
//Storyboard Layer 3 (Foreground)
//Storyboard Layer 4 (Overlay)
//Storyboard Sound Samples

[TimingPoints]
1132,340.909090909091,4,2,0,60,1,0
1132,-133.333333333333,4,2,0,60,0,0
5042,340.909090909091,4,2,0,80,1,0
5042,-100,4,2,0,80,0,0
16122,-166.666666666667,4,2,0,70,0,0
26860,-111.111111111111,4,2,0,80,0,0
37769,-200,4,2,0,60,0,0
47996,-166.666666666667,4,2,0,60,0,0
48678,-125,4,2,0,75,0,0
55667,-200,4,2,0,75,0,0
56860,-90.9090909090909,4,2,0,90,0,0
73223,-111.111111111111,4,2,0,80,0,0
75951,-133.333333333333,4,2,0,70,0,0
76632,-133.333333333333,4,2,0,80,0,0
76973,-133.333333333333,4,2,0,100,0,0
77314,-133.333333333333,4,2,0,70,0,0
78678,-100,4,2,0,80,0,0
88223,-100,4,2,0,90,0,0
89587,-166.666666666667,4,2,0,80,0,0
90098,-166.666666666667,4,2,0,5,0,0

[Colours]
Combo1 : 108,108,108
Combo2 : 156,46,46

[HitObjects]
469,164,1132,5,0,0:0:0:0:
416,123,1302,1,0,0:0:0:0:
353,145,1472,1,0,0:0:0:0:
408,191,1643,2,0,B|329:228|329:228|286:223,1,112.500004291535
80,195,2325,6,0,L|105:251,2,56.2500021457673
80,195,2836,1,0,0:0:0:0:
72,309,3007,2,0,L|140:314,1,56.2500021457673,2|0,0:0|0:0,0:0:0:0:
247,319,3347,1,0,0:0:0:0:
60,322,3518,6,0,B|207:318|207:318|515:372,1,450.000017166138,4|0,1:2|0:0,0:0:0:0:
422,191,5042,6,0,B|354:224|354:224|266:209,1,150,4|0,1:1|0:0,0:0:0:0:
167,184,5553,1,0,1:0:0:0:
215,134,5723,2,0,L|286:178,1,75,0|4,0:0|0:3,0:0:0:0:
371,334,6065,2,0,L|346:228,1,75,0|0,0:0|1:0,0:0:0:0:
470,283,6406,1,0,0:0:0:0:
389,312,6576,6,0,B|294:343|294:343|243:304,1,150,4|0,0:3|1:0,0:0:0:0:
186,242,7087,5,0,0:0:0:0:
306,259,7258,1,4,0:3:0:0:
193,368,7428,2,0,L|181:273,1,75,0|0,0:0|1:0,0:0:0:0:
128,199,7769,6,0,B|76:268|76:268|61:348,1,150
196,207,8281,1,0,1:0:0:0:
74,173,8451,2,0,L|0:183,1,75,0|4,0:0|0:3,0:0:0:0:
186,230,8792,2,0,B|219:245|219:245|272:250,1,75,0|0,0:0|1:0,0:0:0:0:
171,26,9133,6,0,L|184:184,1,150,2|2,0:0|0:0,0:0:0:0:
60,14,9644,5,2,1:2:0:0:
213,90,9815,1,2,0:0:0:0:
84,193,9985,1,4,0:3:0:0:
259,216,10156,5,0,1:0:0:0:
286,221,10241,1,0,1:0:0:0:
313,226,10326,1,0,1:0:0:0:
340,231,10411,1,0,1:0:0:0:
367,236,10496,2,0,L|201:247,1,150,4|0,1:2|0:0,0:0:0:0:
457,289,11007,1,0,1:0:0:0:
382,284,11178,2,0,B|372:322|372:322|374:371,1,75,0|4,0:0|0:3,0:0:0:0:
230,323,11519,6,0,L|315:335,1,75,0|0,0:0|1:0,0:0:0:0:
148,355,11860,2,0,B|78:376|78:376|-4:337,1,150
215,227,12372,1,0,1:0:0:0:
138,256,12542,5,0,0:0:0:0:
54,208,12712,1,4,0:3:0:0:
177,146,12883,1,0,0:0:0:0:
480,362,13224,6,0,B|459:283|459:283|488:204,1,150
316,305,13735,1,0,1:0:0:0:
343,182,13906,2,0,B|366:212|366:212|378:267,1,75,0|4,0:0|0:3,0:0:0:0:
443,97,14247,2,0,B|459:57|459:57|466:12,1,75,0|0,0:0|1:0,0:0:0:0:
283,117,14587,6,0,L|104:141,1,150,2|2,0:0|0:0,0:0:0:0:
302,303,15099,1,0,1:2:0:0:
346,127,15269,1,2,0:0:0:0:
200,202,15440,1,4,0:3:0:0:
323,285,15610,5,0,1:0:0:0:
349,304,15696,1,0,1:0:0:0:
375,323,15781,1,0,1:0:0:0:
401,342,15866,1,0,1:0:0:0:
427,361,15951,1,4,1:2:0:0:
232,275,16462,1,0,0:0:0:0:
179,315,16633,5,0,0:0:0:0:
243,301,16803,2,0,B|256:242|256:242|250:200,1,89.9999972534181,2|0,0:0|0:0,0:0:0:0:
134,266,17314,2,0,L|42:297,1,89.9999972534181,2|0,0:0|0:0,0:0:0:0:
48,294,17826,1,2,0:0:0:0:
75,113,18337,6,0,L|84:52,1,44.999998626709
81,68,18678,2,0,L|88:173,1,89.9999972534181
150,205,19190,1,0,0:0:0:0:
159,193,19872,5,0,0:0:0:0:
105,239,20042,2,0,B|129:301|129:301|125:373,1,134.999995880127,2|0,0:0|0:0,0:0:0:0:
243,301,20895,5,0,0:0:0:0:
243,301,21065,2,0,L|231:355,1,44.999998626709
167,239,21406,6,0,B|215:260|215:260|311:238,1,134.999995880127,0|0,3:0|0:0,0:0:0:0:
398,221,22087,2,0,L|430:215,1,22.4999993133545
420,216,22258,2,0,B|451:290|451:290|432:279,1,89.9999972534181,0|2,0:0|0:0,0:0:0:0:
325,238,22769,6,0,L|266:253,1,44.999998626709,2|0,0:0|0:0,0:0:0:0:
360,150,23110,1,0,0:0:0:0:
289,156,23281,2,0,L|346:171,1,44.999998626709
332,167,23536,2,0,L|309:182,1,22.4999993133545,2|0,0:0|0:0,0:0:0:0:
232,224,23792,5,0,0:0:0:0:
181,189,23962,1,0,0:0:0:0:
100,219,24132,1,0,3:0:0:0:
272,325,24474,1,0,0:0:0:0:
272,325,24644,1,0,0:0:0:0:
161,245,24985,5,0,0:0:0:0:
243,157,25326,5,0,0:0:0:0:
326,202,25497,2,0,L|386:206,1,44.999998626709
260,188,25837,1,0,0:0:0:0:
192,229,26008,2,0,B|181:251|181:251|181:279,1,44.999998626709
345,118,26349,5,2,0:3:0:0:
221,94,26519,5,2,0:3:0:0:
97,70,26690,5,2,0:3:0:0:
202,182,26860,6,0,B|227:276|227:276|218:342,1,134.999995880127,4|4,1:2|0:3,0:0:0:0:
301,131,27372,2,0,L|326:58,1,67.4999979400635,0|0,1:0|0:0,0:0:0:0:
249,258,27712,5,4,0:3:0:0:
341,206,27883,1,0,0:0:0:0:
231,231,28053,1,0,1:0:0:0:
376,268,28224,1,0,0:0:0:0:
358,359,28394,5,4,0:3:0:0:
247,223,28565,2,0,L|175:249,1,67.4999979400635,2|0,0:0|1:0,0:0:0:0:
226,373,28905,2,0,L|305:381,1,67.4999979400635,0|4,0:0|0:3,0:0:0:0:
293,379,29417,5,0,1:0:0:0:
220,275,29587,2,0,B|169:323|169:323|131:391,1,134.999995880127
276,304,30099,5,0,1:0:0:0:
150,251,30269,1,0,0:0:0:0:
251,182,30440,1,4,0:3:0:0:
65,203,30781,5,0,1:0:0:0:
63,267,30951,2,0,B|77:298|77:298|101:320,1,67.4999979400635,0|4,0:0|0:3,0:0:0:0:
206,283,31292,2,0,L|272:268,1,67.4999979400635,0|0,0:0|1:0,0:0:0:0:
166,328,31633,5,0,0:0:0:0:
130,242,31803,1,4,0:3:0:0:
209,316,31974,2,0,B|204:350|204:350|180:380,1,67.4999979400635,0|4,0:0|0:3,0:0:0:0:
65,255,32314,6,0,L|160:152,1,134.999995880127,0|0,1:0|0:0,0:0:0:0:
245,75,32826,1,0,1:0:0:0:
119,91,32997,1,0,0:0:0:0:
260,136,33167,1,4,0:3:0:0:
260,136,33507,5,0,1:0:0:0:
163,110,33678,1,0,0:0:0:0:
222,193,33848,5,4,0:3:0:0:
347,103,34019,2,0,B|366:132|366:132|370:192,1,67.4999979400635,2|0,0:0|1:0,0:0:0:0:
301,292,34360,2,0,B|366:303|366:303|435:270,1,134.999995880127
499,159,34872,1,0,1:0:0:0:
388,193,35042,6,0,L|316:215,1,67.4999979400635,0|4,0:0|0:3,0:0:0:0:
203,96,35383,2,0,L|277:118,1,67.4999979400635,2|0,0:0|1:0,0:0:0:0:
271,287,35723,2,0,B|256:221|256:221|198:186,1,134.999995880127
301,340,36235,2,0,L|311:259,1,67.4999979400635,0|0,1:0|0:0,0:0:0:0:
215,357,36576,6,0,B|151:344|151:344|72:343,1,134.999995880127,4|0,0:3|1:0,0:0:0:0:
188,263,37087,1,4,0:3:0:0:
214,245,37173,1,4,0:3:0:0:
240,227,37258,1,0,1:0:0:0:
39,248,37428,1,0,1:0:0:0:
222,36,37769,6,0,B|240:56|240:56|229:117,1,75,4|0,3:0|0:0,0:0:0:0:
154,136,38280,2,0,L|102:141,1,37.5,4|0,3:0|0:0,0:0:0:0:
254,163,38621,1,2,3:0:0:0:
254,163,38962,2,0,L|232:207,1,37.5
226,202,39218,1,0,0:0:0:0:
215,208,39303,6,0,L|129:227,1,75,0|4,0:0|3:0,0:0:0:0:
352,293,39985,2,0,L|425:276,1,75,2|0,3:0|0:0,0:0:0:0:
425,276,40497,1,0,0:0:0:0:
347,315,40667,2,0,L|314:273,2,37.5,4|0|0,3:0|0:0|0:0,0:0:0:0:
280,360,41178,2,0,B|248:338|248:338|203:324,1,75
326,218,41860,5,0,0:0:0:0:
365,187,42031,1,0,0:0:0:0:
326,138,42201,1,4,3:0:0:0:
270,173,42371,1,4,3:0:0:0:
307,236,42542,2,0,L|349:250,1,37.5,0|2,0:0|3:0,0:0:0:0:
200,277,42883,5,2,0:0:0:0:
187,279,42996,5,0,0:0:0:0:
175,281,43110,5,0,0:0:0:0:
163,283,43223,6,0,L|155:324,2,37.5,4|0|0,3:0|0:0|0:0,0:0:0:0:
83,207,43735,2,0,B|75:245|75:245|99:280,1,75,4|2,3:0|3:0,0:0:0:0:
128,104,44417,2,0,L|135:59,1,37.5
193,22,44758,6,0,B|210:11|210:11|236:0,1,37.5,0|4,0:0|3:0,0:0:0:0:
246,85,45099,1,4,3:0:0:0:
452,14,45440,2,0,B|416:24|416:24|369:26,1,75,2|0,3:0|0:0,0:0:0:0:
278,32,45951,1,0,0:0:0:0:
350,108,46121,6,0,B|365:128|365:128|369:190,1,75,4|0,3:0|0:0,0:0:0:0:
330,283,46632,2,0,L|329:243,1,37.5,0|2,0:0|3:0,0:0:0:0:
384,341,46973,2,0,L|400:259,1,75
425,365,47485,5,0,0:0:0:0:
356,319,47655,1,4,3:0:0:0:
455,293,47826,1,4,3:0:0:0:
331,366,47996,6,0,L|241:351,1,89.9999972534181,2|0,0:0|0:0,0:0:0:0:
10,234,48678,6,0,B|-4:265|-4:265|16:361,1,120,4|0,1:2|1:0,0:0:0:0:
96,244,49189,2,0,L|160:224,1,60,4|0,0:3|1:0,0:0:0:0:
193,222,49445,1,0,1:0:0:0:
200,232,49530,2,0,L|210:144,1,60,4|0,1:3|0:0,0:0:0:0:
216,70,49871,5,4,0:3:0:0:
146,127,50042,1,0,1:0:0:0:
260,168,50212,5,4,0:3:0:0:
274,176,50297,2,0,B|293:184|293:184|356:184,1,60,0|0,1:0|0:0,0:0:0:0:
373,167,50553,1,4,1:3:0:0:
398,163,50638,1,4,0:3:0:0:
423,160,50723,1,0,1:0:0:0:
325,223,50894,5,4,0:3:0:0:
440,252,51064,1,0,1:0:0:0:
352,306,51235,5,4,0:3:0:0:
329,320,51320,1,4,0:3:0:0:
307,334,51405,1,0,1:0:0:0:
155,275,51576,5,4,0:3:0:0:
247,215,51746,1,0,1:0:0:0:
247,215,51831,1,0,1:0:0:0:
247,215,51917,1,4,1:3:0:0:
139,345,52172,5,0,1:0:0:0:
130,357,52257,2,0,L|113:252,1,90,4|0,1:3|1:0,0:0:0:0:
128,228,52598,2,0,B|100:218|100:218|50:229,1,60,4|0,0:3|0:0,0:0:0:0:
163,151,52939,5,4,0:3:0:0:
187,134,53024,1,0,1:0:0:0:
211,117,53110,1,0,1:0:0:0:
107,123,53280,1,4,1:3:0:0:
196,47,53451,5,0,1:0:0:0:
229,42,53536,1,0,1:0:0:0:
262,37,53621,1,4,0:3:0:0:
136,26,53792,5,0,1:0:0:0:
111,24,53877,1,4,0:3:0:0:
86,22,53962,1,4,0:3:0:0:
61,20,54047,1,4,0:3:0:0:
36,18,54132,1,4,3:2:0:0:
405,252,55667,6,0,B|345:296|345:296|268:277,1,150,2|0,0:0|0:0,0:0:0:0:
0,20,56860,6,0,B|16:51|16:51|20:103,1,82.5000025177003,4|0,1:2|0:0,0:0:0:0:
58,226,57201,2,0,B|66:98|66:98|80:58,1,165.000005035401,2|0,0:0|0:0,0:0:0:0:
251,141,57712,6,0,L|172:165,1,82.5000025177003,4|0,0:3|0:0,0:0:0:0:
416,168,58053,1,0,1:2:0:0:
300,99,58223,2,0,B|264:83|264:83|199:80,1,82.5000025177003,0|4,0:0|0:3,0:0:0:0:
193,196,58564,2,0,L|222:283,1,82.5000025177003,0|0,0:0|1:0,0:0:0:0:
318,325,58905,1,0,0:0:0:0:
148,285,59076,5,2,3:2:0:0:
306,201,59246,1,0,0:0:0:0:
253,347,59417,1,0,1:0:0:0:
232,210,59587,6,0,B|316:205|316:205|387:252,1,165.000005035401,2|0,0:0|0:0,0:0:0:0:
440,72,60098,1,0,1:0:0:0:
340,100,60269,1,0,0:0:0:0:
468,89,60439,6,0,B|486:126|486:126|478:182,1,82.5000025177003,4|0,0:3|0:0,0:0:0:0:
298,43,60780,1,2,1:1:0:0:
408,152,60951,2,0,L|405:54,1,82.5000025177003,0|4,0:0|0:3,0:0:0:0:
250,142,61292,2,0,B|273:157|273:157|339:158,1,82.5000025177003,0|0,0:0|1:0,0:0:0:0:
155,172,61632,5,0,0:0:0:0:
329,288,61803,1,4,0:3:0:0:
133,370,61973,1,0,1:0:0:0:
122,328,62059,1,0,1:0:0:0:
111,286,62144,1,0,1:0:0:0:
100,244,62229,1,0,1:0:0:0:
89,202,62314,1,4,1:2:0:0:
413,365,62655,6,0,B|467:297|467:297|444:209,1,165.000005035401,2|0,0:0|0:0,0:0:0:0:
283,276,63167,2,0,B|320:291|320:291|388:299,1,82.5000025177003,4|0,0:3|0:0,0:0:0:0:
206,370,63507,2,0,L|121:318,1,82.5000025177003,0|0,1:0|0:0,0:0:0:0:
235,122,63848,2,0,B|222:196|222:196|175:284,1,165.000005035401,4|0,0:3|1:0,0:0:0:0:
70,173,64360,6,0,L|50:74,1,82.5000025177003,0|4,0:0|0:3,0:0:0:0:
222,57,64701,2,0,L|213:139,1,82.5000025177003,0|0,0:0|1:0,0:0:0:0:
148,298,65042,2,0,B|61:243|61:243|-19:238,1,165.000005035401,0|2,0:0|0:0,0:0:0:0:
285,167,65553,1,0,1:2:0:0:
2,302,65894,5,4,0:3:0:0:
218,231,66064,1,2,0:0:0:0:
146,215,66235,5,2,1:2:0:0:
362,280,66405,1,2,0:0:0:0:
198,371,66576,2,0,L|185:273,1,82.5000025177003,2|0,3:2|0:0,0:0:0:0:
191,96,66917,5,2,1:3:0:0:
224,120,67002,1,2,0:3:0:0:
242,156,67087,1,2,0:3:0:0:
251,195,67172,1,2,0:3:0:0:
251,236,67257,1,6,0:3:0:0:
245,14,67428,1,0,1:0:0:0:
129,140,67598,5,0,1:0:0:0:
102,173,67684,1,0,1:0:0:0:
75,206,67769,1,4,3:2:0:0:
75,206,68110,5,4,0:3:0:0:
301,177,68280,2,0,B|259:178|259:178|201:165,1,82.5000025177003,4|0,1:2|0:0,0:0:0:0:
367,130,68621,2,0,L|511:232,1,165.000005035401,4|2,0:3|1:2,0:0:0:0:
304,269,69132,2,0,L|373:349,1,82.5000025177003,0|4,0:0|0:3,0:0:0:0:
397,196,69473,1,0,0:0:0:0:
242,254,69644,1,0,1:0:0:0:
200,200,69814,5,0,0:0:0:0:
352,257,69985,1,2,3:2:0:0:
210,336,70155,1,0,0:0:0:0:
127,237,70326,1,4,0:3:0:0:
268,104,70496,6,0,B|276:145|276:145|315:180,1,82.5000025177003,0|0,1:0|0:0,0:0:0:0:
66,353,70837,2,2,L|90:167,1,165.000005035401,2|0,0:1|0:0,0:1:0:0:
167,40,71348,2,0,B|207:35|207:35|266:73,1,82.5000025177003,4|0,0:3|0:0,0:0:0:0:
41,115,71689,1,0,1:0:0:0:
421,232,72030,6,0,L|330:256,1,82.5000025177003,4|0,0:3|0:0,0:0:0:0:
178,102,72371,2,0,B|221:130|221:130|252:178,1,82.5000025177003,4|0,1:3|0:0,0:0:0:0:
257,197,72627,1,0,1:0:0:0:
248,234,72712,1,0,1:0:0:0:
140,196,72882,1,8,0:3:0:0:
196,310,73053,1,8,0:3:0:0:
379,145,73223,6,0,B|303:133|303:133|224:172,1,134.999995880127,4|4,3:2|0:3,0:0:0:0:
398,253,73735,1,4,0:3:0:0:
398,253,74076,2,0,L|396:175,1,67.4999979400635,0|0,1:0|0:0,0:0:0:0:
309,282,74417,5,0,0:0:0:0:
236,246,74587,2,0,B|303:306|303:306|316:348,1,134.999995880127,4|0,0:3|0:0,0:0:0:0:
223,365,75098,2,0,B|198:343|198:343|197:292,1,67.4999979400635,4|0,1:3|0:0,0:0:0:0:
266,130,75439,2,0,L|351:139,1,67.4999979400635,2|0,1:0|0:0,0:0:0:0:
138,173,75780,1,0,0:0:0:0:
313,215,75951,5,4,0:3:0:0:
15,380,76292,2,2,B|53:325|53:325|134:40,1,337.500012874604,0|0,0:0|0:0,0:0:0:0:
65,38,77485,5,0,0:0:0:0:
41,134,77655,2,0,L|22:209,1,56.2500021457673,2|0,0:0|0:0,0:0:0:0:
102,274,77996,2,0,B|123:335|123:335|83:391,1,112.500004291535,2|0,3:0|0:0,0:0:0:0:
316,55,78678,6,0,B|387:45|387:45|478:75,1,150,4|0,1:2|0:0,0:0:0:0:
194,106,79189,1,0,1:0:0:0:
289,163,79360,2,0,B|319:184|319:184|381:203,1,75,0|4,0:0|0:3,0:0:0:0:
496,243,79701,2,0,L|405:253,1,75,0|0,0:0|1:0,0:0:0:0:
272,259,80042,5,0,0:0:0:0:
219,199,80212,2,0,B|187:241|187:241|184:362,1,150,4|0,0:3|1:0,0:0:0:0:
262,253,80723,5,0,0:0:0:0:
128,203,80894,1,4,0:3:0:0:
209,115,81064,2,0,L|216:213,1,75,0|0,0:0|1:0,0:0:0:0:
228,357,81405,5,0,0:0:0:0:
228,357,81576,2,0,B|211:320|211:320|206:278,1,75,2|0,3:2|0:0,0:0:0:0:
269,105,81917,5,2,1:2:0:0:
269,105,82087,2,0,B|286:142|286:142|291:184,1,75,2|4,0:0|0:3,0:0:0:0:
167,42,82428,2,0,B|152:80|152:80|126:113,1,75,2|0,0:0|1:0,0:0:0:0:
36,184,82769,5,2,0:0:0:0:
175,207,82939,1,2,3:2:0:0:
59,275,83110,1,2,0:0:0:0:
191,217,83280,1,2,1:2:0:0:
59,87,83451,2,2,B|46:124|46:124|69:173,1,75,2|0,3:0|0:0,0:3:0:0:
178,331,83792,5,0,1:0:0:0:
208,337,83877,1,0,1:0:0:0:
238,343,83962,1,0,1:0:0:0:
268,349,84047,1,0,1:0:0:0:
298,355,84132,1,4,1:2:0:0:
298,355,84473,5,0,0:0:0:0:
416,237,84644,1,2,1:2:0:0:
278,196,84814,2,0,B|286:232|286:232|322:276,1,75,0|6,0:0|0:3,0:0:0:0:
472,139,85155,2,0,L|457:222,1,75,0|0,0:0|1:0,0:0:0:0:
346,100,85496,2,0,B|255:72|255:72|182:73,1,150
33,79,86007,1,0,1:0:0:0:
170,17,86178,5,0,0:0:0:0:
101,107,86348,1,4,0:3:0:0:
197,190,86519,1,0,0:0:0:0:
429,374,86860,5,0,0:0:0:0:
429,374,87030,2,0,L|437:291,1,75,2|0,3:2|0:0,0:0:0:0:
278,338,87371,5,2,1:2:0:0:
278,338,87541,2,0,L|270:255,1,75,2|4,0:0|0:3,0:0:0:0:
270,75,87882,2,0,L|277:149,1,75,2|0,0:0|1:0,0:0:0:0:
214,377,88223,6,0,B|227:285|227:285|222:210,1,150,4|6,1:2|0:3,0:0:0:0:
179,101,88735,1,2,0:0:0:0:
346,163,88905,1,4,1:0:0:0:
14,228,89246,5,4,1:0:0:0:
433,372,89587,6,0,B|313:360|313:360|286:349,1,134.999995880127,4|0,1:0|0:0,0:0:0:0:
