osu file format v14

[General]
AudioFilename: audio.ogg
AudioLeadIn: 0
PreviewTime: 56356
Countdown: 0
SampleSet: Soft
StackLeniency: 0.7
Mode: 0
LetterboxInBreaks: 0
WidescreenStoryboard: 1

[Editor]
DistanceSpacing: 1.8
BeatDivisor: 4
GridSize: 16
TimelineZoom: 1

[Metadata]
Title:Shura ni Otoshite (TV Size)
TitleUnicode:修羅に堕として (TV Size)
Artist:sajou no hana
ArtistUnicode:sajou no hana
Creator:Fufla
Version:Tesla's Insane
Source:異修羅
Tags:Tatsuya Kitani キタニタツヤ Ishura anime Season 1 opening op female vocals japanese jpop j-pop jrock j-rock tesla173 tesla darkebluu actiol fujinn ryuusei aika sana 渡辺翔 Watanabe Sho
BeatmapID:4474007
BeatmapSetID:2128121

[Difficulty]
HPDrainRate:5
CircleSize:4
OverallDifficulty:8
ApproachRate:9
SliderMultiplier:1.6
SliderTickRate:1

[Events]
//Background and Video events
0,0,"bg.jpg",0,0
Video,230,"video.mp4"
//Break Periods
//Storyboard Layer 0 (Background)
//Storyboard Layer 1 (Fail)
//Storyboard Layer 2 (Pass)
//Storyboard Layer 3 (Foreground)
//Storyboard Layer 4 (Overlay)
//Storyboard Sound Samples

[TimingPoints]
1132,340.909090909091,4,2,1,40,1,0
1132,-125,4,2,1,40,0,0
3518,-125,4,2,1,65,0,0
5042,340.909090909091,4,2,0,80,1,0
5042,-105.263157894737,4,2,2,65,0,0
5383,-105.263157894737,4,2,3,65,0,0
5554,-105.263157894737,4,2,1,65,0,0
5724,-105.263157894737,4,2,3,65,0,0
6746,-105.263157894737,4,2,1,65,0,0
7088,-105.263157894737,4,2,3,65,0,0
7258,-105.263157894737,4,2,1,65,0,0
7429,-105.263157894737,4,2,3,65,0,0
8281,-105.263157894737,4,2,1,65,0,0
8452,-105.263157894737,4,2,3,65,0,0
9645,-105.263157894737,4,2,1,65,0,0
9815,-105.263157894737,4,2,3,65,0,0
10156,-105.263157894737,4,2,2,65,0,0
10838,-105.263157894737,4,2,3,65,0,0
11008,-105.263157894737,4,2,1,65,0,0
11179,-105.263157894737,4,2,3,65,0,0
12200,-105.263157894737,4,2,1,65,0,0
12542,-105.263157894737,4,2,3,65,0,0
12711,-105.263157894737,4,2,1,65,0,0
12883,-105.263157894737,4,2,3,65,0,0
13734,-105.263157894737,4,2,1,65,0,0
13906,-105.263157894737,4,2,3,65,0,0
15098,-105.263157894737,4,2,1,65,0,0
15270,-105.263157894737,4,2,3,65,0,0
15609,-105.263157894737,4,2,1,65,0,0
15951,-166.666666666667,4,2,4,55,0,0
21405,-142.857142857143,4,2,2,55,0,0
22086,-142.857142857143,4,2,5,55,0,0
22172,-142.857142857143,4,2,6,55,0,0
22257,-142.857142857143,4,2,5,55,0,0
22427,-142.857142857143,4,2,6,55,0,0
22598,-142.857142857143,4,2,5,55,0,0
22768,-142.857142857143,4,2,2,55,0,0
23961,-142.857142857143,4,2,5,55,0,0
24132,-142.857142857143,4,2,7,55,0,0
26348,-250.000000000001,4,2,7,55,0,0
26860,-100,4,2,2,70,0,0
27371,-111.111111111111,4,2,3,70,0,0
27883,-111.111111111111,4,2,1,70,0,0
28052,-111.111111111111,4,2,3,70,0,0
28224,-111.111111111111,4,2,1,70,0,0
28393,-111.111111111111,4,2,3,70,0,0
28565,-111.111111111111,4,2,1,70,0,0
28734,-111.111111111111,4,2,8,70,0,0
28906,-111.111111111111,4,2,1,70,0,0
29416,-111.111111111111,4,2,3,70,0,0
29588,-111.111111111111,4,2,1,70,0,0
30098,-111.111111111111,4,2,3,70,0,0
30270,-111.111111111111,4,2,1,70,0,0
30439,-111.111111111111,4,2,3,70,0,0
30952,-111.111111111111,4,2,1,70,0,0
31461,-111.111111111111,4,2,8,70,0,0
31633,-111.111111111111,4,2,1,70,0,0
31802,-111.111111111111,4,2,3,70,0,0
31974,-111.111111111111,4,2,2,70,0,0
32825,-111.111111111111,4,2,3,70,0,0
32997,-111.111111111111,4,2,1,70,0,0
33166,-111.111111111111,4,2,3,70,0,0
33679,-111.111111111111,4,2,1,70,0,0
33848,-111.111111111111,4,2,3,70,0,0
34020,-111.111111111111,4,2,1,70,0,0
34189,-111.111111111111,4,2,8,70,0,0
34361,-111.111111111111,4,2,1,70,0,0
34871,-111.111111111111,4,2,3,70,0,0
35042,-111.111111111111,4,2,1,70,0,0
35552,-111.111111111111,4,2,8,70,0,0
35724,-111.111111111111,4,2,1,70,0,0
36234,-111.111111111111,4,2,3,70,0,0
37086,-111.111111111111,4,2,1,70,0,0
37769,-142.857142857143,4,3,5,55,0,0
38621,-142.857142857143,4,3,1,55,0,0
39473,-142.857142857143,4,3,7,55,0,0
39984,-142.857142857143,4,3,1,55,0,0
40667,-100,4,3,7,55,0,0
41348,-125,4,3,1,55,0,0
42200,-125,4,3,7,55,0,0
42882,-125,4,3,1,55,0,0
43223,-142.857142857143,4,3,7,55,0,0
44075,-142.857142857143,4,3,1,55,0,0
44927,-142.857142857143,4,3,7,55,0,0
45439,-142.857142857143,4,3,1,55,0,0
46121,-100,4,3,7,55,0,0
46803,-125,4,3,1,55,0,0
47655,-125,4,3,7,55,0,0
48166,-125,4,3,1,55,0,0
48678,-100,4,2,1,70,0,0
48848,-100,4,2,4,70,0,0
49189,-100,4,2,1,70,0,0
49274,-100,4,2,4,70,0,0
49530,-100,4,2,1,70,0,0
49615,-100,4,2,4,70,0,0
50041,-100,4,2,1,70,0,0
50126,-100,4,2,4,70,0,0
50382,-100,4,2,1,70,0,0
50467,-100,4,2,4,70,0,0
50638,-100,4,2,1,70,0,0
50808,-100,4,2,4,70,0,0
51064,-100,4,2,1,70,0,0
51149,-100,4,2,4,70,0,0
51405,-100,4,2,1,70,0,0
51490,-100,4,2,4,70,0,0
51746,-100,4,2,1,70,0,0
51831,-100,4,2,4,70,0,0
51916,-100,4,2,1,70,0,0
52001,-100,4,2,4,70,0,0
52257,-100,4,2,1,70,0,0
52342,-100,4,2,4,70,0,0
52513,-100,4,2,1,70,0,0
52683,-100,4,2,4,70,0,0
52768,-100,4,2,1,70,0,0
52853,-100,4,2,4,70,0,0
53024,-100,4,2,1,70,0,0
53194,-100,4,2,4,70,0,0
53280,-100,4,2,1,70,0,0
53365,-100,4,2,4,70,0,0
53535,-100,4,2,1,70,0,0
53706,-100,4,2,4,70,0,0
53791,-100,4,2,3,70,0,0
53876,-100,4,2,1,70,0,0
54047,-100,4,2,2,70,0,0
54132,-100,4,2,4,50,0,0
56349,-100,4,2,4,65,0,0
56860,-95.2380952380952,4,2,1,80,0,1
57542,-95.2380952380952,4,2,3,80,0,1
57711,-95.2380952380952,4,2,1,80,0,1
58224,-95.2380952380952,4,2,3,80,0,1
59075,-95.2380952380952,4,2,1,80,0,1
59247,-95.2380952380952,4,2,3,80,0,1
59416,-95.2380952380952,4,2,1,80,0,1
59588,-95.2380952380952,4,2,3,80,0,1
60439,-95.2380952380952,4,2,1,80,0,1
60952,-95.2380952380952,4,2,3,80,0,1
61802,-95.2380952380952,4,2,1,80,0,1
62656,-95.2380952380952,4,2,3,80,0,1
62996,-95.2380952380952,4,2,1,80,0,1
64361,-95.2380952380952,4,2,3,80,0,1
65382,-95.2380952380952,4,2,1,80,0,1
66065,-95.2380952380952,4,2,3,80,0,1
66575,-95.2380952380952,4,2,1,80,0,1
66916,-95.2380952380952,4,2,2,80,0,1
67427,-95.2380952380952,4,2,3,80,0,1
67598,-95.2380952380952,4,2,1,80,0,1
68280,-95.2380952380952,4,2,8,80,0,1
68452,-95.2380952380952,4,2,1,80,0,1
68621,-95.2380952380952,4,2,3,80,0,1
68961,-95.2380952380952,4,2,9,80,0,1
69133,-95.2380952380952,4,2,1,80,0,1
69302,-95.2380952380952,4,2,10,80,0,1
69474,-95.2380952380952,4,2,1,80,0,1
69643,-95.2380952380952,4,2,10,80,0,1
69815,-95.2380952380952,4,2,1,80,0,1
69984,-95.2380952380952,4,2,3,80,0,1
70156,-95.2380952380952,4,2,2,80,0,1
71007,-95.2380952380952,4,2,10,80,0,1
71689,-95.2380952380952,4,2,3,80,0,1
72030,-95.2380952380952,4,2,9,80,0,1
72371,-95.2380952380952,4,2,3,80,0,1
72711,-95.2380952380952,4,2,7,80,0,1
72882,-95.2380952380952,4,2,4,80,0,1
73052,-95.2380952380952,4,2,3,80,0,1
73223,-95.2380952380952,4,2,1,75,0,1
73735,-166.666666666667,4,2,3,75,0,1
74076,-83.3333333333333,4,2,5,75,0,1
74586,-83.3333333333333,4,2,1,75,0,1
74757,-100,4,2,11,75,0,1
74929,-100,4,2,1,75,0,1
75098,-100,4,2,3,75,0,1
75270,-100,4,2,1,75,0,1
75439,-80,4,2,5,75,0,1
75780,-100,4,2,5,75,0,1
75951,-200,4,2,3,60,0,1
76292,-200,4,2,1,60,0,1
77314,-200,4,2,1,60,0,0
77655,-125,4,2,1,60,0,0
77996,-222.222222222222,4,2,1,60,0,0
78678,-105.263157894737,4,2,1,75,0,0
79361,-105.263157894737,4,2,3,75,0,0
80382,-105.263157894737,4,2,1,75,0,0
80724,-105.263157894737,4,2,3,75,0,0
80893,-105.263157894737,4,2,1,75,0,0
81065,-105.263157894737,4,2,3,75,0,0
81575,-105.263157894737,4,2,1,75,0,0
82088,-105.263157894737,4,2,3,75,0,0
82939,-105.263157894737,4,2,1,75,0,0
83111,-105.263157894737,4,2,3,75,0,0
83280,-105.263157894737,4,2,1,75,0,0
83452,-105.263157894737,4,2,3,75,0,0
83791,-105.263157894737,4,2,2,75,0,0
84474,-105.263157894737,4,2,3,75,0,0
84643,-105.263157894737,4,2,1,75,0,0
84815,-105.263157894737,4,2,3,75,0,0
85836,-105.263157894737,4,2,1,75,0,0
86179,-105.263157894737,4,2,3,75,0,0
86348,-105.263157894737,4,2,1,75,0,0
86520,-105.263157894737,4,2,3,75,0,0
87030,-105.263157894737,4,2,1,75,0,0
87542,-105.263157894737,4,2,3,75,0,0
88223,-105.263157894737,4,2,3,80,0,0
88736,-105.263157894737,4,2,2,80,0,0
89246,-133.333333333333,4,2,12,80,0,0
89587,-166.666666666667,4,2,3,70,0,0
90099,-166.666666666667,4,2,3,5,0,0

[Colours]
Combo1 : 108,108,108
Combo2 : 156,46,46

[HitObjects]
212,88,962,5,2,2:2:0:0:
147,138,1132,2,0,B|179:105|179:105|159:70|156:21,1,128,2|2,2:2|2:2,0:0:0:0:
82,82,1643,1,2,2:2:0:0:
295,98,1984,1,2,2:2:0:0:
295,98,2325,1,2,2:2:0:0:
363,150,2496,2,0,P|373:116|384:73,1,64,2|2,2:2|2:2,0:0:0:0:
450,138,2837,1,2,2:2:0:0:
300,201,3007,1,2,2:2:0:0:
300,201,3348,2,0,P|305:221|314:252,1,32,2|0,2:2|0:0,0:0:0:0:
333,319,3518,5,4,1:2:0:0:
256,192,3604,12,0,4882,0:0:0:0:
332,319,5042,6,0,B|278:312|219:289|219:289|240:302|250:327,1,151.999995941162,6|2,1:2|2:2,0:0:0:0:
171,363,5553,2,0,P|134:375|98:383,1,75.9999979705811,10|2,2:2|2:2,0:0:0:0:
0,284,5894,1,0,1:1:0:0:
102,207,6064,2,0,P|92:243|83:280,1,75.9999979705811,2|8,2:2|2:2,0:0:0:0:
240,211,6405,2,0,P|233:187|223:157,1,37.9999989852906,2|0,2:2|0:0,0:0:0:0:
262,70,6576,6,0,B|176:57|208:104|109:90,1,151.999995941162,0|8,1:1|2:2,0:0:0:0:
183,39,7087,1,2,2:2:0:0:
314,133,7257,1,2,1:2:0:0:
376,79,7428,2,0,P|413:66|461:47,1,75.9999979705811,2|8,2:2|2:2,0:0:0:0:
360,289,7769,6,0,P|338:216|309:146,1,151.999995941162,2|2,2:2|2:2,0:0:0:0:
486,214,8280,2,0,P|452:196|415:189,1,75.9999979705811,10|2,2:2|2:2,0:0:0:0:
240,211,8621,1,0,1:1:0:0:
360,289,8791,2,0,P|350:251|336:211,1,75.9999979705811,2|8,2:2|2:2,0:0:0:0:
182,60,9132,2,0,P|187:78|192:96,1,37.9999989852906,2|0,2:2|0:0,0:0:0:0:
240,211,9303,5,0,1:1:0:0:
138,159,9473,1,2,2:2:0:0:
264,56,9644,1,10,2:2:0:0:
379,119,9814,1,2,2:2:0:0:
240,211,9985,6,0,P|228:252|218:290,1,75.9999979705811,0|10,1:1|2:2,0:0:0:0:
166,366,10240,1,8,2:2:0:0:
159,358,10326,2,0,P|150:336|139:307,1,37.9999989852906,10|8,2:2|2:2,0:0:0:0:
14,237,10496,6,0,B|65:215|65:215|87:180|87:180|140:158,1,151.999995941162,6|2,1:2|2:2,0:0:0:0:
5,148,11007,2,0,P|15:114|25:73,1,75.9999979705811,10|2,2:2|2:2,0:0:0:0:
187,2,11348,1,0,1:1:0:0:
199,93,11519,2,0,P|160:79|121:65,1,75.9999979705811,2|8,2:2|2:2,0:0:0:0:
280,156,11860,2,0,P|304:146|338:135,1,37.9999989852906,2|0,2:2|0:0,0:0:0:0:
429,103,12030,6,0,B|436:49|459:-10|459:-10|446:11|421:21,1,151.999995941162,0|8,1:1|2:2,0:0:0:0:
512,93,12541,1,2,2:2:0:0:
395,225,12712,1,2,1:2:0:0:
495,269,12882,2,0,P|483:234|469:183,1,75.9999979705811,2|8,2:2|2:2,0:0:0:0:
242,274,13223,6,0,B|291:285|339:299|339:299|339:331|323:354,1,151.999995941162,2|2,2:2|2:2,0:0:0:0:
171,316,13735,2,0,P|131:327|87:343,1,75.9999979705811,10|2,2:2|2:2,0:0:0:0:
276,183,14076,1,0,1:1:0:0:
168,231,14246,2,0,P|179:194|191:153,1,75.9999979705811,2|8,2:2|2:2,0:0:0:0:
53,34,14587,2,0,P|61:59|69:86,1,37.9999989852906,2|0,2:2|0:0,0:0:0:0:
90,156,14757,5,0,1:1:0:0:
171,53,14928,1,2,2:2:0:0:
289,98,15098,1,10,2:2:0:0:
352,40,15269,1,2,2:2:0:0:
352,40,15354,1,0,0:0:0:0:
352,40,15439,1,0,1:1:0:0:
427,145,15610,5,10,2:2:0:0:
438,116,15695,1,8,2:2:0:0:
449,87,15780,1,8,2:2:0:0:
460,59,15865,1,8,2:2:0:0:
472,30,15951,6,0,P|491:102|515:177,2,143.999995605469,6|2|0,1:2|2:2|0:0,0:0:0:0:
505,180,17314,1,2,2:2:0:0:
505,180,18507,1,2,2:2:0:0:
423,239,18678,2,0,P|356:263|286:306,1,143.999995605469,2|2,2:2|2:2,0:0:0:0:
293,300,19530,1,2,2:2:0:0:
193,312,19701,2,0,P|287:337|372:384,1,191.999994140625,2|2,2:2|2:2,0:0:0:0:
272,107,21064,5,2,2:2:0:0:
242,195,21235,1,0,0:0:0:0:
112,154,21405,6,0,P|141:233|168:313,1,167.999994873047,2|2,2:3|2:2,0:0:0:0:
82,357,22087,2,0,P|78:374|73:391,2,27.9999991455078,2|2|2,2:2|2:2|2:2,0:0:0:0:
26,300,22428,1,2,2:2:0:0:
101,253,22598,1,2,2:2:0:0:
112,154,22769,1,2,2:3:0:0:
112,154,23451,1,2,2:2:0:0:
106,138,23536,1,2,2:2:0:0:
100,122,23621,1,2,2:2:0:0:
0,0,23962,1,2,2:2:0:0:
0,0,24132,6,0,P|77:18|178:41,1,167.999994873047,6|2,2:2|2:2,0:0:0:0:
300,0,24985,1,2,2:2:0:0:
300,0,25666,2,0,P|291:33|281:72,1,55.9999982910157,0|2,0:0|2:2,0:0:0:0:
265,134,26007,1,2,2:2:0:0:
342,108,26178,1,0,0:0:0:0:
225,207,26348,6,0,L|225:239,2,32,2|2|2,2:2|2:2|2:2,0:0:0:0:
217,347,26860,6,0,B|279:332|253:302|320:285,1,120,6|0,1:2|0:0,0:0:0:0:
332,286,27201,1,2,1:2:0:0:
452,367,27371,2,0,P|416:370|386:348,1,71.9999978027344,14|0,1:2|0:0,0:0:0:0:
506,227,27712,1,2,1:2:0:0:
506,227,27882,1,2,2:2:0:0:
505,311,28053,1,10,1:2:0:0:
424,184,28223,5,2,2:2:0:0:
425,275,28394,1,2,1:2:0:0:
483,118,28564,2,0,P|501:89|495:36,1,71.9999978027344,2|10,2:2|1:2,0:0:0:0:
321,0,28905,2,0,P|337:5|355:11,1,35.9999989013672,2|0,2:2|0:0,0:0:0:0:
425,65,29076,1,2,1:3:0:0:
425,65,29416,1,10,1:2:0:0:
352,117,29587,6,0,P|300:97|249:79,1,107.999996704102,2|0,2:2|0:0,0:0:0:0:
236,76,29928,1,2,2:2:0:0:
166,153,30098,1,10,1:2:0:0:
236,76,30269,1,2,2:2:0:0:
135,26,30439,1,2,1:2:0:0:
135,26,30780,2,0,P|129:50|121:81,1,35.9999989013672,10|0,1:2|0:0,0:0:0:0:
44,75,30951,1,2,2:2:0:0:
166,153,31121,6,0,P|186:225|207:302,1,143.999995605469,2|10,1:3|1:2,0:0:0:0:
159,365,31632,1,2,2:2:0:0:
48,325,31803,1,2,1:2:0:0:
96,208,31973,2,0,P|107:248|118:287,1,71.9999978027344,2|0,2:2|1:1,0:0:0:0:
292,177,32314,6,0,P|227:192|183:129,1,143.999995605469,14|2,2:2|2:2,0:0:0:0:
341,82,32826,1,14,1:2:0:0:
341,82,32996,1,2,2:2:0:0:
249,82,33166,2,0,P|239:47|230:13,1,71.9999978027344,2|0,1:2|0:0,0:0:0:0:
292,177,33507,5,10,1:2:0:0:
365,205,33678,1,2,2:2:0:0:
499,96,33848,1,2,1:2:0:0:
423,115,34019,2,0,P|432:149|442:184,1,71.9999978027344,2|10,2:2|1:2,0:0:0:0:
476,369,34360,2,0,P|492:305|514:225,1,143.999995605469,2|0,2:2|0:0,0:0:0:0:
423,115,34871,1,10,1:2:0:0:
365,205,35041,6,0,P|335:225|293:224,1,71.9999978027344,2|2,2:2|1:3,0:0:0:0:
185,316,35382,2,0,P|215:296|257:297,1,71.9999978027344,2|10,2:2|1:2,0:0:0:0:
371,358,35723,2,0,L|356:304,1,35.9999989013672,2|0,2:2|0:0,0:0:0:0:
338,240,35894,1,2,1:3:0:0:
250,294,36064,1,2,2:2:0:0:
316,144,36235,1,10,1:2:0:0:
316,144,36576,6,0,B|279:130|279:130|260:106|260:106|207:87,1,107.999996704102,2|0,1:2|0:0,0:0:0:0:
200,99,36916,1,8,1:2:0:0:
87,56,37087,1,2,1:2:0:0:
91,69,37172,1,0,1:1:0:0:
96,82,37257,5,10,2:2:0:0:
250,0,37428,1,8,2:2:0:0:
45,167,37769,6,0,B|73:197|73:197|63:232|63:232|80:283,1,111.999996582031,6|0,1:1|0:0,0:0:0:0:
99,347,38280,2,0,B|64:357|64:357|85:353,1,55.9999982910157,0|0,1:1|0:0,0:0:0:0:
84,353,38536,1,0,0:0:0:0:
84,353,38621,1,8,0:1:0:0:
243,381,38962,6,0,P|218:345|235:293,1,83.9999974365235,2|0,0:2|0:0,0:0:0:0:
236,291,39303,1,2,0:2:0:0:
320,348,39473,1,0,1:1:0:0:
366,207,39644,2,0,B|385:229|385:229|379:253|379:253|387:284,1,83.9999974365235,2|0,1:2|0:0,0:0:0:0:
392,304,39985,1,10,0:1:0:0:
347,129,40326,1,2,0:2:0:0:
343,111,40496,1,0,0:0:0:0:
441,193,40667,6,0,B|361:170|389:263|292:237,1,160,2|2,1:2|0:2,0:0:0:0:
220,220,41178,1,2,0:2:0:0:
123,109,41348,2,0,P|112:146|98:185,2,64,8|2|0,0:1|0:2|0:0,0:0:0:0:
141,35,41860,1,2,0:2:0:0:
53,72,42030,1,2,0:2:0:0:
195,146,42201,1,0,1:1:0:0:
226,0,42371,1,2,1:2:0:0:
288,51,42541,2,0,L|323:41,2,32,2|0|8,0:2|0:0|0:1,0:0:0:0:
195,146,42882,6,0,P|210:129|203:108,2,42.6666666666667,2|0|0,0:2|0:0|0:0,0:0:0:0:
186,158,43223,6,0,B|236:167|236:167|249:199|286:210,1,111.999996582031,2|0,1:2|0:0,0:0:0:0:
341,157,43735,2,0,B|333:137|315:134|315:134|327:139|335:151,1,55.9999982910157,0|0,1:1|0:0,0:0:0:0:
331,145,43990,1,0,0:0:0:0:
331,145,44076,1,8,0:1:0:0:
426,291,44416,6,0,P|451:256|501:252,1,83.9999974365235,2|0,0:2|0:0,0:0:0:0:
509,254,44757,1,2,0:2:0:0:
496,375,44928,1,0,1:1:0:0:
348,298,45098,2,0,B|370:281|370:281|431:292,1,83.9999974365235,2|0,1:2|0:0,0:0:0:0:
423,312,45439,1,10,0:1:0:0:
209,274,45780,5,2,0:2:0:0:
239,349,45951,1,2,0:2:0:0:
100,250,46121,6,0,B|94:168|178:200|172:106,1,160,2|2,1:2|0:2,0:0:0:0:
213,51,46632,1,2,0:2:0:0:
98,0,46803,2,0,P|63:11|33:19,2,64,8|2|0,0:1|0:2|0:0,0:0:0:0:
0,90,47314,1,2,0:2:0:0:
77,125,47485,1,2,0:2:0:0:
169,38,47655,1,2,1:2:0:0:
295,77,47826,1,2,1:2:0:0:
202,180,47996,6,0,L|192:138,2,32,2|0|8,0:2|0:0|0:1,0:0:0:0:
213,105,48337,6,0,L|187:210,1,96,2|0,0:2|0:0,0:0:0:0:
234,292,48678,6,0,B|148:271|164:329|77:310,1,160,6|8,1:2|2:2,0:0:0:0:
67,308,49104,1,8,2:2:0:0:
55,304,49189,2,0,P|33:270|47:217,1,80,10|8,1:2|2:2,0:0:0:0:
140,384,49530,2,0,P|162:350|148:297,1,80,10|8,1:2|2:2,0:0:0:0:
332,354,49871,1,10,1:2:0:0:
233,260,50041,1,8,2:2:0:0:
382,177,50212,6,0,L|394:133,2,40,10|8|8,1:2|2:2|2:2,0:0:0:0:
466,271,50553,1,10,1:2:0:0:
461,255,50638,1,8,2:2:0:0:
456,239,50723,1,8,2:2:0:0:
470,148,50894,1,10,1:2:0:0:
353,256,51064,1,8,2:2:0:0:
268,174,51235,1,10,1:2:0:0:
284,169,51320,1,8,2:2:0:0:
299,164,51405,1,8,2:2:0:0:
410,60,51576,6,0,B|368:46|368:46|350:19|350:19|301:3,1,120,10|8,1:2|2:2,0:0:0:0:
292,1,51916,1,10,1:2:0:0:
194,47,52087,1,10,2:2:0:0:
189,63,52172,1,8,2:2:0:0:
184,78,52257,1,8,1:2:0:0:
289,133,52428,1,10,2:2:0:0:
294,149,52513,1,8,2:2:0:0:
299,164,52598,1,8,1:2:0:0:
217,251,52769,1,10,2:2:0:0:
61,156,52939,6,0,L|100:147,2,40,8|8|10,1:2|2:2|2:2,0:0:0:0:
27,306,53280,1,8,1:2:0:0:
212,233,53451,1,10,2:2:0:0:
188,226,53536,1,8,2:2:0:0:
165,219,53621,1,8,1:2:0:0:
27,306,53791,5,10,2:3:0:0:
42,301,53876,1,8,2:3:0:0:
58,296,53961,1,4,2:3:0:0:
72,290,54047,1,4,2:3:0:0:
88,285,54132,1,14,1:2:0:0:
256,192,54218,12,2,55666,2:2:0:0:
81,173,56348,5,2,2:2:0:0:
181,192,56519,1,2,2:2:0:0:
279,87,56689,1,2,2:2:0:0:
63,69,56860,6,0,B|101:53|135:38|135:38|155:58|188:61,1,125.999996154785,6|0,1:2|0:0,0:0:0:0:
203,81,57201,2,0,P|190:124|181:165,1,83.9999974365235,2|8,2:2|2:2,0:0:0:0:
23,258,57541,1,2,2:2:0:0:
81,173,57712,2,0,P|101:234|116:292,1,125.999996154785,2|0,1:2|0:0,0:0:0:0:
117,294,58053,1,10,2:2:0:0:
276,333,58223,2,0,P|235:333|210:295,1,83.9999974365235,2|0,2:2|1:1,0:0:0:0:
345,174,58564,2,0,P|358:217|370:262,1,83.9999974365235,2|8,2:2|2:2,0:0:0:0:
297,93,58905,1,2,2:2:0:0:
458,188,59076,5,2,1:2:0:0:
271,228,59246,1,2,2:2:0:0:
429,325,59416,1,10,2:2:0:0:
345,174,59587,6,0,B|331:124|331:124|314:108|314:108|298:51,1,125.999996154785,2|0,2:2|0:0,0:0:0:0:
319,20,59928,2,0,P|352:45|394:44,1,83.9999974365235,2|8,2:2|2:2,0:0:0:0:
471,12,60269,1,2,2:2:0:0:
278,134,60439,6,0,B|228:117|184:102|184:102|202:120|208:147,1,125.999996154785,2|0,1:2|0:0,0:0:0:0:
207,151,60780,2,0,L|219:195,1,41.9999987182618,10|0,2:2|0:0,0:0:0:0:
83,280,60951,2,0,B|62:258|62:258|70:234|77:202,1,83.9999974365235,2|0,2:2|1:1,0:0:0:0:
0,106,61291,2,0,P|42:104|74:76,1,83.9999974365235,2|8,2:2|2:2,0:0:0:0:
207,151,61632,1,2,2:2:0:0:
162,1,61803,5,2,1:2:0:0:
323,49,61973,1,10,2:2:0:0:
313,81,62058,1,8,2:2:0:0:
303,113,62144,1,10,2:2:0:0:
294,145,62229,1,8,2:2:0:0:
285,177,62314,6,0,B|316:214|316:214|290:251|289:295,1,125.999996154785,6|0,1:2|0:0,0:0:0:0:
269,321,62655,1,2,2:2:0:0:
366,209,62826,2,0,P|270:237|194:261,1,167.999994873047,8|0,2:2|1:1,0:0:0:0:
141,313,63337,1,2,2:3:0:0:
294,145,63507,1,10,2:2:0:0:
294,145,63848,6,0,B|321:110|321:110|364:113|399:91,1,125.999996154785,2|0,1:2|0:0,0:0:0:0:
419,99,64189,1,10,2:2:0:0:
264,8,64360,2,0,P|308:3|346:32,1,83.9999974365235,2|0,2:2|1:1,0:0:0:0:
360,191,64701,2,0,P|318:178|272:163,1,83.9999974365235,2|8,2:2|2:2,0:0:0:0:
136,29,65041,5,2,2:2:0:0:
34,36,65212,2,0,P|115:63|197:87,2,167.999994873047,0|10|2,1:1|2:2|1:2,0:0:0:0:
88,149,66064,1,2,2:2:0:0:
0,218,66235,1,8,2:2:0:0:
88,149,66405,1,2,2:2:0:0:
135,291,66576,2,0,B|145:253|145:253|143:249|143:249|157:200,1,83.9999974365235,2|2,1:2|2:3,0:0:0:0:
86,384,66916,5,14,1:2:0:0:
114,343,67002,1,2,2:2:0:0:
152,327,67087,1,2,2:2:0:0:
182,330,67172,1,2,2:2:0:0:
200,340,67257,5,10,1:2:0:0:
350,264,67428,1,10,2:2:0:0:
208,83,67598,1,8,2:2:0:0:
198,86,67683,1,10,2:2:0:0:
189,89,67769,6,0,P|171:148|154:209,1,125.999996154785,6|0,1:2|0:0,0:0:0:0:
144,251,68110,1,2,1:2:0:0:
18,157,68280,2,0,P|60:152|90:125,1,83.9999974365235,14|2,1:2|2:2,0:0:0:0:
265,25,68621,2,0,P|318:46|390:65,1,125.999996154785,6|0,1:2|0:0,0:0:0:0:
384,63,68962,1,14,1:2:0:0:
305,218,69132,2,0,P|286:195|299:144,1,83.9999974365235,2|6,2:2|1:2,0:0:0:0:
486,59,69473,2,0,P|473:99|462:139,1,83.9999974365235,2|14,2:2|1:2,0:0:0:0:
431,343,69814,1,2,2:2:0:0:
381,173,69985,5,6,1:2:0:0:
314,314,70155,1,2,2:2:0:0:
512,253,70326,1,2,1:2:0:0:
301,329,70496,6,0,B|282:349|253:351|227:337|227:337|219:309|190:299,1,125.999996154785,14|0,1:2|0:0,0:0:0:0:
183,273,70837,2,0,P|188:254|196:225,1,41.9999987182618,2|0,2:2|0:0,0:0:0:0:
0,384,71007,2,0,P|50:358|116:328,1,125.999996154785,14|0,1:2|0:0,0:0:0:0:
126,342,71348,2,0,P|74:333|57:252,1,125.999996154785,6|0,1:2|0:0,0:0:0:0:
65,146,71689,1,14,1:2:0:0:
72,131,72030,6,0,P|88:169|104:208,1,83.9999974365235,6|0,1:2|0:0,0:0:0:0:
166,57,72371,1,14,1:2:0:0:
12,0,72541,5,8,2:2:0:0:
12,0,72627,1,8,2:2:0:0:
12,0,72712,1,10,2:2:0:0:
77,51,72882,1,10,2:3:0:0:
180,169,73053,5,6,2:3:0:0:
207,168,73138,5,0,0:0:0:0:
230,151,73223,6,0,B|273:134|273:134|284:122|297:107|297:107|344:89,1,125.999996154785,6|0,1:2|0:0,0:0:0:0:
401,46,73564,1,2,1:2:0:0:
350,186,73735,2,0,L|350:258,1,71.9999978027344,2|0,1:2|0:0,0:0:0:0:
338,92,74076,6,0,B|389:186|273:189|334:295,1,191.999994140625,10|2,2:2|2:2,0:0:0:0:
435,378,74587,1,2,1:2:0:0:
323,273,74757,6,0,P|284:260|243:251,1,80,2|2,1:2|2:2,0:0:0:0:
148,264,75098,1,2,1:2:0:0:
81,168,75269,1,2,2:2:0:0:
0,384,75439,2,0,B|16:336|34:274|34:274|36:300|41:328,1,150,10|0,2:2|0:0,0:0:0:0:
89,370,75780,2,0,P|111:363|134:350,1,40,2|0,2:2|0:0,0:0:0:0:
246,251,75951,6,0,B|313:241|352:185|347:104|285:83|285:83|279:136|232:154,1,320,2|2,1:2|2:2,0:0:0:0:
127,125,77485,1,2,2:2:0:0:
127,125,77655,2,0,P|154:87|201:80,1,96,2|0,2:2|0:0,0:0:0:0:
239,150,77996,2,0,P|299:159|335:209,1,125.999996154785,2|0,2:2|0:0,0:0:0:0:
362,287,78678,6,0,B|377:224|377:224|382:215|382:215|400:141,1,151.999995941162,6|2,1:2|2:2,0:0:0:0:
492,0,79189,2,0,L|512:73,1,75.9999979705811,10|2,1:2|2:2,0:0:0:0:
312,24,79530,1,0,1:1:0:0:
400,140,79701,2,0,P|378:113|381:73,1,75.9999979705811,2|8,2:2|1:2,0:0:0:0:
235,161,80041,2,0,P|245:143|237:117,1,37.9999989852906,2|0,2:2|0:0,0:0:0:0:
166,30,80212,6,0,B|124:40|82:53|82:53|66:89|28:98,1,151.999995941162,0|8,1:1|1:2,0:0:0:0:
104,170,80723,1,2,2:2:0:0:
13,308,80894,1,2,1:2:0:0:
148,275,81064,2,0,P|110:262|51:244,1,75.9999979705811,2|8,2:2|1:2,0:0:0:0:
268,356,81405,5,2,2:2:0:0:
268,348,81490,1,0,0:0:0:0:
268,340,81576,1,2,1:2:0:0:
262,201,81746,1,2,2:3:0:0:
390,270,81916,1,10,1:2:0:0:
480,208,82087,2,0,P|443:195|406:182,1,75.9999979705811,2|0,2:2|1:1,0:0:0:0:
309,272,82428,1,2,2:2:0:0:
359,104,82598,1,8,1:2:0:0:
262,201,82769,2,0,L|262:150,2,37.9999989852906,2|0|2,2:2|0:0|1:2,0:0:0:0:
206,68,83110,5,2,2:2:0:0:
105,153,83280,1,10,1:2:0:0:
157,238,83451,2,0,L|158:331,1,75.9999979705811,2|0,2:2|1:1,0:0:0:0:
17,158,83791,5,10,2:2:0:0:
38,172,83877,1,8,2:2:0:0:
63,176,83962,1,10,2:2:0:0:
87,168,84047,1,8,2:2:0:0:
105,153,84132,6,0,B|89:102|89:102|53:69|53:69|35:9,1,151.999995941162,6|2,1:2|2:2,0:0:0:0:
177,99,84644,2,0,P|214:97|246:70,1,75.9999979705811,10|2,1:2|2:2,0:0:0:0:
17,158,84985,1,0,1:1:0:0:
51,237,85155,2,0,P|41:279|31:319,1,75.9999979705811,2|8,2:2|1:2,0:0:0:0:
188,371,85496,2,0,P|181:344|175:318,1,37.9999989852906,2|0,2:2|0:0,0:0:0:0:
267,260,85666,6,0,B|231:268|182:250|172:220|172:220|193:204|196:187,1,151.999995941162,0|8,1:1|1:2,0:0:0:0:
177,99,86178,1,2,2:2:0:0:
328,19,86348,1,2,1:2:0:0:
350,117,86519,2,0,P|311:115|285:85,1,75.9999979705811,2|8,2:2|1:2,0:0:0:0:
267,260,86860,5,2,2:2:0:0:
275,260,86945,1,0,0:0:0:0:
283,260,87031,1,2,1:2:0:0:
378,357,87201,1,2,2:3:0:0:
474,260,87371,1,10,1:2:0:0:
399,196,87541,2,0,P|387:237|374:283,1,75.9999979705811,2|0,2:2|1:1,0:0:0:0:
350,117,87882,1,2,2:2:0:0:
467,0,88053,1,8,1:2:0:0:
489,80,88223,6,0,B|456:91|456:91|421:67|371:37,1,113.999996955872,6|0,1:2|0:0,0:0:0:0:
379,40,88564,1,14,1:2:0:0:
271,135,88735,1,2,2:2:0:0:
132,0,88905,6,0,B|151:14|163:31|163:31|148:64|133:112,1,113.999996955872,14|0,1:2|0:0,0:0:0:0:
136,174,89246,2,0,P|93:166|66:121,1,90.0000034332277,14|0,1:2|0:0,0:0:0:0:
0,220,89587,6,0,B|-11:245|-11:245|14:295|34:369,1,143.999995605469,6|0,1:2|0:0,0:0:0:0:
