osu file format v14

[General]
AudioFilename: audio.ogg
AudioLeadIn: 0
PreviewTime: 56356
Countdown: 0
SampleSet: Soft
StackLeniency: 0.7
Mode: 0
LetterboxInBreaks: 0
WidescreenStoryboard: 1

[Editor]
DistanceSpacing: 1
BeatDivisor: 4
GridSize: 16
TimelineZoom: 1

[Metadata]
Title:Shura ni Otoshite (TV Size)
TitleUnicode:修羅に堕として (TV Size)
Artist:sajou no hana
ArtistUnicode:sajou no hana
Creator:Fufla
Version:Normal
Source:異修羅
Tags:Tatsuya Kitani キタニタツヤ Ishura anime Season 1 opening op female vocals japanese jpop j-pop jrock j-rock tesla173 tesla darkebluu actiol fujinn ryuusei aika sana 渡辺翔 Watanabe Sho
BeatmapID:4474207
BeatmapSetID:2128121

[Difficulty]
HPDrainRate:3
CircleSize:3
OverallDifficulty:4
ApproachRate:5.2
SliderMultiplier:0.999999999999999
SliderTickRate:1

[Events]
//Background and Video events
0,0,"bg.jpg",0,0
Video,230,"video.mp4"
//Break Periods
2,16151,20235
//Storyboard Layer 0 (Background)
//Storyboard Layer 1 (Fail)
//Storyboard Layer 2 (Pass)
//Storyboard Layer 3 (Foreground)
//Storyboard Layer 4 (Overlay)
//Storyboard Sound Samples

[TimingPoints]
1132,340.909090909091,4,2,1,40,1,0
1132,-111.111111111111,4,2,1,40,0,0
3518,-111.111111111111,4,2,1,65,0,0
5042,340.909090909091,4,2,0,80,1,0
5042,-100,4,2,2,65,0,0
5382,-100,4,2,3,65,0,0
5553,-100,4,2,1,65,0,0
5723,-100,4,2,3,65,0,0
6745,-100,4,2,1,65,0,0
7087,-100,4,2,3,65,0,0
7257,-100,4,2,1,65,0,0
7428,-100,4,2,3,65,0,0
8280,-100,4,2,1,65,0,0
8451,-100,4,2,3,65,0,0
9644,-100,4,2,1,65,0,0
9814,-100,4,2,3,65,0,0
10155,-100,4,2,2,65,0,0
10837,-100,4,2,3,65,0,0
11007,-100,4,2,1,65,0,0
11178,-100,4,2,3,65,0,0
12199,-100,4,2,1,65,0,0
12541,-100,4,2,3,65,0,0
12710,-100,4,2,1,65,0,0
12882,-100,4,2,3,65,0,0
13733,-100,4,2,1,65,0,0
13905,-100,4,2,3,65,0,0
15097,-100,4,2,1,65,0,0
15269,-100,4,2,3,65,0,0
15608,-100,4,2,1,65,0,0
15949,-100,4,2,4,55,0,0
21405,-111.111111111111,4,2,2,55,0,0
22085,-111.111111111111,4,2,5,55,0,0
22171,-111.111111111111,4,2,6,55,0,0
22256,-111.111111111111,4,2,5,55,0,0
22426,-111.111111111111,4,2,6,55,0,0
22597,-111.111111111111,4,2,5,55,0,0
22767,-111.111111111111,4,2,2,55,0,0
23960,-111.111111111111,4,2,5,55,0,0
24131,-111.111111111111,4,2,7,55,0,0
26860,-100,4,2,2,70,0,0
27370,-100,4,2,3,70,0,0
27882,-100,4,2,1,70,0,0
28051,-100,4,2,3,70,0,0
28223,-100,4,2,1,70,0,0
28392,-100,4,2,3,70,0,0
28564,-100,4,2,1,70,0,0
28733,-100,4,2,8,70,0,0
28905,-100,4,2,1,70,0,0
29415,-100,4,2,3,70,0,0
29587,-100,4,2,1,70,0,0
30097,-100,4,2,3,70,0,0
30269,-100,4,2,1,70,0,0
30438,-100,4,2,3,70,0,0
30951,-100,4,2,1,70,0,0
31460,-100,4,2,8,70,0,0
31632,-100,4,2,1,70,0,0
31801,-100,4,2,3,70,0,0
31973,-100,4,2,2,70,0,0
32824,-100,4,2,3,70,0,0
32996,-100,4,2,1,70,0,0
33165,-100,4,2,3,70,0,0
33678,-100,4,2,1,70,0,0
33847,-100,4,2,3,70,0,0
34019,-100,4,2,1,70,0,0
34188,-100,4,2,8,70,0,0
34360,-100,4,2,1,70,0,0
34870,-100,4,2,3,70,0,0
35041,-100,4,2,1,70,0,0
35551,-100,4,2,8,70,0,0
35723,-100,4,2,1,70,0,0
36233,-100,4,2,3,70,0,0
37085,-100,4,2,1,70,0,0
37769,-111.111111111111,4,3,5,55,0,0
38620,-111.111111111111,4,3,1,55,0,0
39472,-111.111111111111,4,3,7,55,0,0
39983,-111.111111111111,4,3,1,55,0,0
40665,-111.111111111111,4,3,7,55,0,0
41347,-111.111111111111,4,3,1,55,0,0
42199,-111.111111111111,4,3,7,55,0,0
42710,-111.111111111111,4,3,1,55,0,0
43222,-111.111111111111,4,3,7,55,0,0
44074,-111.111111111111,4,3,1,55,0,0
44926,-111.111111111111,4,3,7,55,0,0
45438,-111.111111111111,4,3,1,55,0,0
46120,-111.111111111111,4,3,7,55,0,0
46801,-111.111111111111,4,3,1,55,0,0
47654,-111.111111111111,4,3,7,55,0,0
48165,-111.111111111111,4,3,1,55,0,0
48678,-100,4,2,1,70,0,0
48847,-100,4,2,4,70,0,0
49188,-100,4,2,1,70,0,0
49273,-100,4,2,4,70,0,0
49529,-100,4,2,1,70,0,0
49614,-100,4,2,4,70,0,0
50040,-100,4,2,1,70,0,0
50125,-100,4,2,4,70,0,0
50381,-100,4,2,1,70,0,0
50466,-100,4,2,4,70,0,0
50637,-100,4,2,1,70,0,0
50807,-100,4,2,4,70,0,0
51063,-100,4,2,1,70,0,0
51148,-100,4,2,4,70,0,0
51404,-100,4,2,1,70,0,0
51489,-100,4,2,4,70,0,0
51745,-100,4,2,1,70,0,0
51830,-100,4,2,4,70,0,0
51915,-100,4,2,1,70,0,0
52000,-100,4,2,4,70,0,0
52256,-100,4,2,1,70,0,0
52341,-100,4,2,4,70,0,0
52512,-100,4,2,1,70,0,0
52682,-100,4,2,4,70,0,0
52767,-100,4,2,1,70,0,0
52852,-100,4,2,4,70,0,0
53023,-100,4,2,1,70,0,0
53193,-100,4,2,4,70,0,0
53279,-100,4,2,1,70,0,0
53364,-100,4,2,4,70,0,0
53534,-100,4,2,1,70,0,0
53705,-100,4,2,4,70,0,0
53790,-100,4,2,3,70,0,0
53875,-100,4,2,1,70,0,0
54046,-100,4,2,2,70,0,0
54131,-100,4,2,4,50,0,0
56348,-100,4,2,4,65,0,0
56860,-95.2380952380952,4,2,1,80,0,0
57541,-95.2380952380952,4,2,3,80,0,0
57710,-95.2380952380952,4,2,1,80,0,0
58223,-95.2380952380952,4,2,3,80,0,0
59074,-95.2380952380952,4,2,1,80,0,0
59246,-95.2380952380952,4,2,3,80,0,0
59415,-95.2380952380952,4,2,1,80,0,0
59587,-95.2380952380952,4,2,3,80,0,0
60438,-95.2380952380952,4,2,1,80,0,0
60951,-95.2380952380952,4,2,3,80,0,0
61801,-95.2380952380952,4,2,1,80,0,0
62655,-95.2380952380952,4,2,3,80,0,0
62995,-95.2380952380952,4,2,1,80,0,0
64360,-95.2380952380952,4,2,3,80,0,0
65381,-95.2380952380952,4,2,1,80,0,0
66064,-95.2380952380952,4,2,3,80,0,0
66574,-95.2380952380952,4,2,1,80,0,0
66915,-95.2380952380952,4,2,2,80,0,0
67426,-95.2380952380952,4,2,3,80,0,0
67597,-95.2380952380952,4,2,1,80,0,0
68279,-95.2380952380952,4,2,8,80,0,0
68451,-95.2380952380952,4,2,1,80,0,0
68620,-95.2380952380952,4,2,3,80,0,0
68960,-95.2380952380952,4,2,9,80,0,0
69132,-95.2380952380952,4,2,1,80,0,0
69301,-95.2380952380952,4,2,10,80,0,0
69473,-95.2380952380952,4,2,1,80,0,0
69642,-95.2380952380952,4,2,10,80,0,0
69814,-95.2380952380952,4,2,1,80,0,0
69983,-95.2380952380952,4,2,3,80,0,0
70155,-95.2380952380952,4,2,2,80,0,0
71006,-95.2380952380952,4,2,10,80,0,0
71688,-95.2380952380952,4,2,3,80,0,0
72029,-95.2380952380952,4,2,9,80,0,0
72370,-95.2380952380952,4,2,3,80,0,0
72710,-95.2380952380952,4,2,7,80,0,0
72881,-95.2380952380952,4,2,4,80,0,0
73051,-95.2380952380952,4,2,3,80,0,0
73222,-95.2380952380952,4,2,1,75,0,0
73733,-95.2380952380952,4,2,3,75,0,0
74074,-95.2380952380952,4,2,5,75,0,0
74585,-95.2380952380952,4,2,1,75,0,0
74756,-95.2380952380952,4,2,11,75,0,0
74928,-95.2380952380952,4,2,1,75,0,0
75097,-95.2380952380952,4,2,3,75,0,0
75269,-95.2380952380952,4,2,1,75,0,0
75438,-95.2380952380952,4,2,5,75,0,0
75949,-95.2380952380952,4,2,3,60,0,0
76291,-95.2380952380952,4,2,1,60,0,0
78678,-100,4,2,1,75,0,0
79360,-100,4,2,3,75,0,0
80381,-100,4,2,1,75,0,0
80723,-100,4,2,3,75,0,0
80892,-100,4,2,1,75,0,0
81064,-100,4,2,3,75,0,0
81574,-100,4,2,1,75,0,0
82087,-100,4,2,3,75,0,0
82938,-100,4,2,1,75,0,0
83110,-100,4,2,3,75,0,0
83279,-100,4,2,1,75,0,0
83451,-100,4,2,3,75,0,0
83790,-100,4,2,2,75,0,0
84473,-100,4,2,3,75,0,0
84642,-100,4,2,1,75,0,0
84814,-100,4,2,3,75,0,0
85835,-100,4,2,1,75,0,0
86178,-100,4,2,3,75,0,0
86347,-100,4,2,1,75,0,0
86519,-100,4,2,3,75,0,0
87029,-100,4,2,1,75,0,0
87541,-100,4,2,3,75,0,0
88222,-100,4,2,3,80,0,0
88735,-100,4,2,2,80,0,0
89245,-100,4,2,12,80,0,0
89585,-100,4,2,3,70,0,0
90098,-100,4,2,3,5,0,0

[Colours]
Combo1 : 108,108,108
Combo2 : 156,46,46

[HitObjects]
0,222,962,5,2,2:2:0:0:
0,222,1132,2,0,P|60:239|102:254,1,89.999997253418,2|2,2:2|2:2,0:0:0:0:
124,272,1643,1,2,2:2:0:0:
199,222,1984,1,2,2:2:0:0:
269,286,2325,1,2,2:2:0:0:
269,286,2495,2,0,P|308:264|366:263,1,89.999997253418,2|2,2:2|2:2,0:0:0:0:
396,271,3007,1,2,2:2:0:0:
431,190,3348,1,2,2:2:0:0:
431,190,3518,2,0,P|250:139|105:124,1,314.999990386963,4|0,1:2|0:0,0:0:0:0:
80,34,5042,6,0,P|136:42|187:43,1,99.9999999999999,6|2,1:2|2:2,0:0:0:0:
227,22,5553,1,10,2:2:0:0:
227,22,5723,1,2,2:2:0:0:
300,89,6064,1,2,2:2:0:0:
390,47,6405,2,0,B|418:90|418:90|389:124|367:189,1,150,2|8,2:2|2:2,0:0:0:0:
342,217,7087,2,0,P|346:237|354:284,2,50,2|2|2,2:2|1:2|2:2,0:0:0:0:
245,189,7769,6,0,P|214:174|150:156,1,99.9999999999999,2|2,2:2|2:2,0:0:0:0:
100,148,8280,1,10,2:2:0:0:
100,148,8451,1,2,2:2:0:0:
29,218,8791,1,2,2:2:0:0:
63,311,9132,1,2,2:2:0:0:
156,274,9473,2,0,P|182:284|215:295,1,50,2|10,2:2|2:2,0:0:0:0:
242,322,9814,1,2,2:2:0:0:
296,237,10155,2,0,B|320:245|320:245|340:271,1,50,10|10,2:2|2:2,0:0:0:0:
359,308,10496,6,0,P|419:326|461:341,1,99.9999999999999,6|2,1:2|2:2,0:0:0:0:
508,339,11007,1,10,2:2:0:0:
508,339,11178,1,2,2:2:0:0:
464,248,11519,2,0,P|467:226|473:188,1,50,2|8,2:2|2:2,0:0:0:0:
478,148,11860,2,0,P|429:110|337:120,1,150,2|8,2:2|2:2,0:0:0:0:
314,154,12541,2,0,P|336:187|343:217,2,50,2|2|2,2:2|1:2|2:2,0:0:0:0:
249,77,13223,6,0,P|216:56|142:48,1,99.9999999999999,2|2,2:2|2:2,0:0:0:0:
114,73,13735,1,10,2:2:0:0:
114,73,13905,1,2,2:2:0:0:
58,156,14246,1,2,2:2:0:0:
103,244,14586,1,2,2:2:0:0:
182,183,14927,2,0,P|216:189|241:211,1,50,2|10,2:2|2:2,0:0:0:0:
264,232,15268,1,2,2:2:0:0:
293,328,15610,2,0,B|315:342|315:342|360:343,1,50,10|8,2:2|2:2,0:0:0:0:
384,320,15951,5,6,1:2:0:0:
384,320,21405,6,0,P|286:261|176:266,1,225,2|2,2:3|2:2,0:0:0:0:
60,330,22769,2,0,P|46:283|26:229,1,89.999997253418,2|2,2:3|2:2,0:0:0:0:
14,202,23280,1,2,2:2:0:0:
65,78,23791,2,0,P|91:88|122:95,1,44.999998626709,2|2,2:2|2:2,0:0:0:0:
133,129,24132,6,0,P|189:109|278:90,1,134.999995880127,6|2,2:2|2:2,0:0:0:0:
442,76,25326,1,2,2:2:0:0:
442,76,25496,2,0,P|401:120|406:161,1,89.999997253418,2|2,2:2|2:2,0:0:0:0:
416,189,26007,1,2,2:2:0:0:
198,312,26860,5,6,1:2:0:0:
145,233,27201,1,2,1:2:0:0:
145,233,27371,1,14,1:2:0:0:
204,152,27712,2,0,P|228:159|253:168,1,50,2|2,1:2|2:2,0:0:0:0:
298,185,28053,1,10,1:2:0:0:
368,264,28394,1,2,1:2:0:0:
368,264,28564,2,0,P|397:256|432:253,1,50,2|10,2:2|1:2,0:0:0:0:
460,228,28905,2,0,P|474:192|428:95,1,150,2|10,2:2|1:2,0:0:0:0:
390,66,29587,5,2,2:2:0:0:
310,126,29928,2,0,P|307:165|306:187,2,50,2|10|2,2:2|1:2|2:2,0:0:0:0:
273,91,30439,1,2,1:2:0:0:
207,166,30780,1,10,1:2:0:0:
207,166,30951,2,0,B|175:200|175:200|126:174|70:170,1,150,2|10,2:2|1:2,0:0:0:0:
33,145,31632,2,0,P|33:126|47:87,2,50,2|2|2,2:2|1:2|2:2,0:0:0:0:
17,244,32314,5,14,2:2:0:0:
94,307,32655,1,2,2:2:0:0:
94,307,32826,2,0,P|129:316|147:326,1,50,14|2,1:2|2:2,0:0:0:0:
183,349,33166,1,2,1:2:0:0:
254,278,33507,2,0,P|277:273|309:265,1,50,10|2,1:2|2:2,0:0:0:0:
351,253,33848,1,2,1:2:0:0:
351,253,34019,2,0,P|380:274|457:280,1,99.9999999999999,2|2,2:2|2:2,0:0:0:0:
497,146,34871,5,10,1:2:0:0:
497,146,35041,1,2,2:2:0:0:
424,77,35382,1,2,2:2:0:0:
337,126,35723,2,0,P|288:138|221:155,1,99.9999999999999,2|2,2:2|2:2,0:0:0:0:
193,170,36235,1,10,1:2:0:0:
94,184,36576,2,0,P|71:154|106:51,1,150,2|2,1:2|1:2,0:0:0:0:
146,37,37257,1,10,2:2:0:0:
146,37,37428,1,8,2:2:0:0:
235,23,37769,6,0,P|306:47|379:66,1,134.999995880127,6|0,1:1|1:1,0:0:0:0:
453,71,38621,1,8,0:1:0:0:
416,153,38962,2,0,P|376:161|325:188,2,89.999997253418,2|2|2,0:2|0:2|1:2,0:0:0:0:
483,213,39985,1,10,0:1:0:0:
443,293,40326,1,2,0:2:0:0:
353,292,40666,6,0,L|254:262,1,89.999997253418,2|2,1:2|0:2,0:0:0:0:
223,251,41178,1,2,0:2:0:0:
156,311,41519,1,2,0:2:0:0:
85,255,41860,1,2,0:2:0:0:
85,255,42030,2,0,P|91:214|101:159,1,89.999997253418,2|2,0:2|1:2,0:0:0:0:
102,121,42541,1,2,0:2:0:0:
178,74,42882,1,2,0:2:0:0:
229,147,43223,6,0,P|319:168|381:182,1,134.999995880127,2|0,1:2|1:1,0:0:0:0:
447,154,44076,1,8,0:1:0:0:
418,68,44416,2,0,P|460:57|519:40,2,89.999997253418,2|2|2,0:2|0:2|1:2,0:0:0:0:
338,24,45439,1,10,0:1:0:0:
271,84,45780,1,2,0:2:0:0:
208,19,46121,6,0,P|164:16|111:47,1,89.999997253418,2|2,1:2|0:2,0:0:0:0:
89,64,46632,1,2,0:2:0:0:
129,144,46973,1,2,0:2:0:0:
69,211,47314,1,2,0:2:0:0:
69,211,47485,2,0,P|43:203|7:202,2,44.999998626709,2|2|2,0:2|1:2|1:2,0:0:0:0:
94,248,47996,2,0,P|132:276|175:273,1,89.999997253418,2|2,0:2|0:2,0:0:0:0:
241,200,48678,6,0,P|300:192|352:180,1,99.9999999999999,6|8,1:2|2:2,0:0:0:0:
389,176,49189,1,10,1:2:0:0:
441,91,49530,2,0,P|450:72|453:30,1,50,10|8,1:2|2:2,0:0:0:0:
429,0,49871,1,10,1:2:0:0:
341,49,50212,2,0,P|313:41|284:36,1,50,10|8,1:2|2:2,0:0:0:0:
253,5,50553,2,0,P|228:9|204:16,1,50,10|8,1:2|2:2,0:0:0:0:
159,38,50894,1,10,1:2:0:0:
85,105,51235,2,0,P|87:136|111:160,1,50,10|8,1:2|2:2,0:0:0:0:
133,185,51576,5,10,1:2:0:0:
221,138,51916,1,10,1:2:0:0:
221,138,52087,2,0,P|274:153|335:169,1,99.9999999999999,10|10,2:2|2:2,0:0:0:0:
371,176,52598,1,8,1:2:0:0:
371,176,52769,2,0,P|410:202|391:265,1,99.9999999999999,10|10,2:2|2:2,0:0:0:0:
378,292,53280,1,8,1:2:0:0:
378,292,53451,1,10,2:2:0:0:
280,269,53791,2,0,B|254:264|254:264|221:281,1,50,10|4,2:3|2:3,0:0:0:0:
192,304,54132,5,14,1:2:0:0:
192,304,56348,2,0,L|176:233,2,50,2|2|2,2:2|2:2|2:2,0:0:0:0:
210,353,56860,5,6,1:2:0:0:
284,279,57201,2,0,P|336:288|388:312,1,104.999996795654,2|2,2:2|2:2,0:0:0:0:
434,323,57712,2,0,P|442:301|453:261,1,52.4999983978271,2|2,1:2|2:3,0:0:0:0:
490,241,58053,1,10,2:2:0:0:
490,241,58223,2,0,P|479:206|472:178,1,52.4999983978271,2|0,2:2|1:1,0:0:0:0:
465,138,58564,1,2,2:2:0:0:
436,42,58905,1,2,2:2:0:0:
436,42,59076,2,0,P|464:22|496:25,2,52.4999983978271,2|2|10,1:2|2:2|2:2,0:0:0:0:
385,27,59587,5,2,2:2:0:0:
341,122,59928,2,0,P|288:93|224:88,1,104.999996795654,2|2,2:2|2:2,0:0:0:0:
207,123,60439,2,0,P|186:135|136:135,1,52.4999983978271,2|2,1:2|2:3,0:0:0:0:
123,107,60780,1,10,2:2:0:0:
123,107,60951,2,0,P|97:92|62:90,1,52.4999983978271,2|0,2:2|1:1,0:0:0:0:
28,113,61291,1,2,2:2:0:0:
63,217,61632,1,2,2:2:0:0:
63,217,61803,2,0,P|95:224|123:234,2,52.4999983978271,2|10|10,1:2|2:2|2:2,0:0:0:0:
28,256,62314,5,6,1:2:0:0:
76,355,62655,1,2,2:2:0:0:
76,355,62825,2,0,B|120:322|120:322|165:316|221:336,1,157.499995193481,8|2,2:2|2:3,0:0:0:0:
268,358,63507,1,10,2:2:0:0:
359,305,63848,2,0,P|363:279|371:245,1,52.4999983978271,2|2,1:2|2:3,0:0:0:0:
416,227,64189,1,10,2:2:0:0:
416,227,64360,2,0,P|423:188|407:157,1,52.4999983978271,2|0,2:2|1:1,0:0:0:0:
387,134,64701,1,2,2:2:0:0:
283,144,65041,6,0,P|239:129|160:111,1,104.999996795654,2|2,2:2|2:3,0:0:0:0:
130,124,65553,1,10,2:2:0:0:
45,186,65894,2,0,P|50:227|54:257,1,52.4999983978271,2|2,1:2|2:2,0:0:0:0:
102,336,66405,1,2,2:2:0:0:
102,336,66576,1,2,1:2:0:0:
203,361,66916,2,0,B|225:357|225:357|231:357|231:357|256:353,1,52.4999983978271,14|2,1:2|2:2,0:0:0:0:
296,322,67257,2,0,P|329:322|353:343,2,52.4999983978271,10|10|10,1:2|2:2|2:2,0:0:0:0:
271,274,67769,5,6,1:2:0:0:
206,191,68110,2,0,P|174:202|141:215,1,52.4999983978271,2|14,1:2|1:2,0:0:0:0:
112,234,68451,1,2,2:2:0:0:
112,234,68621,1,6,1:2:0:0:
42,155,68962,1,14,1:2:0:0:
42,155,69132,2,0,P|50:128|56:92,1,52.4999983978271,2|6,2:2|1:2,0:0:0:0:
76,56,69473,1,2,2:2:0:0:
184,50,69814,1,2,2:2:0:0:
184,50,69985,2,0,P|176:23|170:-13,2,52.4999983978271,6|2|2,1:2|2:2|1:2,0:0:0:0:
229,77,70496,5,14,1:2:0:0:
285,172,70837,1,2,2:2:0:0:
285,172,71007,2,0,B|304:146|336:132|336:132|362:136|383:152|383:152|409:153|438:143,1,157.499995193481,14|0,1:2|0:0,0:0:0:0:
473,133,71689,1,14,1:2:0:0:
507,232,72030,1,6,1:2:0:0:
444,316,72371,1,14,1:2:0:0:
346,276,72712,2,0,P|341:249|355:222,2,52.4999983978271,10|10|6,2:2|2:3|2:3,0:0:0:0:
312,316,73223,6,0,P|264:286|192:284,1,104.999996795654,6|2,1:2|1:2,0:0:0:0:
168,302,73735,2,0,P|140:311|101:321,1,52.4999983978271,2|0,1:2|0:0,0:0:0:0:
67,333,74076,1,10,2:2:0:0:
9,245,74416,1,2,2:2:0:0:
45,146,74757,2,0,P|80:146|109:160,1,52.4999983978271,2|2,1:2|2:2,0:0:0:0:
136,185,75098,2,0,P|161:192|187:191,1,52.4999983978271,2|2,1:2|2:2,0:0:0:0:
232,164,75439,1,10,2:2:0:0:
251,60,75780,5,2,2:2:0:0:
251,60,75951,2,0,P|286:71|314:81,1,52.4999983978271,2|0,1:2|0:0,0:0:0:0:
337,114,76291,2,0,B|389:58|467:63|505:118|505:118|476:137|451:163|451:163|452:182|472:224,1,314.999990386963,2|2,2:2|2:2,0:0:0:0:
465,210,78678,6,0,P|405:234|365:258,1,99.9999999999999,6|2,1:2|2:2,0:0:0:0:
332,278,79189,1,10,1:2:0:0:
332,278,79360,1,2,2:2:0:0:
258,345,79701,1,2,2:2:0:0:
204,260,80041,2,0,P|171:227|55:219,1,150,2|8,2:2|1:2,0:0:0:0:
31,241,80723,2,0,P|36:271|42:299,2,50,2|2|2,2:2|1:2|2:2,0:0:0:0:
9,148,81405,5,2,2:2:0:0:
9,148,81576,2,0,P|29:109|54:54,1,99.9999999999999,2|10,1:2|1:2,0:0:0:0:
77,14,82087,1,2,2:2:0:0:
135,95,82428,1,2,2:2:0:0:
226,50,82769,1,2,2:2:0:0:
300,117,83110,2,0,P|323:124|347:133,2,50,2|10|2,2:2|1:2|2:2,0:0:0:0:
219,176,83791,2,0,B|210:201|210:201|217:234,1,50,10|10,2:2|2:2,0:0:0:0:
231,271,84132,6,0,P|284:251|342:259,1,99.9999999999999,6|2,1:2|2:2,0:0:0:0:
378,275,84644,1,10,1:2:0:0:
378,275,84814,1,2,2:2:0:0:
441,197,85155,1,2,2:2:0:0:
423,98,85496,2,0,B|357:88|356:49|275:51,1,150,2|8,2:2|1:2,0:0:0:0:
235,35,86178,2,0,P|205:43|170:55,2,50,2|2|2,2:2|1:2|2:2,0:0:0:0:
260,137,86860,5,2,2:2:0:0:
260,137,87030,2,0,P|247:192|236:253,1,99.9999999999999,2|10,1:2|1:2,0:0:0:0:
232,284,87541,1,2,2:2:0:0:
308,349,87882,2,0,P|343:356|377:368,1,50,2|8,2:2|1:2,0:0:0:0:
405,350,88223,6,0,P|359:298|372:253,1,99.9999999999999,6|14,1:2|1:2,0:0:0:0:
392,232,88735,1,2,2:2:0:0:
392,232,88905,1,14,1:2:0:0:
443,146,89246,1,14,1:2:0:0:
368,79,89587,6,0,B|339:79|310:91|310:91|293:99|293:99|259:94|259:94|206:119,1,150,6|0,1:2|0:0,0:0:0:0:
