osu file format v14

[General]
AudioFilename: audio.ogg
AudioLeadIn: 0
PreviewTime: 56356
Countdown: 0
SampleSet: Soft
StackLeniency: 0.7
Mode: 0
LetterboxInBreaks: 0
WidescreenStoryboard: 1

[Editor]
DistanceSpacing: 1.2
BeatDivisor: 4
GridSize: 16
TimelineZoom: 1.8

[Metadata]
Title:Shura ni Otoshite (TV Size)
TitleUnicode:修羅に堕として (TV Size)
Artist:sajou no hana
ArtistUnicode:sajou no hana
Creator:Fufla
Version:Bluu's Hard
Source:異修羅
Tags:Tatsuya Kitani キタニタツヤ Ishura anime Season 1 opening op female vocals japanese jpop j-pop jrock j-rock tesla173 tesla darkebluu actiol fujinn ryuusei aika sana 渡辺翔 Watanabe Sho
BeatmapID:4474006
BeatmapSetID:2128121

[Difficulty]
HPDrainRate:4
CircleSize:3.6
OverallDifficulty:6
ApproachRate:8
SliderMultiplier:1.4
SliderTickRate:1

[Events]
//Background and Video events
0,0,"bg.jpg",0,0
Video,230,"video.mp4"
//Break Periods
//Storyboard Layer 0 (Background)
//Storyboard Layer 1 (Fail)
//Storyboard Layer 2 (Pass)
//Storyboard Layer 3 (Foreground)
//Storyboard Layer 4 (Overlay)
//Storyboard Sound Samples

[TimingPoints]
1132,340.909090909091,4,2,1,40,1,0
1132,-142.857142857143,4,2,1,40,0,0
3519,-200,4,2,1,65,0,0
5042,340.909090909091,4,2,0,80,1,0
5042,-100,4,2,2,65,0,0
5382,-100,4,2,3,65,0,0
5553,-100,4,2,1,65,0,0
5723,-100,4,2,3,65,0,0
6745,-100,4,2,1,65,0,0
7087,-100,4,2,3,65,0,0
7257,-100,4,2,1,65,0,0
7428,-100,4,2,3,65,0,0
8280,-100,4,2,1,65,0,0
8451,-100,4,2,3,65,0,0
9644,-100,4,2,1,65,0,0
9814,-100,4,2,3,65,0,0
10155,-100,4,2,2,65,0,0
10837,-100,4,2,3,65,0,0
11007,-100,4,2,1,65,0,0
11178,-100,4,2,3,65,0,0
12199,-100,4,2,1,65,0,0
12541,-100,4,2,3,65,0,0
12710,-100,4,2,1,65,0,0
12882,-100,4,2,3,65,0,0
13733,-100,4,2,1,65,0,0
13905,-100,4,2,3,65,0,0
15097,-100,4,2,1,65,0,0
15269,-100,4,2,3,65,0,0
15608,-100,4,2,1,65,0,0
15951,-142.857142857143,4,2,4,55,0,0
21404,-142.857142857143,4,2,2,55,0,0
22085,-142.857142857143,4,2,5,55,0,0
22171,-142.857142857143,4,2,6,55,0,0
22256,-142.857142857143,4,2,5,55,0,0
22426,-142.857142857143,4,2,6,55,0,0
22597,-142.857142857143,4,2,5,55,0,0
22767,-142.857142857143,4,2,2,55,0,0
23960,-142.857142857143,4,2,5,55,0,0
24131,-142.857142857143,4,2,7,55,0,0
26860,-125,4,2,2,70,0,0
27370,-125,4,2,3,70,0,0
27882,-125,4,2,1,70,0,0
28051,-125,4,2,3,70,0,0
28223,-125,4,2,1,70,0,0
28392,-125,4,2,3,70,0,0
28564,-125,4,2,1,70,0,0
28733,-125,4,2,8,70,0,0
28905,-125,4,2,1,70,0,0
29415,-125,4,2,3,70,0,0
29587,-125,4,2,1,70,0,0
30097,-125,4,2,3,70,0,0
30269,-125,4,2,1,70,0,0
30438,-125,4,2,3,70,0,0
30951,-125,4,2,1,70,0,0
31460,-125,4,2,8,70,0,0
31632,-125,4,2,1,70,0,0
31801,-125,4,2,3,70,0,0
31973,-125,4,2,2,70,0,0
32824,-125,4,2,3,70,0,0
32996,-125,4,2,1,70,0,0
33165,-125,4,2,3,70,0,0
33678,-125,4,2,1,70,0,0
33847,-125,4,2,3,70,0,0
34019,-125,4,2,1,70,0,0
34188,-125,4,2,8,70,0,0
34360,-125,4,2,1,70,0,0
34870,-125,4,2,3,70,0,0
35041,-125,4,2,1,70,0,0
35551,-125,4,2,8,70,0,0
35723,-125,4,2,1,70,0,0
36233,-125,4,2,3,70,0,0
37085,-125,4,2,1,70,0,0
37769,-142.857142857143,4,3,5,55,0,0
38620,-142.857142857143,4,3,1,55,0,0
39472,-142.857142857143,4,3,7,55,0,0
39983,-142.857142857143,4,3,1,55,0,0
40665,-142.857142857143,4,3,7,55,0,0
41347,-142.857142857143,4,3,1,55,0,0
42199,-142.857142857143,4,3,7,55,0,0
42710,-142.857142857143,4,3,1,55,0,0
43222,-142.857142857143,4,3,7,55,0,0
44074,-142.857142857143,4,3,1,55,0,0
44926,-142.857142857143,4,3,7,55,0,0
45438,-142.857142857143,4,3,1,55,0,0
46120,-142.857142857143,4,3,7,55,0,0
46801,-142.857142857143,4,3,1,55,0,0
47654,-142.857142857143,4,3,7,55,0,0
48165,-142.857142857143,4,3,1,55,0,0
48678,-111.111111111111,4,2,1,70,0,0
48847,-111.111111111111,4,2,4,70,0,0
49188,-111.111111111111,4,2,1,70,0,0
49273,-111.111111111111,4,2,4,70,0,0
49529,-111.111111111111,4,2,1,70,0,0
49614,-111.111111111111,4,2,4,70,0,0
50040,-111.111111111111,4,2,1,70,0,0
50125,-111.111111111111,4,2,4,70,0,0
50381,-111.111111111111,4,2,1,70,0,0
50466,-111.111111111111,4,2,4,70,0,0
50637,-111.111111111111,4,2,1,70,0,0
50807,-111.111111111111,4,2,4,70,0,0
51063,-111.111111111111,4,2,1,70,0,0
51148,-111.111111111111,4,2,4,70,0,0
51404,-111.111111111111,4,2,1,70,0,0
51489,-111.111111111111,4,2,4,70,0,0
51745,-111.111111111111,4,2,1,70,0,0
51830,-111.111111111111,4,2,4,70,0,0
51915,-111.111111111111,4,2,1,70,0,0
52000,-111.111111111111,4,2,4,70,0,0
52256,-111.111111111111,4,2,1,70,0,0
52341,-111.111111111111,4,2,4,70,0,0
52512,-111.111111111111,4,2,1,70,0,0
52682,-111.111111111111,4,2,4,70,0,0
52767,-111.111111111111,4,2,1,70,0,0
52852,-111.111111111111,4,2,4,70,0,0
53023,-111.111111111111,4,2,1,70,0,0
53193,-111.111111111111,4,2,4,70,0,0
53279,-111.111111111111,4,2,1,70,0,0
53364,-111.111111111111,4,2,4,70,0,0
53534,-111.111111111111,4,2,1,70,0,0
53705,-111.111111111111,4,2,4,70,0,0
53790,-111.111111111111,4,2,3,70,0,0
53875,-111.111111111111,4,2,1,70,0,0
54046,-111.111111111111,4,2,2,70,0,0
54133,-125,4,2,4,50,0,0
56348,-125,4,2,4,65,0,0
56860,-90.9090909090909,4,2,1,80,0,1
57541,-90.9090909090909,4,2,3,80,0,1
57710,-90.9090909090909,4,2,1,80,0,1
58223,-90.9090909090909,4,2,3,80,0,1
59074,-90.9090909090909,4,2,1,80,0,1
59246,-90.9090909090909,4,2,3,80,0,1
59415,-90.9090909090909,4,2,1,80,0,1
59587,-90.9090909090909,4,2,3,80,0,1
60438,-90.9090909090909,4,2,1,80,0,1
60951,-90.9090909090909,4,2,3,80,0,1
61801,-90.9090909090909,4,2,1,80,0,1
62655,-90.9090909090909,4,2,3,80,0,1
62995,-90.9090909090909,4,2,1,80,0,1
64360,-90.9090909090909,4,2,3,80,0,1
65381,-90.9090909090909,4,2,1,80,0,1
66064,-90.9090909090909,4,2,3,80,0,1
66574,-90.9090909090909,4,2,1,80,0,1
66915,-90.9090909090909,4,2,2,80,0,1
67426,-90.9090909090909,4,2,3,80,0,1
67597,-90.9090909090909,4,2,1,80,0,1
68279,-90.9090909090909,4,2,8,80,0,1
68451,-90.9090909090909,4,2,1,80,0,1
68620,-90.9090909090909,4,2,3,80,0,1
68960,-90.9090909090909,4,2,9,80,0,1
69132,-90.9090909090909,4,2,1,80,0,1
69301,-90.9090909090909,4,2,10,80,0,1
69473,-90.9090909090909,4,2,1,80,0,1
69642,-90.9090909090909,4,2,10,80,0,1
69814,-90.9090909090909,4,2,1,80,0,1
69983,-90.9090909090909,4,2,3,80,0,1
70155,-90.9090909090909,4,2,2,80,0,1
71006,-90.9090909090909,4,2,10,80,0,1
71688,-90.9090909090909,4,2,3,80,0,1
72029,-90.9090909090909,4,2,9,80,0,1
72370,-90.9090909090909,4,2,3,80,0,1
72710,-90.9090909090909,4,2,7,80,0,1
72881,-90.9090909090909,4,2,4,80,0,1
73051,-90.9090909090909,4,2,3,80,0,1
73223,-111.111111111111,4,2,1,75,0,0
73733,-111.111111111111,4,2,3,75,0,0
74074,-111.111111111111,4,2,5,75,0,0
74585,-111.111111111111,4,2,1,75,0,0
74756,-111.111111111111,4,2,11,75,0,0
74928,-111.111111111111,4,2,1,75,0,0
75097,-111.111111111111,4,2,3,75,0,0
75269,-111.111111111111,4,2,1,75,0,0
75438,-111.111111111111,4,2,5,75,0,0
75949,-111.111111111111,4,2,3,60,0,0
76291,-111.111111111111,4,2,1,60,0,0
78678,-100,4,2,1,75,0,0
79360,-100,4,2,3,75,0,0
80381,-100,4,2,1,75,0,0
80723,-100,4,2,3,75,0,0
80892,-100,4,2,1,75,0,0
81064,-100,4,2,3,75,0,0
81574,-100,4,2,1,75,0,0
82087,-100,4,2,3,75,0,0
82938,-100,4,2,1,75,0,0
83110,-100,4,2,3,75,0,0
83279,-100,4,2,1,75,0,0
83451,-100,4,2,3,75,0,0
83790,-100,4,2,2,75,0,0
84473,-100,4,2,3,75,0,0
84642,-100,4,2,1,75,0,0
84814,-100,4,2,3,75,0,0
85835,-100,4,2,1,75,0,0
86178,-100,4,2,3,75,0,0
86347,-100,4,2,1,75,0,0
86519,-100,4,2,3,75,0,0
87029,-100,4,2,1,75,0,0
87541,-100,4,2,3,75,0,0
88222,-100,4,2,3,80,0,0
88735,-100,4,2,2,80,0,0
89245,-100,4,2,12,80,0,0
89587,-142.857142857143,4,2,3,70,0,0
90098,-142.857142857143,4,2,3,5,0,0

[Colours]
Combo1 : 108,108,108
Combo2 : 156,46,46

[HitObjects]
334,55,962,5,2,2:2:0:0:
334,55,1133,2,0,P|357:49|380:43,2,48.9999985046387,2|0|2,2:2|0:0|2:2,0:0:0:0:
260,15,1644,2,0,P|213:5|178:36,1,97.9999970092774,2|2,2:2|2:2,0:0:0:0:
72,167,2326,1,2,2:2:0:0:
72,167,2495,2,0,P|49:161|26:155,2,48.9999985046387,2|2|2,2:2|2:2|2:2,0:0:0:0:
122,233,3008,2,0,P|109:279|97:326,1,97.9999970092774,2|2,2:2|2:2,0:0:0:0:
92,372,3434,5,2,0:0:0:0:
92,372,3519,2,0,B|159:410|226:350|208:335|274:268|341:304,1,280,4|0,1:2|0:0,0:0:0:0:
422,339,5042,6,0,P|439:271|458:203,1,140,6|2,1:2|2:2,0:0:0:0:
512,135,5553,1,10,2:2:0:0:
433,95,5724,2,0,P|423:61|414:27,1,70,2|0,2:2|1:1,0:0:0:0:
329,2,6065,2,0,P|319:35|310:69,1,70,2|8,2:2|2:2,0:0:0:0:
267,146,6406,1,2,2:2:0:0:
341,191,6576,6,0,P|275:176|224:221,1,140,0|8,1:1|2:2,0:0:0:0:
264,298,7087,1,2,2:2:0:0:
189,341,7258,1,2,1:2:0:0:
189,341,7428,2,0,P|155:331|121:322,1,70,2|8,2:2|2:2,0:0:0:0:
38,294,7769,6,0,B|19:260|48:227|56:236|89:203|71:169,1,140,2|2,2:2|2:2,0:0:0:0:
0,116,8281,1,10,2:2:0:0:
38,37,8451,2,0,P|72:27|106:18,1,70,2|0,2:2|1:1,0:0:0:0:
172,74,8792,2,0,P|206:64|240:55,1,70,2|8,2:2|2:2,0:0:0:0:
318,17,9133,1,2,2:2:0:0:
358,94,9303,6,0,P|348:128|339:162,1,70,0|2,1:1|2:2,0:0:0:0:
295,238,9644,1,10,2:2:0:0:
295,238,9815,1,2,2:2:0:0:
375,272,9985,1,0,1:1:0:0:
332,348,10156,2,0,P|315:353|298:358,3,35,10|8|10|8,2:2|2:2|2:2|2:2,0:0:0:0:
256,372,10497,6,0,P|205:327|139:342,1,140,6|2,1:2|2:2,0:0:0:0:
62,383,11008,1,10,2:2:0:0:
17,307,11178,2,0,P|7:273|-2:239,1,70,2|0,2:2|1:1,0:0:0:0:
53,171,11519,2,0,P|87:181|121:190,1,70,2|8,2:2|2:2,0:0:0:0:
161,267,11860,1,2,2:2:0:0:
232,215,12031,6,0,P|249:147|268:79,1,140,0|8,1:1|2:2,0:0:0:0:
305,0,12542,1,2,2:2:0:0:
385,45,12712,1,2,1:2:0:0:
385,45,12883,2,0,P|418:53|452:63,1,70,2|8,2:2|2:2,0:0:0:0:
511,129,13224,6,0,B|530:163|501:196|493:187|460:220|478:254,1,140,2|2,2:2|2:2,0:0:0:0:
511,335,13735,1,10,2:2:0:0:
437,383,13906,2,0,P|403:373|369:364,1,70,2|0,2:2|1:1,0:0:0:0:
319,291,14247,2,0,P|285:300|251:309,1,70,2|8,2:2|2:2,0:0:0:0:
177,355,14587,1,2,2:2:0:0:
141,274,14758,6,0,P|151:240|160:206,1,70,0|2,1:1|2:2,0:0:0:0:
125,131,15099,1,10,2:2:0:0:
125,131,15269,1,2,2:2:0:0:
202,89,15440,1,0,1:1:0:0:
152,17,15610,2,0,P|135:22|118:27,3,35,10|8|8|8,2:2|2:2|2:2|2:2,0:0:0:0:
75,17,15951,5,6,1:2:0:0:
65,276,16633,1,2,2:2:0:0:
65,276,16803,2,0,P|111:286|146:255,1,97.9999970092774,2|2,2:2|2:2,0:0:0:0:
187,181,17315,2,0,P|233:194|280:206,1,97.9999970092774,2|2,2:2|2:2,0:0:0:0:
359,176,17826,1,2,2:2:0:0:
511,373,18337,6,0,P|488:367|465:361,1,48.9999985046387,2|2,2:2|2:2,0:0:0:0:
383,383,18678,2,0,P|352:347|362:301,1,97.9999970092774,2|2,2:2|2:2,0:0:0:0:
416,237,19190,1,2,2:2:0:0:
185,4,19872,1,2,2:2:0:0:
185,4,20042,2,0,P|172:52|160:99,1,97.9999970092774,2|2,2:2|2:2,0:0:0:0:
192,175,20553,1,2,2:2:0:0:
0,336,21065,6,0,P|46:326|81:357,1,97.9999970092774,2|2,2:2|2:3,0:0:0:0:
345,152,22087,1,2,2:2:0:0:
345,152,22258,2,0,P|332:104|320:57,1,97.9999970092774,2|2,2:2|2:2,0:0:0:0:
380,0,22769,2,0,P|426:-9|461:21,1,97.9999970092774,2|2,2:3|2:2,0:0:0:0:
509,90,23281,1,2,2:2:0:0:
340,274,23792,6,0,P|317:268|294:262,1,48.9999985046387,2|2,2:2|2:2,0:0:0:0:
229,206,24133,2,0,P|182:196|147:227,1,97.9999970092774,6|2,2:2|2:2,0:0:0:0:
108,301,24644,1,2,2:2:0:0:
436,381,25326,1,2,2:2:0:0:
436,381,25497,2,0,P|423:333|411:286,1,97.9999970092774,2|2,2:2|2:2,0:0:0:0:
356,222,26008,2,0,P|346:175|377:140,1,97.9999970092774,2|2,2:2|2:2,0:0:0:0:
377,140,26860,6,0,P|431:125|484:111,1,112,6|2,1:2|1:2,0:0:0:0:
511,30,27372,1,14,1:2:0:0:
346,0,27712,2,0,P|339:27|332:54,1,56,2|2,1:2|2:2,0:0:0:0:
268,109,28053,2,0,P|275:136|282:163,1,56,10|2,1:2|2:2,0:0:0:0:
355,214,28394,1,2,1:2:0:0:
355,214,28565,2,0,P|366:267|331:306,1,112,2|2,2:2|2:2,0:0:0:0:
252,340,29076,1,2,1:3:0:0:
93,384,29417,5,10,1:2:0:0:
93,384,29587,2,0,P|78:330|64:277,1,112,2|2,2:2|2:2,0:0:0:0:
1,217,30099,2,0,P|8:190|15:163,1,56,10|2,1:2|2:2,0:0:0:0:
81,110,30440,2,0,P|134:99|173:134,1,112,2|10,1:2|1:2,0:0:0:0:
223,203,30951,2,0,P|277:217|331:232,1,112,2|0,2:2|0:0,0:0:0:0:
394,176,31462,2,0,P|387:149|380:122,1,56,10|2,1:2|2:2,0:0:0:0:
359,45,31803,1,2,1:2:0:0:
359,45,31974,1,2,2:2:0:0:
196,0,32315,6,0,P|181:54|166:108,1,112,14|2,2:2|2:2,0:0:0:0:
104,165,32826,2,0,P|111:192|118:219,1,56,14|2,1:2|2:2,0:0:0:0:
85,297,33167,1,2,1:2:0:0:
242,353,33507,2,0,P|269:346|296:339,1,56,10|2,1:2|2:2,0:0:0:0:
337,266,33849,1,2,1:2:0:0:
337,266,34019,2,0,P|348:213|313:174,1,112,2|2,2:2|2:2,0:0:0:0:
236,134,34531,1,2,1:3:0:0:
343,5,34872,5,10,1:2:0:0:
343,5,35042,2,0,P|397:20|450:34,1,112,2|2,2:2|2:2,0:0:0:0:
511,92,35553,1,10,1:2:0:0:
462,160,35724,2,0,P|447:214|433:267,1,112,2|2,2:2|2:2,0:0:0:0:
474,340,36235,1,10,1:2:0:0:
311,383,36576,6,0,P|271:346|218:357,1,112,2|8,1:2|1:2,0:0:0:0:
151,324,37087,1,2,1:2:0:0:
151,324,37173,1,0,1:1:0:0:
151,324,37258,1,10,2:2:0:0:
188,247,37428,1,8,2:2:0:0:
101,128,37769,6,0,B|136:147|171:116|162:108|196:73|231:92,1,146.999995513916,6|0,1:1|1:1,0:0:0:0:
371,0,38622,1,8,0:1:0:0:
511,88,38962,1,2,0:2:0:0:
476,251,39303,2,0,P|453:257|430:263,1,48.9999985046387,2|0,0:2|1:1,0:0:0:0:
361,213,39644,2,0,P|374:165|386:118,1,97.9999970092774,2|10,1:2|0:1,0:0:0:0:
265,1,40326,1,2,0:2:0:0:
102,37,40667,6,0,P|89:85|77:132,1,97.9999970092774,2|2,1:2|0:2,0:0:0:0:
124,200,41178,2,0,P|147:206|170:212,1,48.9999985046387,2|8,0:2|0:1,0:0:0:0:
242,167,41519,1,2,0:2:0:0:
350,300,41860,1,2,0:2:0:0:
350,300,42031,2,0,P|373:294|396:288,2,48.9999985046387,2|0|2,0:2|1:1|1:2,0:0:0:0:
302,368,42542,2,0,P|279:362|256:356,1,48.9999985046387,2|8,0:2|0:1,0:0:0:0:
174,331,42883,1,2,0:2:0:0:
11,293,43224,6,0,B|-8:258|23:223|31:232|66:198|47:163,1,146.999995513916,2|0,1:2|1:1,0:0:0:0:
2,1,44076,1,8,0:1:0:0:
166,29,44417,1,2,0:2:0:0:
328,65,44758,2,0,P|322:88|316:111,1,48.9999985046387,2|0,0:2|1:1,0:0:0:0:
268,181,45099,2,0,P|281:229|293:276,1,97.9999970092774,2|10,1:2|0:1,0:0:0:0:
154,369,45781,2,0,P|148:346|142:323,1,48.9999985046387,2|2,0:2|0:2,0:0:0:0:
87,257,46122,6,0,P|78:211|108:176,1,97.9999970092774,2|2,1:2|0:2,0:0:0:0:
188,145,46633,2,0,P|211:151|234:157,1,48.9999985046387,2|8,0:2|0:1,0:0:0:0:
315,180,46974,1,2,0:2:0:0:
465,104,47315,1,2,0:2:0:0:
465,104,47484,2,0,P|488:98|511:92,2,48.9999985046387,2|2|2,0:2|1:2|1:2,0:0:0:0:
426,178,47997,2,0,P|432:201|438:224,1,48.9999985046387,2|8,0:2|0:1,0:0:0:0:
463,306,48336,1,2,0:2:0:0:
309,377,48678,6,0,B|278:393|248:366|256:359|227:329|197:346,1,125.999996154785,6|8,1:2|2:2,0:0:0:0:
119,383,49190,2,0,P|104:379|89:375,3,31.4999990386963,10|8|8|8,1:2|2:2|2:2|2:2,0:0:0:0:
65,338,49531,2,0,P|68:323|72:308,3,31.4999990386963,10|8|8|8,1:2|2:2|2:2|2:2,0:0:0:0:
65,265,49872,2,0,P|73:234|81:204,1,62.9999980773926,10|8,1:2|2:2,0:0:0:0:
34,133,50212,5,10,1:2:0:0:
117,101,50383,1,8,2:2:0:0:
117,101,50468,1,8,2:2:0:0:
117,101,50553,2,0,P|147:109|177:117,1,62.9999980773926,10|8,1:2|2:2,0:0:0:0:
259,141,50894,2,0,P|262:156|266:171,2,31.4999990386963,10|8|8,1:2|2:2|2:2,0:0:0:0:
322,83,51235,2,0,P|319:68|315:53,2,31.4999990386963,10|8|8,1:2|2:2|2:2,0:0:0:0:
399,118,51576,1,10,1:2:0:0:
379,206,51746,1,8,2:2:0:0:
379,206,51832,1,8,2:2:0:0:
379,206,51917,1,10,1:2:0:0:
438,266,52087,2,0,P|453:262|468:258,2,31.4999990386963,10|8|8,2:2|2:2|1:2,0:0:0:0:
416,348,52428,2,0,P|419:363|423:378,2,31.4999990386963,10|8|8,2:2|2:2|1:2,0:0:0:0:
335,330,52769,5,10,2:2:0:0:
335,330,52854,1,8,2:2:0:0:
335,330,52939,2,0,P|305:322|275:314,1,62.9999980773926,8|10,1:2|2:2,0:0:0:0:
197,275,53281,1,8,1:2:0:0:
150,346,53451,2,0,P|153:361|157:376,2,31.4999990386963,10|8|8,2:2|2:2|1:2,0:0:0:0:
71,311,53792,2,0,P|68:296|64:281,3,31.4999990386963,10|8|4|4,2:3|2:3|2:3|2:3,0:0:0:0:
39,245,54133,6,0,P|27:191|62:152,1,112,14|0,1:2|0:0,0:0:0:0:
144,129,54644,1,2,2:2:0:0:
263,246,54985,1,2,2:2:0:0:
406,161,55326,1,2,2:2:0:0:
360,0,55667,1,2,2:2:0:0:
59,151,56349,6,0,P|32:158|5:165,2,56,2|2|2,2:2|2:2|2:2,0:0:0:0:
136,99,56860,6,0,B|172:79|209:111|200:120|235:156|272:136,1,154.000004699707,6|2,1:2|2:2,0:0:0:0:
322,55,57372,1,8,2:2:0:0:
401,111,57542,1,2,2:2:0:0:
401,111,57712,2,0,P|412:147|422:184,1,77.0000023498536,2|2,1:2|2:3,0:0:0:0:
490,255,58053,5,10,2:2:0:0:
490,255,58224,2,0,P|497:291|472:318,1,77.0000023498536,2|0,2:2|1:1,0:0:0:0:
388,358,58565,2,0,P|352:347|315:337,1,77.0000023498536,2|8,2:2|2:2,0:0:0:0:
234,384,58906,1,2,2:2:0:0:
184,312,59076,1,2,1:2:0:0:
184,312,59247,1,2,2:2:0:0:
260,260,59417,1,10,2:2:0:0:
205,185,59587,6,0,B|231:155|270:147|270:147|240:121|232:82,1,154.000004699707,2|2,2:2|2:2,0:0:0:0:
186,0,60099,1,8,2:2:0:0:
122,66,60269,1,2,2:2:0:0:
122,66,60439,2,0,P|86:77|49:87,1,77.0000023498536,2|2,1:2|2:3,0:0:0:0:
4,171,60781,5,10,2:2:0:0:
4,171,60950,2,0,P|-3:207|22:234,1,77.0000023498536,2|0,2:2|1:1,0:0:0:0:
110,261,61292,2,0,P|121:297|131:334,1,77.0000023498536,2|8,2:2|2:2,0:0:0:0:
209,383,61633,1,2,2:2:0:0:
265,301,61803,1,2,1:2:0:0:
265,301,61974,2,0,P|283:306|301:311,3,38.5000011749268,10|8|10|8,2:2|2:2|2:2|2:2,0:0:0:0:
328,350,62315,6,0,P|400:363|454:313,1,154.000004699707,6|2,1:2|2:2,0:0:0:0:
511,237,62826,2,0,P|518:201|493:174,1,77.0000023498536,8|2,2:2|2:3,0:0:0:0:
465,84,63167,2,0,P|437:59|401:68,1,77.0000023498536,0|2,1:1|2:3,0:0:0:0:
309,47,63508,2,0,P|274:58|263:94,1,77.0000023498536,10|2,2:2|2:3,0:0:0:0:
205,166,63849,6,0,P|227:238|247:313,1,154.000004699707,2|10,1:2|2:2,0:0:0:0:
185,383,64360,2,0,P|149:372|112:362,1,77.0000023498536,2|0,2:2|1:1,0:0:0:0:
20,342,64701,2,0,P|-5:315|1:278,1,77.0000023498536,2|8,2:2|2:2,0:0:0:0:
61,207,65042,6,0,B|81:171|49:134|40:143|4:108|24:71,1,154.000004699707,2|2,2:2|2:3,0:0:0:0:
86,0,65553,2,0,P|122:11|159:21,1,77.0000023498536,10|2,2:2|2:3,0:0:0:0:
228,91,65894,1,2,1:2:0:0:
228,91,66065,2,0,P|217:127|207:164,2,77.0000023498536,2|8|2,2:2|2:2|2:2,0:0:0:0:
287,19,66576,6,0,P|341:9|381:47,1,115.50000352478,2|0,1:2|0:0,0:0:0:0:
424,67,66917,2,0,P|442:72|460:77,4,38.5000011749268,14|2|2|2|10,1:2|2:2|2:2|2:2|1:2,0:0:0:0:
357,132,67428,1,10,2:2:0:0:
420,213,67598,5,10,2:2:0:0:
420,213,67684,1,8,2:2:0:0:
420,213,67769,2,0,P|443:262|403:347,1,154.000004699707,6|2,1:2|1:2,0:0:0:0:
317,383,68281,1,14,1:2:0:0:
237,347,68451,1,2,2:2:0:0:
237,347,68621,2,0,P|226:311|216:274,1,77.0000023498536,6|0,1:2|0:0,0:0:0:0:
301,233,68962,5,14,1:2:0:0:
301,233,69132,2,0,P|312:197|322:160,1,77.0000023498536,2|6,2:2|1:2,0:0:0:0:
320,66,69474,2,0,P|293:41|256:47,1,77.0000023498536,2|14,2:2|1:2,0:0:0:0:
176,0,69815,1,2,2:2:0:0:
132,82,69985,1,6,1:2:0:0:
132,82,70156,1,2,2:2:0:0:
52,35,70326,1,2,1:2:0:0:
36,126,70497,6,0,B|28:165|-2:191|-2:191|37:199|63:229,1,154.000004699707,14|2,1:2|2:2,0:0:0:0:
15,309,71008,2,0,B|43:334|43:334|80:326,1,77.0000023498536,14|0,1:2|0:0,0:0:0:0:
155,382,71349,2,0,B|191:369|191:369|203:333,1,77.0000023498536,6|0,1:2|0:0,0:0:0:0:
288,297,71690,2,0,B|295:259|295:259|270:231,1,77.0000023498536,14|0,1:2|0:0,0:0:0:0:
202,166,72031,6,0,P|224:92|244:17,1,154.000004699707,6|14,1:2|1:2,0:0:0:0:
342,7,72542,1,8,2:2:0:0:
342,7,72627,1,8,2:2:0:0:
342,7,72712,1,10,2:2:0:0:
434,18,72883,2,0,P|444:55|455:91,1,77.0000023498536,10|6,2:3|2:3,0:0:0:0:
511,156,73224,6,0,B|527:187|500:217|493:209|463:238|480:268,1,125.999996154785,6|2,1:2|1:2,0:0:0:0:
505,349,73735,2,0,P|459:360|414:372,1,94.499997116089,2|0,1:2|0:0,0:0:0:0:
372,384,74076,1,10,2:2:0:0:
274,251,74417,1,2,2:2:0:0:
274,251,74587,2,0,P|212:236|152:220,1,125.999996154785,2|2,1:2|2:2,0:0:0:0:
72,252,75099,2,0,P|64:282|56:312,1,62.9999980773926,2|2,1:2|2:2,0:0:0:0:
107,380,75440,1,10,2:2:0:0:
275,340,75781,5,2,2:2:0:0:
275,340,75951,1,2,1:2:0:0:
256,192,76036,12,2,77315,2:2:0:0:
512,84,78678,6,0,P|444:67|376:48,1,140,6|2,1:2|2:2,0:0:0:0:
303,0,79189,1,10,1:2:0:0:
263,78,79360,2,0,P|273:112|282:146,1,70,2|0,2:2|1:1,0:0:0:0:
225,212,79701,2,0,P|235:245|244:279,1,70,2|8,2:2|1:2,0:0:0:0:
295,350,80042,1,2,2:2:0:0:
214,383,80212,6,0,P|163:338|97:353,1,140,0|8,1:1|1:2,0:0:0:0:
15,322,80723,1,2,2:2:0:0:
65,251,80894,1,2,1:2:0:0:
65,251,81064,2,0,P|55:217|46:183,1,70,2|8,2:2|1:2,0:0:0:0:
21,99,81405,6,0,B|55:118|88:89|79:81|112:48|146:66,1,140,2|2,2:2|2:3,0:0:0:0:
222,20,81917,1,10,1:2:0:0:
257,99,82087,2,0,P|247:133|238:167,1,70,2|0,2:2|1:1,0:0:0:0:
304,224,82428,2,0,P|338:214|372:205,1,70,2|8,2:2|1:2,0:0:0:0:
447,248,82769,1,2,2:2:0:0:
486,170,82939,6,0,P|476:136|467:102,1,70,2|2,1:2|2:2,0:0:0:0:
434,26,83280,1,10,1:2:0:0:
434,26,83451,1,2,2:2:0:0:
360,72,83621,1,0,1:1:0:0:
309,0,83792,2,0,P|292:5|275:10,3,35,10|8|10|8,2:2|2:2|2:2|2:2,0:0:0:0:
233,24,84133,6,0,P|188:74|202:140,1,140,6|2,1:2|2:2,0:0:0:0:
283,174,84644,1,10,1:2:0:0:
236,247,84814,2,0,P|246:281|255:315,1,70,2|0,2:2|1:1,0:0:0:0:
200,383,85155,2,0,P|166:373|132:364,1,70,2|8,2:2|1:2,0:0:0:0:
46,382,85496,1,2,2:2:0:0:
0,307,85667,6,0,P|18:239|35:171,1,140,0|8,1:1|1:2,0:0:0:0:
0,91,86178,1,2,2:2:0:0:
77,48,86348,1,2,1:2:0:0:
77,48,86519,2,0,P|110:56|144:66,1,70,2|8,2:2|1:2,0:0:0:0:
229,42,86860,6,0,B|210:76|239:109|247:100|280:133|262:167,1,140,2|2,2:2|2:3,0:0:0:0:
211,239,87371,1,10,1:2:0:0:
283,288,87542,2,0,P|317:278|351:269,1,70,2|0,2:2|1:1,0:0:0:0:
435,292,87883,2,0,P|444:258|453:224,1,70,2|8,2:2|1:2,0:0:0:0:
507,156,88223,5,6,1:2:0:0:
410,16,88564,1,14,1:2:0:0:
410,16,88735,1,2,2:2:0:0:
333,58,88906,2,0,P|282:71|231:86,1,105,14|0,1:2|0:0,0:0:0:0:
210,125,89247,2,0,P|223:175|238:226,1,105,14|0,1:2|0:0,0:0:0:0:
276,242,89587,6,0,P|255:312|237:382,1,146.999995513916,6|0,1:2|0:0,0:0:0:0:
