osu file format v14

[General]
AudioFilename: audio.mp3
AudioLeadIn: 0
PreviewTime: 120209
Countdown: 0
SampleSet: Drum
StackLeniency: 0.7
Mode: 0
LetterboxInBreaks: 0
WidescreenStoryboard: 1

[Editor]
Bookmarks: 530,5636,15689,25902,34678,45210,50316,55422,75847,80635,90688,109677,117656,120209,130422,140635,150847,161059,181485,191698,196485,206697
DistanceSpacing: 0.8
BeatDivisor: 8
GridSize: 16
TimelineZoom: 2

[Metadata]
Title:Parole
TitleUnicode:Parole
Artist:sajou no hana
ArtistUnicode:sajou no hana
Creator:Heroine
Version:Zelq's Expert
Source:とある科学の一方通行
Tags:A Certain Scientific Zelq Accelerator Toaru Kagaku アクセラレータ To Aru Majutsu no Index Gaiden Ippou Tsuukou anime ending ed 1 japanese Agatsu rock jrock j-rock jp Some Hero Some_Hero
BeatmapID:3402101
BeatmapSetID:1647123

[Difficulty]
HPDrainRate:6
CircleSize:4
OverallDifficulty:8.5
ApproachRate:9.2
SliderMultiplier:1.9
SliderTickRate:1

[Events]
//Background and Video events
0,0,"accelerator.jpg",0,0
//Break Periods
//Storyboard Layer 0 (Background)
//Storyboard Layer 1 (Fail)
//Storyboard Layer 2 (Pass)
//Storyboard Layer 3 (Foreground)
//Storyboard Layer 4 (Overlay)
//Storyboard Sound Samples

[TimingPoints]
530,319.148936170213,4,2,1,50,1,0
5636,-90.9090909090909,4,3,1,70,0,0
15530,-166.666666666667,4,3,1,70,0,0
15689,-125,4,2,2,50,0,0
20795,-100,4,2,2,50,0,0
21115,-125,4,2,2,50,0,0
25902,-100,4,2,2,60,0,0
34678,-200,4,2,2,40,0,0
35317,-142.857142857143,4,2,2,40,0,0
40104,-142.857142857143,4,2,2,50,0,0
42657,-76.923076923077,4,2,2,60,0,0
43774,-76.923076923077,4,2,2,70,0,0
45210,-200,4,3,3,70,0,0
50317,-500.000000000003,4,3,2,70,0,1
50636,-76.9230769230769,4,3,2,70,0,0
51592,-76.9230769230769,4,3,2,80,0,0
52550,-76.9230769230769,4,3,1,80,0,0
52869,-500,4,3,3,40,0,0
54784,-500,4,3,3,55,0,0
55422,-83.3333333333333,4,3,1,80,0,0
60369,-166.666666666667,4,3,1,80,0,0
60847,-83.3333333333333,4,3,1,80,0,0
70422,-166.666666666667,4,3,1,80,0,0
70741,-83.3333333333333,4,3,1,80,0,0
75528,-333.333333333333,4,3,1,80,0,0
75847,-333.333333333333,4,3,3,50,0,0
79677,319.148936170213,3,3,3,90,1,0
79677,-83.3333333333333,3,3,3,90,0,0
80315,-166.666666666667,3,3,3,90,0,0
80635,319.148936170213,4,3,1,70,1,0
80635,-90.9090909090909,4,3,1,70,0,0
90528,-166.666666666667,4,3,1,70,0,0
90688,-125,4,2,2,50,0,0
95794,-100,4,2,2,50,0,0
96113,-125,4,2,2,50,0,0
100900,-125,4,2,2,60,0,0
101060,-100,4,2,2,60,0,0
109677,-200,4,2,2,40,0,0
110315,-142.857142857143,4,2,2,40,0,0
115103,-142.857142857143,4,2,2,50,0,0
117656,-500.000000000003,4,2,2,70,0,1
118214,-500.000000000003,4,2,2,5,0,1
118613,-500.000000000003,4,2,2,5,0,0
118773,-83.3333333333333,4,2,2,90,0,1
118853,-83.3333333333333,4,2,2,90,0,0
119252,-83.3333333333333,4,2,2,80,0,0
119411,-66.6666666666667,4,2,2,80,0,0
119571,-83.3333333333333,4,2,2,80,0,0
120209,-166.666666666667,4,3,3,50,0,0
128826,-111.111111111111,4,3,3,50,0,0
129145,-83.3333333333333,4,3,3,50,0,0
129464,-66.6666666666667,4,3,3,50,0,0
129783,-66.6666666666667,4,3,3,25,0,0
130422,-83.3333333333333,4,3,2,80,0,0
138081,-200,4,3,2,80,0,0
139358,-100,4,3,2,80,0,0
139597,-100,4,3,2,5,0,0
139677,-100,4,3,2,80,0,0
139837,-100,4,3,2,5,0,0
139996,-66.6666666666667,4,3,2,80,0,0
140076,-66.6666666666667,4,3,2,5,0,0
140156,-66.6666666666667,4,3,2,80,0,0
140236,-66.6666666666667,4,3,2,5,0,0
140315,-142.857142857143,4,3,2,80,0,0
140954,-133.333333333333,4,3,3,50,0,0
150847,-500,4,3,2,70,0,1
151166,-500,4,3,2,70,0,0
151485,-125,4,3,2,70,0,0
153479,-125,4,3,2,5,0,0
153559,-125,4,3,2,70,0,0
157868,-125,4,3,1,70,0,0
158107,-125,4,3,2,70,0,0
158506,-500,4,3,2,70,0,0
160581,-100,4,3,2,70,0,0
161059,-83.3333333333333,4,3,1,80,0,0
181166,-166.666666666667,4,3,1,80,0,0
181485,-125,4,2,3,50,0,0
184038,-250,4,2,3,50,0,0
185315,-125,4,2,3,50,0,0
186272,-100,4,2,3,50,0,0
186592,-500,4,3,2,60,0,1
186911,-500,4,3,2,60,0,0
187229,-100,4,3,2,60,0,0
188825,-100,4,3,1,60,0,0
189145,-500,4,3,2,70,0,1
189464,-83.3333333333333,4,3,2,50,0,0
190421,-83.3333333333333,4,3,2,60,0,0
191059,-83.3333333333333,4,3,2,70,0,0
191378,-166.666666666667,4,3,2,70,0,0
191698,-166.666666666667,4,2,3,50,0,0
195527,319.148936170213,3,3,3,90,1,0
195527,-83.3333333333334,4,2,3,90,0,0
196165,-166.666666666667,4,2,3,90,0,0
196485,319.148936170213,4,3,4,80,1,0

[Colours]
Combo1 : 146,200,226
Combo2 : 215,249,251

[HitObjects]
446,27,5636,6,0,B|456:52|456:52|444:75,1,52.2500015945435,4|0,1:2|0:0,0:0:0:0:
376,103,5795,2,0,P|329:81|279:66,1,104.500003189087,0|8,0:0|0:2,0:0:0:0:
114,162,6115,1,0,0:0:0:0:
46,108,6274,2,0,B|83:29|173:35|173:35|148:99,1,209.000006378174,2|8,1:2|0:2,0:0:0:0:
103,295,6753,5,2,0:3:0:0:
35,225,6912,1,0,1:2:0:0:
114,162,7072,1,0,0:0:0:0:
315,348,7232,2,0,P|216:313|115:288,2,209.000006378174,10|2|10,0:2|1:2|0:2,0:0:0:0:
385,384,8030,6,0,B|399:364|399:364|394:336,1,52.2500015945435
434,225,8189,2,0,P|392:256|341:267,1,104.500003189087,0|0,1:2|0:0,0:0:0:0:
134,384,8508,1,8,0:2:0:0:
47,358,8668,2,0,P|36:306|17:258,1,104.500003189087
83,193,8907,1,0,0:0:0:0:
83,193,8987,2,0,L|191:212,1,104.500003189087,2|8,0:3|0:2,0:0:0:0:
376,94,9306,5,2,0:3:0:0:
280,7,9466,1,0,1:2:0:0:
201,62,9625,1,0,0:0:0:0:
131,27,9785,6,0,P|157:30|183:39,1,52.2500015945435,10|0,0:2|0:0,0:0:0:0:
261,153,9944,2,0,P|264:127|273:101,1,52.2500015945435,2|0,0:2|0:0,0:0:0:0:
369,8,10104,2,0,P|408:14|461:60,1,104.500003189087,2|2,1:2|0:2,0:0:0:0:
439,305,10423,5,10,0:2:0:0:
444,285,10503,1,0,0:0:0:0:
436,265,10583,1,10,0:2:0:0:
428,244,10662,1,8,0:2:0:0:
434,225,10742,1,4,1:2:0:0:
494,155,10902,2,0,B|386:179|445:237|317:263,1,209.000006378174
74,193,11381,2,0,B|66:178|44:170|44:170|86:158|125:208,1,104.500003189087,6|0,1:2|0:0,0:0:0:0:
165,263,11620,1,0,0:0:0:0:
165,263,11700,2,0,B|154:305|154:305|160:326|160:326|142:399,1,104.500003189087,8|2,0:2|0:3,0:0:0:0:
66,319,12019,5,0,1:2:0:0:
245,207,12178,1,0,0:0:0:0:
182,141,12338,2,0,P|164:92|165:40,1,104.500003189087,10|0,0:2|0:0,0:0:0:0:
165,263,12657,2,0,P|234:292|310:380,1,156.750004783631,2|0,1:2|0:0,0:0:0:0:
298,361,12976,2,0,B|325:365|348:381|348:381|355:353|370:335,1,104.500003189087,10|2,0:2|0:3,0:0:0:0:
429,123,13295,6,0,B|456:118|479:103|479:103|486:130|501:148,1,104.500003189087,0|2,1:2|0:3,0:0:0:0:
443,201,13615,1,8,0:2:0:0:
194,123,13774,2,0,B|224:87|238:32|238:32|284:63|337:71,1,209.000006378174,0|2,0:0|0:3,0:0:0:0:
355,149,14253,5,8,0:2:0:0:
157,281,14412,1,2,0:3:0:0:
225,201,14572,5,0,1:2:0:0:
186,364,14732,1,0,0:0:0:0:
64,254,14891,2,0,P|74:202|77:150,1,104.500003189087,10|2,0:2|0:2,0:0:0:0:
304,318,15210,2,0,P|314:266|317:214,1,104.500003189087,10|2,0:2|1:2,0:0:0:0:
27,374,15530,6,0,P|23:345|17:317,1,56.9999982604981,8|4,0:2|1:2,0:0:0:0:
35,62,16008,6,0,L|136:39,1,76,0|0,1:2|1:2,0:0:0:0:
170,1,16327,1,0,0:0:0:0:
229,91,16487,2,0,L|217:166,1,76,8|0,0:2|0:0,0:0:0:0:
133,200,16806,1,8,0:2:0:0:
314,204,16966,6,0,P|388:188|460:163,1,152,0|10,1:2|0:2,0:0:0:0:
236,264,17444,2,0,P|276:288|305:319,1,76,2|2,3:2|1:2,0:0:0:0:
413,375,17764,2,0,P|421:334|442:291,1,76,8|10,0:2|0:2,0:0:0:0:
474,79,18083,5,2,0:2:0:0:
474,79,18242,2,0,L|490:230,1,152,2|0,1:2|1:2,0:0:0:0:
319,375,18721,1,0,1:2:0:0:
319,375,19040,2,0,P|281:362|230:350,1,76,10|0,0:2|0:0,0:0:0:0:
362,269,19359,5,8,0:2:0:0:
154,374,19519,2,0,P|166:327|81:259,1,152,2|8,1:2|0:2,0:0:0:0:
30,337,19998,2,0,B|27:358|12:371|12:371|37:361|40:339,1,76,6|10,1:2|0:2,0:0:0:0:
81,272,20237,5,8,0:2:0:0:
81,272,20317,1,10,0:2:0:0:
1,171,20476,1,2,1:3:0:0:
137,36,20636,1,0,1:2:0:0:
180,118,20795,6,0,L|31:88,1,142.5,6|0,1:2|0:0,0:0:0:0:
18,17,21115,2,0,B|7:51|7:51|28:85,1,76,0|0,1:2|1:2,0:0:0:0:
125,192,21434,6,0,B|200:212|182:237|273:267,1,152,0|0,3:2|0:0,0:0:0:0:
398,169,21912,1,8,0:2:0:0:
320,126,22072,1,0,1:2:0:0:
320,126,22391,5,10,0:2:0:0:
416,43,22551,1,2,0:2:0:0:
325,0,22710,1,2,1:2:0:0:
486,124,22870,1,8,0:2:0:0:
486,124,22950,1,0,3:2:0:0:
486,124,23030,2,0,L|477:199,1,76,10|0,0:2|0:0,0:0:0:0:
410,375,23349,6,0,P|446:312|413:247,1,152,2|2,1:2|1:2,0:0:0:0:
244,370,23827,1,0,1:2:0:0:
244,370,24147,1,8,0:2:0:0:
309,298,24306,1,2,1:2:0:0:
113,219,24466,5,14,0:2:0:0:
184,256,24625,2,0,P|165:309|154:375,1,114,0|0,1:2|0:0,0:0:0:0:
77,364,24944,2,0,L|41:373,2,38,8|0|2,0:2|3:0|1:2,0:0:0:0:
268,85,25343,5,8,0:2:0:0:
268,85,25423,1,10,0:2:0:0:
191,133,25583,1,8,0:3:0:0:
372,288,25742,5,4,0:3:0:0:
424,234,25902,2,0,P|336:260|314:348,1,190,6|2,1:1|1:1,0:0:0:0:
481,174,26381,2,0,L|462:122,1,47.5,8|0,0:2|0:0,0:0:0:0:
465,130,26540,2,0,P|377:103|355:15,1,190,2|2,1:1|1:1,0:0:0:0:
512,250,27019,5,8,0:2:0:0:
466,334,27178,2,0,B|396:348|396:348|360:332|360:332|282:346,1,190,2|2,1:1|1:1,0:0:0:0:
283,347,27657,1,10,0:2:0:0:
49,259,27897,5,8,0:2:0:0:
49,259,27976,1,0,1:2:0:0:
111,316,28136,2,0,B|92:337|81:358|81:358|13:340,1,95,2|10,1:2|0:2,0:0:0:0:
104,199,28455,5,2,1:2:0:0:
40,137,28615,2,0,B|62:130|92:103|92:103|151:132|240:162,1,190,2|8,0:2|0:2,0:0:0:0:
311,264,29093,1,2,1:1:0:0:
423,186,29253,1,2,0:2:0:0:
305,131,29412,1,2,1:2:0:0:
223,230,29572,1,10,0:2:0:0:
399,98,29732,6,0,B|409:62|444:54|444:54|402:56|379:94,1,142.5,2|0,1:2|0:0,0:0:0:0:
305,131,30051,2,0,P|323:150|331:170,1,47.5,2|0,1:2|0:0,0:0:0:0:
486,253,30210,2,0,P|443:273|408:305,1,95,10|2,0:2|1:2,0:0:0:0:
345,374,30530,5,4,0:3:0:0:
423,186,30689,1,0,1:2:0:0:
270,305,30849,5,8,0:3:0:0:
227,144,31008,2,0,B|181:87|102:128|102:128|125:189,1,190,6|2,1:2|1:1,0:0:0:0:
43,361,31487,2,0,P|26:343|16:322,1,47.5,8|0,0:2|0:0,0:0:0:0:
27,246,31647,2,0,P|33:223|47:203,1,47.5,2|0,1:1|0:0,0:0:0:0:
120,326,31806,2,0,P|145:274|197:255,1,95,2|2,0:2|1:1,0:0:0:0:
347,224,32125,5,10,0:2:0:0:
412,286,32285,2,0,B|345:270|345:270|330:236|330:236|248:216,1,190,2|2,1:1|1:1,0:0:0:0:
187,364,32764,2,0,L|261:345,1,47.5,8|0,0:2|0:0,0:0:0:0:
317,384,32923,2,0,L|305:337,1,47.5,2|8,0:1|0:2,0:0:0:0:
231,99,33083,5,0,1:2:0:0:
164,148,33242,1,0,1:2:0:0:
238,208,33402,1,8,0:2:0:0:
457,122,33561,6,0,B|362:97|420:41|301:16,1,190,2|2,1:1|1:1,0:0:0:0:
442,0,34040,5,8,0:2:0:0:
296,31,34200,2,0,B|201:56|259:112|140:137,1,190,2|2,1:3|1:2,0:0:0:0:
0,48,34678,6,2,B|113:72|55:128|150:153,1,190,14|10,0:2|0:2,0:1:0:0:
21,237,35636,5,2,1:2:0:0:
21,237,35795,1,0,1:2:0:0:
21,237,35955,1,10,0:2:0:0:
232,295,36274,6,0,P|245:264|249:232,1,66.4999979705811,0|2,1:2|1:2,0:0:0:0:
155,334,36593,2,0,P|124:320|92:316,1,66.4999979705811,8|2,0:2|0:2,0:0:0:0:
273,368,36912,2,0,B|344:349|328:335|401:316,2,132.999995941162,2|10|2,1:1|0:1|1:1,0:0:0:0:
273,368,37710,1,0,1:2:0:0:
273,368,37870,1,10,0:2:0:0:
361,131,38189,5,2,1:2:0:0:
361,131,38349,1,0,1:2:0:0:
361,131,38508,2,0,L|347:201,1,66.4999979705811,10|2,0:2|0:2,0:0:0:0:
479,337,38827,5,0,1:2:0:0:
479,337,38987,1,2,1:2:0:0:
479,337,39147,1,8,0:2:0:0:
509,249,39306,6,2,B|497:232|472:222|472:222|462:169|462:169|482:143|482:143|471:109|468:67,1,199.499993911743,2|14,0:2|0:2,0:1:0:0:
348,36,39944,5,0,0:0:0:0:
334,38,40024,1,8,0:2:0:0:
322,40,40104,2,0,P|294:22|253:9,2,66.4999979705811,6|2|10,1:2|1:2|0:2,0:0:0:0:
352,127,40583,5,2,0:2:0:0:
267,206,40742,5,2,1:2:0:0:
181,192,40902,1,2,1:2:0:0:
153,110,41061,1,10,0:2:0:0:
295,287,41221,5,2,0:2:0:0:
210,273,41381,1,2,1:2:0:0:
181,192,41540,1,2,1:2:0:0:
324,369,41700,5,10,0:2:0:0:
239,355,41859,1,2,0:2:0:0:
210,273,42019,1,2,1:2:0:0:
181,192,42178,1,0,1:2:0:0:
153,110,42338,1,10,0:2:0:0:
130,31,42498,1,0,1:2:0:0:
45,332,42657,6,0,B|70:350|70:350|118:306|81:263,1,123.499994346619,14|8,0:2|0:3,0:0:0:0:
17,193,42897,1,4,0:3:0:0:
13,180,42976,1,12,0:3:0:0:
291,367,43136,6,0,P|375:329|463:298,1,185.249991519928,14|0,1:2|0:0,0:0:0:0:
269,298,43455,6,0,P|356:328|441:366,1,185.249991519928,2|0,1:2|0:0,0:0:0:0:
217,353,43774,6,0,P|329:311|369:198,1,246.999988693238,6|10,1:1|0:2,0:0:0:0:
269,28,44253,1,10,0:2:0:0:
429,60,44412,1,0,1:2:0:0:
254,174,44572,5,0,1:2:0:0:
181,192,44652,1,8,1:3:0:0:
107,178,44732,1,4,1:3:0:0:
60,123,44811,1,0,1:2:0:0:
54,50,44891,1,8,0:2:0:0:
53,40,45051,6,0,B|42:7|11:0|11:0|55:7|62:44,1,123.499994346619,2|0,0:3|1:1,0:0:0:0:
36,216,45530,6,0,P|32:264|24:310,1,95,2|8,0:2|0:2,0:0:0:0:
115,284,46008,2,0,P|136:327|152:371,1,95,2|2,0:2|0:2,0:0:0:0:
152,371,46487,1,2,0:2:0:0:
302,313,46806,5,2,1:2:0:0:
302,313,46966,1,2,0:2:0:0:
302,313,47125,1,8,0:2:0:0:
215,262,47285,5,2,1:2:0:0:
343,220,47444,2,0,P|389:232|444:240,1,95,0|0,3:2|1:2,0:0:0:0:
435,239,48083,6,0,B|461:280|461:280|441:343,1,95,2|8,0:2|0:2,0:0:0:0:
343,220,48561,2,0,B|317:179|317:179|337:116,1,95,2|2,0:2|0:2,0:0:0:0:
415,98,49040,2,0,L|511:116,2,95,2|2|10,0:2|1:2|0:2,0:0:0:0:
259,6,49998,1,0,3:2:0:0:
259,6,50317,6,0,L|215:-1,2,38,6|2|0,1:1|1:2|1:2,0:0:0:0:
221,0,51115,6,0,P|221:30|213:64,1,61.7499971733095,2|0,3:2|0:0,0:0:0:0:
122,54,51274,6,0,P|122:84|114:118,1,61.7499971733095
299,103,51434,6,0,P|299:133|291:167,1,61.7499971733095,10|0,0:2|0:0,0:0:0:0:
82,193,51593,6,0,L|21:204,1,61.7499971733095,10|0,1:2|0:0,0:0:0:0:
160,363,51753,5,8,0:2:0:0:
160,363,51833,2,0,L|99:375,1,61.7499971733095,8|10,0:2|1:2,0:0:0:0:
253,243,51992,5,8,0:2:0:0:
253,243,52072,2,0,L|192:255,1,61.7499971733095,10|8,0:2|0:2,0:0:0:0:
408,340,52232,5,8,1:2:0:0:
412,347,52311,1,8,0:2:0:0:
415,355,52391,1,10,0:2:0:0:
416,364,52471,1,8,0:2:0:0:
415,373,52551,5,8,1:2:0:0:
354,337,52631,5,8,0:2:0:0:
333,268,52710,5,8,0:2:0:0:
370,202,52790,5,8,0:2:0:0:
440,177,52870,6,0,P|455:206|457:255,3,76,10|8|0|2,0:2|0:2|3:2|0:1,0:0:0:0:
466,162,54944,1,0,0:0:0:0:
478,71,55104,1,2,0:1:0:0:
478,71,55423,6,0,P|386:91|286:129,1,170.999994781494,6|0,1:2|0:0,0:0:0:0:
245,55,55742,2,0,B|208:101|208:101|244:192,1,113.999996520996,10|0,0:2|0:0,0:0:0:0:
131,312,56061,2,0,P|54:282|4:269,1,113.999996520996,2|0,1:2|0:0,0:0:0:0:
215,378,56381,2,0,P|231:323|253:270,1,113.999996520996,10|0,0:2|0:0,0:0:0:0:
184,224,56620,5,0,0:0:0:0:
184,224,56700,1,0,1:2:0:0:
304,185,56859,1,0,0:0:0:0:
445,384,57019,2,0,P|368:353|350:273,1,170.999994781494,10|0,0:2|0:0,0:0:0:0:
410,221,57338,2,0,B|431:240|431:240|429:270,1,56.9999982604981,2|0,1:2|0:0,0:0:0:0:
322,108,57498,1,0,0:0:0:0:
453,63,57657,5,10,0:2:0:0:
403,123,57817,1,0,0:0:0:0:
250,21,57976,6,0,L|44:51,1,170.999994781494,0|0,1:2|0:0,0:0:0:0:
6,115,58295,2,0,P|52:132|108:167,1,113.999996520996,10|0,0:2|0:0,0:0:0:0:
266,239,58615,5,2,1:2:0:0:
331,203,58774,2,0,P|343:150|302:114,1,113.999996520996,2|8,0:2|0:2,0:0:0:0:
93,362,59093,5,2,0:2:0:0:
10,308,59253,2,0,P|63:287|115:265,1,113.999996520996,6|0,1:2|0:0,0:0:0:0:
202,297,59492,1,0,0:0:0:0:
202,297,59572,2,0,L|224:164,1,113.999996520996,10|0,0:2|0:0,0:0:0:0:
223,175,59891,6,0,L|231:232,1,56.9999982604981,2|0,1:2|0:0,0:0:0:0:
297,291,60051,6,0,L|305:348,1,56.9999982604981,8|0,0:2|0:0,0:0:0:0:
412,116,60210,6,0,L|420:173,1,56.9999982604981,0|0,1:2|0:0,0:0:0:0:
500,308,60370,6,0,L|509:364,1,56.9999982604981,8|4,0:2|1:2,0:0:0:0:
495,369,60849,6,0,P|440:368|410:322,1,113.999996520996,10|0,0:2|0:0,0:0:0:0:
289,95,61168,5,2,1:2:0:0:
344,45,61327,2,0,B|436:79|379:124|503:174,1,170.999994781494,2|0,0:2|0:0,0:0:0:0:
467,157,61647,1,2,0:2:0:0:
309,289,61806,6,0,P|256:310|206:338,1,113.999996520996,2|0,1:2|0:0,0:0:0:0:
381,243,62125,1,10,0:2:0:0:
133,370,62285,6,0,P|87:335|38:306,1,113.999996520996,2|0,0:2|1:2,0:0:0:0:
159,253,62604,1,2,0:2:0:0:
72,17,62764,6,0,P|35:58|46:112,1,113.999996520996,10|0,0:2|0:0,0:0:0:0:
18,204,63003,1,0,0:0:0:0:
18,204,63083,2,0,B|119:196|134:140|255:125,1,227.999993041992,12|0,0:2|1:2,0:0:0:0:
423,198,63561,5,8,0:2:0:0:
493,107,63721,1,4,1:2:0:0:
391,29,63881,1,0,0:0:0:0:
353,289,64040,5,12,0:2:0:0:
423,198,64200,1,0,0:0:0:0:
321,120,64359,1,0,1:2:0:0:
353,289,64519,6,0,P|420:318|466:353,1,113.999996520996,8|2,0:2|1:3,0:0:0:0:
262,207,64838,5,0,0:0:0:0:
206,122,64998,2,0,P|227:69|258:21,1,113.999996520996,2|0,1:2|0:0,0:0:0:0:
227,305,65317,5,2,1:2:0:0:
173,356,65397,1,0,0:0:0:0:
99,363,65476,1,8,0:2:0:0:
38,320,65556,1,8,0:2:0:0:
38,320,65636,6,0,B|37:278|23:252|23:252|45:123,1,170.999994781494,6|0,1:2|0:0,0:0:0:0:
105,108,65955,2,0,B|93:80|65:72|65:72|99:75|114:106,1,113.999996520996,14|0,0:1|0:0,0:0:0:0:
294,216,66274,2,0,P|347:195|402:181,1,113.999996520996,2|0,1:2|0:0,0:0:0:0:
402,181,66593,2,0,L|344:172,1,56.9999982604981,10|0,0:2|0:0,0:0:0:0:
207,151,66753,1,0,0:0:0:0:
337,366,66912,6,0,P|392:359|411:255,1,170.999994781494,0|0,1:2|0:0,0:0:0:0:
478,211,67232,2,0,P|484:183|494:156,2,56.9999982604981,10|0|0,0:2|0:0|0:0,0:0:0:0:
315,28,67551,6,0,L|200:8,1,113.999996520996,2|0,1:1|0:0,0:0:0:0:
97,124,67790,1,0,0:0:0:0:
97,124,67870,2,0,P|124:76|114:21,1,113.999996520996,10|0,0:2|0:0,0:0:0:0:
5,198,68189,2,0,P|98:235|189:328,2,227.999993041992,2|10|2,1:2|0:2|1:2,0:0:0:0:
164,248,68987,2,0,P|226:235|272:211,1,113.999996520996,2|8,0:2|0:2,0:0:0:0:
57,302,69306,5,2,0:2:0:0:
279,338,69466,2,0,P|341:351|387:374,1,113.999996520996,2|0,1:2|0:0,0:0:0:0:
196,151,69785,6,0,P|220:72|207:12,1,113.999996520996,10|0,0:2|0:0,0:0:0:0:
225,35,70104,6,0,L|281:45,1,56.9999982604981,2|0,1:2|0:0,0:0:0:0:
350,181,70264,6,0,L|355:237,1,56.9999982604981,8|0,0:2|0:0,0:0:0:0:
450,76,70423,6,0,L|390:87,1,56.9999982604981,0|8,1:2|0:2,0:0:0:0:
195,150,70662,5,0,0:0:0:0:
195,150,70742,2,0,P|274:134|284:54,1,170.999994781494,6|0,1:2|0:0,0:0:0:0:
361,3,71061,1,10,0:2:0:0:
490,151,71221,2,0,P|500:203|455:232,1,113.999996520996,2|0,0:2|1:2,0:0:0:0:
287,329,71540,6,0,P|271:303|252:285,2,56.9999982604981,2|0|8,0:1|0:0|0:2,0:0:0:0:
353,384,71780,1,0,0:0:0:0:
353,384,71859,2,0,B|406:295|309:239|382:132,1,227.999993041992,2|0,0:2|0:0,0:0:0:0:
365,162,72338,1,10,0:2:0:0:
185,323,72498,2,0,P|134:337|99:357,1,56.9999982604981,2|0,0:2|0:0,0:0:0:0:
64,382,72657,2,0,B|43:350|43:350|73:231,1,113.999996520996,0|10,1:2|0:2,0:0:0:0:
176,162,72976,1,8,0:2:0:0:
70,46,73136,5,0,1:2:0:0:
70,46,73216,1,8,1:2:0:0:
70,46,73295,1,14,0:2:0:0:
150,298,73455,5,0,1:2:0:0:
150,298,73615,1,10,0:2:0:0:
150,298,73774,1,2,1:2:0:0:
193,144,73934,5,8,0:2:0:0:
75,196,74093,1,2,1:1:0:0:
322,234,74253,5,8,0:2:0:0:
228,62,74412,1,2,1:2:0:0:
416,340,74572,5,8,0:2:0:0:
336,154,74732,1,0,1:2:0:0:
306,383,74891,5,10,0:2:0:0:
410,112,75051,1,10,0:2:0:0:
224,230,75210,5,8,0:3:0:0:
224,230,75290,1,0,0:0:0:0:
224,230,75370,2,0,L|235:308,1,56.9999982604981,2|0,1:2|1:0,0:0:0:0:
423,348,75530,6,0,B|449:353|449:353|454:355|454:355|478:360,1,56.9999982604981,12|6,0:2|1:2,0:0:0:0:
34,29,79678,2,0,P|69:72|76:128,1,113.999996520996,2|0,1:1|0:0,0:0:0:0:
165,178,79916,1,0,0:0:0:0:
165,178,79996,2,0,P|144:230|99:264,1,113.999996520996,2|0,1:1|0:0,0:0:0:0:
144,365,80235,1,0,0:0:0:0:
144,365,80315,2,0,L|3:344,1,113.999996520996,8|6,0:3|1:1,0:0:0:0:
31,348,80794,5,0,0:0:0:0:
340,298,80954,5,8,0:2:0:0:
251,237,81113,2,0,P|245:288|228:338,1,104.500003189087,0|2,0:0|1:2,0:0:0:0:
418,380,81432,2,0,P|435:330|440:278,1,104.500003189087,2|8,0:3|0:2,0:0:0:0:
362,75,81752,5,2,0:3:0:0:
283,153,81911,1,0,1:2:0:0:
199,86,82071,1,0,0:0:0:0:
361,215,82230,6,0,L|469:179,1,104.500003189087,10|2,0:2|0:3,0:0:0:0:
502,94,82470,1,0,0:0:0:0:
502,94,82549,2,0,B|515:71|496:46|496:46|499:76|483:99,1,104.500003189087,2|0,1:2|0:0,0:0:0:0:
340,298,82869,2,0,P|271:260|219:244,1,104.500003189087,10|0,0:2|0:0,0:0:0:0:
158,260,83108,5,0,0:0:0:0:
158,260,83188,2,0,B|146:304|146:304|149:317|149:317|137:363,1,104.500003189087,0|2,1:2|0:3,0:0:0:0:
288,138,83507,1,8,0:2:0:0:
241,51,83666,2,0,P|163:62|88:85,1,156.750004783631
88,85,83986,2,0,B|74:106|74:106|90:151,1,52.2500015945435,2|0,0:3|0:0,0:0:0:0:
174,169,84145,1,8,0:2:0:0:
57,229,84305,5,2,0:3:0:0:
223,320,84464,1,0,1:2:0:0:
27,384,84624,1,12,0:2:0:0:
49,236,84783,6,0,L|59:287,1,52.2500015945435,2|8,1:2|0:2,0:0:0:0:
127,372,84943,2,0,L|137:320,1,52.2500015945435,2|0,0:2|0:0,0:0:0:0:
324,271,85103,2,0,P|273:256|226:234,1,104.500003189087,6|0,1:2|0:0,0:0:0:0:
416,376,85422,5,2,1:2:0:0:
443,338,85502,1,8,0:2:0:0:
423,295,85581,1,10,0:2:0:0:
453,252,85661,1,8,0:2:0:0:
453,252,85741,2,0,L|460:188,1,52.2500015945435,4|0,1:2|0:0,0:0:0:0:
512,142,85900,2,0,L|359:176,1,156.750004783631
286,145,86220,2,0,B|278:119|251:109|251:109|286:114|298:137,1,104.500003189087,2|6,0:2|1:2,0:0:0:0:
353,184,86539,1,0,0:0:0:0:
491,60,86698,5,8,0:2:0:0:
417,2,86858,1,2,0:3:0:0:
262,168,87017,1,0,1:2:0:0:
378,92,87177,1,0,0:0:0:0:
198,38,87337,6,0,P|149:22|101:0,1,104.500003189087,10|0,0:2|0:0,0:0:0:0:
62,272,87656,2,0,P|111:255|158:233,1,104.500003189087,2|2,1:2|0:2,0:0:0:0:
13,67,87975,2,0,P|35:114|51:163,1,104.500003189087,10|2,0:2|0:3,0:0:0:0:
160,136,88214,5,0,0:0:0:0:
160,136,88294,2,0,B|223:157|223:157|235:173|235:173|302:192,1,156.750004783631,0|0,1:2|0:0,0:0:0:0:
446,327,88613,6,0,L|460:378,1,52.2500015945435,8|0,0:2|0:0,0:0:0:0:
512,281,88773,2,0,B|407:247|429:368|297:373,1,209.000006378174,2|0,0:2|0:0,0:0:0:0:
232,368,89252,1,8,0:2:0:0:
157,284,89411,1,2,0:3:0:0:
373,133,89571,1,0,1:2:0:0:
288,274,89730,1,0,0:0:0:0:
214,211,89890,6,0,P|205:159|192:109,1,104.500003189087,10|2,0:2|0:2,0:0:0:0:
429,307,90209,2,0,P|437:255|450:205,1,104.500003189087,10|2,0:2|1:2,0:0:0:0:
147,367,90528,6,0,P|115:359|90:348,1,56.9999982604981,8|6,0:2|1:1,0:0:0:0:
191,108,91007,5,0,1:2:0:0:
191,108,91166,1,8,0:2:0:0:
101,64,91326,2,0,P|92:142|64:227,1,152,0|0,1:2|1:2,0:0:0:0:
241,359,91805,1,8,0:2:0:0:
306,299,91964,2,0,P|251:280|191:252,1,114,0|0,1:2|0:0,0:0:0:0:
130,288,92283,2,0,B|108:319|108:319|122:359,1,76,2|10,1:2|0:2,0:0:0:0:
381,247,92682,5,0,3:2:0:0:
381,247,92762,2,0,B|403:216|403:216|389:176,1,76,0|2,1:2|1:2,0:0:0:0:
312,205,93081,1,10,0:2:0:0:
442,310,93241,5,2,1:2:0:0:
393,365,93400,2,0,L|318:379,2,76,2|0|8,0:2|0:0|0:2,0:0:0:0:
497,251,93879,5,2,1:2:0:0:
497,251,94039,2,0,P|482:214|473:167,1,76,2|0,0:2|1:2,0:0:0:0:
425,39,94358,1,8,0:2:0:0:
493,88,94517,2,0,L|341:63,1,152,2|0,1:2|3:2,0:0:0:0:
275,29,94916,1,0,3:2:0:0:
275,29,94996,2,0,B|264:14|247:4|247:4|275:0|294:25,1,76,10|2,0:2|1:2,0:0:0:0:
324,258,95315,5,10,0:2:0:0:
404,120,95475,1,2,1:2:0:0:
496,184,95635,1,8,0:2:0:0:
435,310,95794,6,0,B|403:323|362:326|362:326|331:351|331:351|257:367,1,190,2|0,1:3|1:2,0:0:0:0:
133,230,96273,2,0,L|96:241,1,38,8|0,0:2|0:0,0:0:0:0:
13,235,96432,2,0,P|68:258|70:359,1,152,0|0,1:2|1:2,0:0:0:0:
229,291,96911,1,8,0:2:0:0:
65,146,97071,6,0,B|141:121|130:102|211:70,1,152,0|2,1:2|1:2,0:0:0:0:
64,39,97549,1,10,0:2:0:0:
246,203,97709,1,2,3:2:0:0:
246,203,97789,1,0,3:0:0:0:
246,203,97869,2,0,L|263:102,1,76,0|2,1:2|1:2,0:0:0:0:
423,0,98188,5,8,0:2:0:0:
510,48,98347,2,0,B|536:81|536:81|512:130|500:191,1,152,2|2,1:2|1:2,0:0:0:0:
431,242,98826,1,8,0:2:0:0:
506,341,98986,1,2,1:2:0:0:
506,341,99305,1,2,1:2:0:0:
430,242,99464,2,0,P|375:254|321:273,1,114,14|0,0:2|0:0,0:0:0:0:
246,336,99783,6,0,P|237:299|222:264,1,76,8|8,0:3|0:2,0:0:0:0:
344,160,100103,2,0,P|335:123|320:88,1,76,2|8,1:3|0:3,0:0:0:0:
259,15,100342,1,0,3:2:0:0:
259,15,100422,1,10,0:2:0:0:
157,142,100581,1,10,0:2:0:0:
10,83,100741,1,8,0:2:0:0:
87,265,100900,1,6,1:1:0:0:
28,333,101220,5,2,1:1:0:0:
28,333,101299,1,0,1:2:0:0:
28,333,101379,1,12,0:2:0:0:
138,367,101539,2,0,P|223:350|222:263,1,190,2|2,1:1|1:1,0:0:0:0:
329,113,102017,6,0,L|336:66,1,47.5,8|0,0:2|0:0,0:0:0:0:
399,20,102177,2,0,P|484:36|483:123,1,190,2|2,1:1|1:1,0:0:0:0:
417,162,102656,1,10,0:2:0:0:
472,303,102895,5,8,0:2:0:0:
472,303,102975,1,0,1:2:0:0:
389,255,103135,1,2,1:2:0:0:
512,220,103294,1,10,0:2:0:0:
424,372,103454,2,0,B|359:354|359:354|329:330|329:330|295:327|236:301,1,190,2|2,1:1|1:1,0:0:0:0:
179,191,103932,2,0,P|167:159|201:88,1,95,8|2,0:2|1:1,0:0:0:0:
130,351,104252,2,0,P|83:373|22:388,2,95,2|2|8,0:2|1:2|0:2,0:0:0:0:
275,164,104730,6,0,B|291:131|328:121|328:121|284:122|263:160,1,142.5,2|0,1:2|0:0,0:0:0:0:
142,268,105049,2,0,L|89:254,1,47.5,2|0,1:2|0:0,0:0:0:0:
27,292,105209,2,0,B|4:261|4:261|19:242|37:198,1,95,10|2,0:2|1:2,0:0:0:0:
165,22,105528,5,4,0:3:0:0:
109,178,105688,1,0,1:2:0:0:
36,13,105847,5,8,0:3:0:0:
197,205,106007,2,0,B|239:239|295:220|295:220|347:254|304:313,1,190,6|2,1:1|1:1,0:0:0:0:
254,339,106486,1,8,0:2:0:0:
445,368,106645,6,0,B|456:345|456:345|436:303,1,47.5,2|0,1:1|0:0,0:0:0:0:
350,383,106805,2,0,P|303:371|256:365,1,95,2|2,0:2|1:1,0:0:0:0:
501,245,107124,5,10,0:2:0:0:
401,64,107283,1,2,1:1:0:0:
401,64,107363,1,2,0:2:0:0:
401,64,107443,2,0,L|415:164,1,95,2|2,0:2|1:1,0:0:0:0:
364,225,107762,2,0,P|389:230|413:245,1,47.5,8|0,0:2|0:0,0:0:0:0:
492,129,107922,2,0,L|485:78,1,47.5,2|8,0:1|0:2,0:0:0:0:
253,15,108081,5,0,1:2:0:0:
328,98,108241,1,0,1:2:0:0:
176,183,108400,1,8,0:2:0:0:
234,111,108560,6,0,L|24:59,1,190,2|2,1:1|1:1,0:0:0:0:
364,225,109039,5,8,0:2:0:0:
297,308,109198,2,0,L|87:360,1,190,2|2,1:3|1:2,0:0:0:0:
18,217,109597,5,0,1:2:0:0:
18,217,109677,2,0,B|44:170|44:170|105:180|116:241|68:282,1,190,14|10,0:2|0:2,0:0:0:0:
173,35,110635,5,2,1:2:0:0:
173,35,110794,1,0,1:2:0:0:
173,35,110954,1,10,0:2:0:0:
290,92,111273,5,0,1:2:0:0:
254,153,111432,1,2,1:2:0:0:
185,164,111592,1,8,0:2:0:0:
362,74,111911,6,0,L|508:101,2,132.999995941162,2|10|2,1:1|0:1|1:1,0:0:0:0:
362,74,112709,1,0,1:2:0:0:
362,74,112869,1,10,0:2:0:0:
498,218,113188,6,0,P|490:248|484:283,1,66.4999979705811,2|0,1:2|1:2,0:0:0:0:
394,265,113507,1,10,0:2:0:0:
394,265,113666,2,0,P|402:235|407:199,1,66.4999979705811,2|0,0:2|1:2,0:0:0:0:
342,339,113986,2,0,P|374:344|406:352,1,66.4999979705811,2|8,1:2|0:2,0:0:0:0:
217,377,114305,6,2,B|208:361|195:348|195:348|205:319|210:296|210:296|209:286|209:286|237:244|246:182,1,199.499993911743,2|14,0:2|0:2,0:1:0:0:
356,129,114943,5,8,0:0:0:0:
356,129,115023,1,8,0:0:0:0:
356,129,115103,2,0,P|388:116|437:110,1,66.4999979705811,6|0,1:2|0:0,0:0:0:0:
279,19,115422,5,10,0:2:0:0:
195,110,115581,5,2,0:2:0:0:
103,94,115741,1,2,1:2:0:0:
7,78,115900,1,2,1:2:0:0:
215,193,116060,5,10,0:2:0:0:
123,177,116220,1,2,0:2:0:0:
27,161,116379,1,2,1:2:0:0:
232,276,116539,5,2,1:2:0:0:
140,260,116698,1,8,0:3:0:0:
92,254,116778,1,8,0:3:0:0:
44,244,116858,1,2,1:2:0:0:
249,355,117017,5,4,1:3:0:0:
319,286,117177,1,0,1:2:0:0:
215,193,117337,1,10,0:2:0:0:
140,260,117496,1,0,0:0:0:0:
421,301,117656,6,0,L|484:290,2,57,2|2|0,3:1|3:1|0:0,0:0:0:0:
463,369,118773,6,0,B|399:339|382:263|434:209|451:224|499:194|491:87|409:71,1,341.999989562989,6|10,1:1|0:2,0:0:0:0:
372,11,119411,2,0,B|360:20|358:43|358:43|367:25|384:12,1,71.2500027179719,2|8,0:2|0:2,0:0:0:0:
324,169,119571,5,8,0:3:0:0:
242,225,119730,1,4,0:3:0:0:
148,222,119890,1,4,1:3:0:0:
77,164,120049,1,4,1:3:0:0:
11,208,120209,6,0,P|28:296|31:377,1,170.999994781494,2|0,1:3|0:0,0:0:0:0:
108,361,120847,2,0,P|105:307|97:248,5,113.999996520996,8|10|8|8|8|8,0:2|0:2|0:2|0:2|0:2|0:2,0:0:0:0:
246,28,122603,5,0,1:2:0:0:
318,81,122762,2,0,P|353:91|475:20,1,170.999994781494,2|0,1:3|0:0,0:0:0:0:
507,121,123400,2,0,L|491:245,4,113.999996520996,8|10|8|8|8,0:2|0:2|0:2|0:2|0:2,0:0:0:0:
318,81,124916,5,8,0:2:0:0:
318,81,124996,1,0,0:0:0:0:
380,161,125156,1,8,0:2:0:0:
310,230,125315,2,0,P|228:205|144:186,1,170.999994781494,2|2,3:3|0:2,0:0:0:0:
249,127,125954,5,10,0:2:0:0:
249,127,126113,1,2,1:2:0:0:
295,312,126273,2,0,P|213:287|129:268,1,170.999994781494,2|0,1:3|0:0,0:0:0:0:
64,308,126911,2,0,B|50:335|50:335|63:366,1,56.9999982604981,8|2,0:2|0:2,0:0:0:0:
295,312,127230,5,10,0:2:0:0:
364,288,127390,1,2,0:2:0:0:
389,356,127549,1,10,0:2:0:0:
274,230,127709,5,0,1:2:0:0:
354,158,127869,2,0,P|406:179|461:193,1,113.999996520996,2|2,1:3|1:2,0:0:0:0:
421,78,128347,1,2,0:2:0:0:
421,78,128507,2,0,P|449:72|475:63,1,56.9999982604981,2|2,1:2|0:2,0:0:0:0:
150,93,128826,6,0,P|139:152|192:179,1,128.249996086121,2|0,1:2|0:0,0:0:0:0:
274,230,129145,6,0,P|321:167|269:107,1,170.999994781494,0|0,1:2|0:0,0:0:0:0:
251,4,129464,6,0,P|228:123|203:296,1,285.000010871888,2|0,1:3|0:0,0:0:0:0:
204,285,130422,6,0,P|126:259|27:244,1,170.999994781494,4|0,1:2|0:0,0:0:0:0:
0,326,130741,2,2,B|21:348|31:373|31:373|54:354|90:342,1,113.999996520996,2|0,0:1|0:0,0:1:0:0:
102,174,131060,5,10,0:2:0:0:
125,91,131220,2,0,B|98:82|75:63|75:63|65:88|44:110,1,113.999996520996,2|4,1:1|1:1,0:0:0:0:
261,221,131539,5,2,0:1:0:0:
284,304,131698,2,0,B|257:312|234:331|234:331|224:306|203:284,1,113.999996520996,2|0,0:1|0:0,0:0:0:0:
385,110,132017,5,2,0:2:0:0:
408,27,132177,2,0,B|381:18|358:0|358:0|348:24|327:46,1,113.999996520996,2|8,1:1|0:2,0:0:0:0:
327,46,132496,1,10,0:1:0:0:
385,192,132656,6,0,P|412:185|438:174,1,56.9999982604981,2|0,0:3|0:0,0:0:0:0:
464,251,132815,2,0,P|436:257|409:268,1,56.9999982604981,2|0,0:2|0:0,0:0:0:0:
512,191,132975,1,0,1:2:0:0:
309,364,133135,6,0,P|325:317|306:252,1,113.999996520996,10|2,0:2|0:2,0:0:0:0:
170,190,133454,1,2,1:2:0:0:
283,120,133613,1,10,0:2:0:0:
359,182,133773,1,2,1:2:0:0:
128,269,133932,2,0,P|72:281|18:299,1,113.999996520996,14|2,0:2|0:2,0:0:0:0:
189,182,134252,5,0,0:0:0:0:
108,119,134411,2,0,P|90:65|111:13,1,113.999996520996,10|0,0:2|1:2,0:0:0:0:
281,294,134810,5,8,0:2:0:0:
281,294,134890,1,10,0:2:0:0:
167,327,135049,5,8,0:3:0:0:
401,261,135209,1,4,0:3:0:0:
211,243,135369,5,4,1:3:0:0:
345,351,135528,2,0,B|400:357|449:383|449:383|511:339|477:268,1,227.999993041992,6|2,1:1|0:2,0:0:0:0:
481,279,136007,1,2,1:2:0:0:
332,174,136166,6,0,P|308:180|278:194,1,56.9999982604981,8|0,0:2|0:0,0:0:0:0:
450,175,136326,2,0,P|474:189|500:201,1,56.9999982604981,2|0,1:1|0:0,0:0:0:0:
392,114,136486,2,0,P|391:74|441:10,1,113.999996520996,6|2,1:2|0:2,0:0:0:0:
504,54,136805,5,2,0:1:0:0:
228,130,136964,1,10,0:2:0:0:
154,148,137124,1,2,0:2:0:0:
410,248,137283,5,2,1:1:0:0:
315,78,137443,2,0,P|262:56|211:30,1,113.999996520996,10|0,0:2|0:0,0:0:0:0:
103,88,137682,1,8,0:2:0:0:
103,88,137762,1,2,0:1:0:0:
258,237,137922,5,8,0:2:0:0:
131,364,138081,6,0,P|87:350|28:341,1,95,6|0,1:1|0:0,0:0:0:0:
176,285,138560,5,8,0:2:0:0:
176,285,138640,1,8,0:2:0:0:
176,285,138720,2,0,P|144:251|98:213,1,95,6|0,1:1|0:0,0:0:0:0:
258,237,139198,5,8,0:2:0:0:
258,237,139278,1,8,0:2:0:0:
258,237,139358,2,0,P|247:192|226:136,1,95,6|0,1:1|0:0,0:0:0:0:
349,233,139677,6,0,P|362:189|372:130,1,95,2|0,1:1|0:0,0:0:0:0:
437,268,139996,6,0,P|463:244|483:216,1,71.2500027179719,2|0,1:1|0:0,0:0:0:0:
510,144,140156,2,0,P|499:177|483:209,1,71.2500027179719,2|0,1:1|0:0,0:0:0:0:
408,366,140315,6,0,P|345:342|276:328,1,132.999995941162,10|2,0:1|0:3,0:0:0:0:
63,372,140954,6,0,L|34:297,1,71.2500027179719,2|0,0:2|0:0,0:0:0:0:
60,297,141432,2,0,L|73:366,1,71.2500027179719,2|0,0:2|0:0,0:0:0:0:
83,367,141911,2,0,L|81:295,1,71.2500027179719,2|0,0:2|0:0,0:0:0:0:
104,299,142230,2,0,L|93:369,1,71.2500027179719,2|2,1:2|0:2,0:0:0:0:
103,374,142549,2,0,L|126:306,2,71.2500027179719,10|2|2,0:2|1:2|0:2,0:0:0:0:
73,50,143188,5,2,1:2:0:0:
73,50,143507,2,0,L|150:30,1,71.2500027179719,2|0,0:2|0:0,0:0:0:0:
152,57,143986,2,0,L|80:62,2,71.2500027179719,2|0|2,0:2|0:0|0:2,0:0:0:0:
148,85,144464,2,0,L|77:78,1,71.2500027179719,2|0,0:2|0:0,0:0:0:0:
69,94,144783,2,0,L|137:112,1,71.2500027179719,2|0,1:2|0:0,0:0:0:0:
242,28,145103,6,0,B|227:81|243:101|223:198,2,142.500005435944,10|2|2,0:2|0:2|1:2,0:0:0:0:
360,94,146060,6,0,L|394:13,1,71.2500027179719,2|0,0:2|0:0,0:0:0:0:
399,36,146539,2,0,L|383:105,2,71.2500027179719,2|0|2,0:2|0:0|0:2,0:0:0:0:
414,38,147017,2,0,L|410:109,2,71.2500027179719,2|0|2,0:2|0:0|1:2,0:0:0:0:
437,105,147496,2,0,L|428:34,1,71.2500027179719,2|8,0:2|0:2,0:0:0:0:
501,179,147815,6,0,P|434:203|373:240,1,142.500005435944,2|0,0:2|0:0,0:0:0:0:
313,311,148294,6,0,L|243:297,1,71.2500027179719,2|0,0:1|0:0,0:0:0:0:
307,334,148932,2,0,L|235:332,1,71.2500027179719,2|0,0:1|0:0,0:0:0:0:
309,359,149571,2,0,L|238:370,1,71.2500027179719,2|0,0:1|0:0,0:0:0:0:
389,337,150209,5,2,0:1:0:0:
100,23,150847,6,0,P|77:30|59:34,2,38,4|2|8,1:2|0:2|0:2,0:0:0:0:
6,115,151645,5,2,1:2:0:0:
6,115,151805,2,0,P|32:186|49:260,1,152,0|2,0:0|0:2,0:0:0:0:
116,334,152283,1,8,0:2:0:0:
231,204,152443,1,2,1:2:0:0:
145,171,152603,1,2,1:2:0:0:
221,295,152762,2,0,P|252:281|292:270,1,76,8|2,0:2|1:2,0:0:0:0:
191,91,153081,2,0,P|259:123|332:145,1,152,0|0,0:0|1:2,0:0:0:0:
457,181,153720,5,0,0:0:0:0:
457,181,153879,2,0,B|476:146|476:146|456:89,1,76,0|8,1:2|0:2,0:0:0:0:
387,226,154198,1,0,0:0:0:0:
387,226,154358,2,0,B|368:261|368:261|388:318,1,76,4|0,1:2|0:0,0:0:0:0:
315,368,154677,2,0,P|278:352|242:342,1,76,2|8,0:2|0:2,0:0:0:0:
454,359,154996,2,0,P|469:324|479:287,1,76,2|0,1:3|0:0,0:0:0:0:
290,235,155315,5,10,0:2:0:0:
217,255,155475,1,8,0:3:0:0:
143,273,155635,1,4,0:3:0:0:
68,291,155794,1,4,1:3:0:0:
139,372,155954,5,6,1:1:0:0:
146,368,156273,1,0,0:0:0:0:
141,359,156592,1,2,0:3:0:0:
133,364,156911,1,0,0:0:0:0:
6,229,157071,5,0,1:2:0:0:
6,229,157150,1,8,0:3:0:0:
6,229,157230,2,0,P|37:157|29:76,1,152,14|0,0:1|0:0,0:0:0:0:
152,5,157709,5,0,0:0:0:0:
152,5,157789,1,8,0:2:0:0:
152,5,157869,1,10,0:2:0:0:
232,102,158108,5,8,0:3:0:0:
331,133,158347,5,4,0:3:0:0:
415,119,158507,6,0,P|425:62|422:40,3,76,6|6|6|2,1:1|1:1|1:1|1:1,0:0:0:0:
393,203,160581,5,10,0:2:0:0:
393,203,160661,1,10,0:2:0:0:
393,203,160741,2,0,P|431:243|401:301,1,95,10|0,1:1|0:0,0:0:0:0:
501,202,160980,5,10,0:1:0:0:
501,202,161060,2,0,P|422:237|340:261,1,170.999994781494,2|0,1:2|0:0,0:0:0:0:
277,321,161379,2,0,B|310:370|310:370|367:343,1,113.999996520996,14|0,0:1|0:0,0:0:0:0:
282,121,161698,2,0,P|266:67|278:12,1,113.999996520996,2|0,1:2|0:0,0:0:0:0:
191,240,162017,2,0,P|136:256|81:244,1,113.999996520996,10|0,0:2|0:0,0:0:0:0:
19,197,162257,5,0,0:0:0:0:
19,197,162337,2,0,L|-2:73,1,113.999996520996,0|0,1:2|0:0,0:0:0:0:
25,343,162656,2,0,P|77:361|98:386,1,56.9999982604981,10|0,0:2|0:0,0:0:0:0:
77,361,162815,2,0,L|188:337,1,113.999996520996,0|2,0:0|1:2,0:0:0:0:
277,207,163135,1,0,0:0:0:0:
114,45,163294,2,0,L|133:158,1,113.999996520996,10|0,0:2|0:0,0:0:0:0:
218,145,163533,5,0,0:0:0:0:
218,145,163613,2,0,P|274:164|342:200,1,113.999996520996,0|0,1:2|0:0,0:0:0:0:
465,63,163932,1,10,0:2:0:0:
347,11,164092,1,0,0:0:0:0:
495,275,164252,5,2,1:2:0:0:
410,326,164411,2,0,P|370:289|385:237,1,113.999996520996,2|8,0:2|0:2,0:0:0:0:
335,86,164730,5,2,0:2:0:0:
264,40,164890,2,0,P|224:76|239:128,1,113.999996520996,6|0,1:2|0:0,0:0:0:0:
109,333,165209,2,0,P|69:296|84:244,1,113.999996520996,10|0,0:2|0:0,0:0:0:0:
147,202,165448,5,0,0:0:0:0:
147,202,165528,2,0,L|244:222,1,56.9999982604981,2|0,1:2|0:0,0:0:0:0:
250,329,165688,6,0,L|305:340,1,56.9999982604981,8|0,0:2|0:0,0:0:0:0:
363,159,165847,6,0,L|418:170,1,56.9999982604981,0|0,1:2|0:0,0:0:0:0:
512,293,166007,5,8,0:2:0:0:
512,293,166087,1,0,0:0:0:0:
512,293,166166,2,0,L|399:269,1,113.999996520996,4|0,1:2|0:0,0:0:0:0:
285,145,166486,2,0,P|272:91|305:46,1,113.999996520996,10|0,0:2|0:0,0:0:0:0:
381,20,166725,1,0,0:0:0:0:
381,20,166805,2,0,B|395:44|395:44|375:93,1,56.9999982604981,2|0,1:2|0:0,0:0:0:0:
304,226,166964,2,0,P|248:238|192:264,1,113.999996520996,2|8,0:2|0:2,0:0:0:0:
26,60,167283,5,2,0:2:0:0:
113,10,167443,2,0,P|125:65|151:122,1,113.999996520996,2|0,1:2|0:0,0:0:0:0:
156,328,167762,5,10,0:2:0:0:
69,378,167922,2,0,P|56:322|31:266,1,113.999996520996,2|0,0:2|1:2,0:0:0:0:
285,145,168241,5,2,0:2:0:0:
392,223,168400,2,0,P|407:276|382:326,1,113.999996520996,10|0,0:2|0:0,0:0:0:0:
319,362,168640,1,0,0:0:0:0:
319,362,168720,1,12,0:2:0:0:
512,47,168959,5,8,0:2:0:0:
512,47,169039,1,0,1:2:0:0:
423,7,169198,1,8,0:2:0:0:
353,75,169358,2,0,L|372:162,1,56.9999982604981,2|0,1:3|0:0,0:0:0:0:
512,171,169517,2,0,L|452:158,1,56.9999982604981
265,62,169677,2,0,L|290:181,1,113.999996520996,8|2,0:2|0:3,0:0:0:0:
259,254,169916,5,0,0:0:0:0:
259,254,169996,2,0,P|232:242|205:233,1,56.9999982604981,0|0,1:2|0:0,0:0:0:0:
88,227,170156,6,0,P|61:215|34:206,1,56.9999982604981,8|0,0:2|0:0,0:0:0:0:
233,333,170315,6,0,P|206:321|179:312,1,56.9999982604981,2|0,1:3|0:0,0:0:0:0:
118,147,170475,6,0,P|91:135|64:126,1,56.9999982604981,0|8,0:0|0:2,0:0:0:0:
123,362,170635,5,2,1:2:0:0:
123,362,170954,5,2,1:2:0:0:
179,312,171033,1,0,0:0:0:0:
254,308,171113,1,8,0:2:0:0:
317,359,171193,1,8,0:2:0:0:
317,359,171273,6,0,B|352:376|352:376|406:349|505:330,1,170.999994781494,6|0,1:2|0:0,0:0:0:0:
415,261,171592,2,0,P|468:252|495:298,1,113.999996520996,14|0,0:1|0:0,0:0:0:0:
260,200,171911,2,0,L|281:60,1,113.999996520996,2|0,1:2|0:0,0:0:0:0:
336,33,172150,1,0,0:0:0:0:
336,33,172230,1,10,0:2:0:0:
162,253,172390,5,0,0:0:0:0:
162,253,172470,1,0,0:0:0:0:
162,253,172549,2,0,B|108:276|108:276|50:227,1,113.999996520996,0|0,1:2|0:0,0:0:0:0:
24,175,172789,1,0,0:0:0:0:
24,175,172869,2,0,P|42:120|55:42,1,113.999996520996,10|0,0:2|0:0,0:0:0:0:
144,7,173188,1,2,1:1:0:0:
381,130,173347,1,0,0:0:0:0:
381,130,173427,1,0,0:0:0:0:
381,130,173507,2,0,P|437:116|502:108,1,113.999996520996,10|0,0:2|0:0,0:0:0:0:
285,20,173826,6,0,P|211:53|219:133,1,170.999994781494,2|0,1:2|0:0,0:0:0:0:
172,220,174145,2,0,P|221:250|282:220,1,113.999996520996,10|0,0:2|0:0,0:0:0:0:
306,168,174385,1,0,0:0:0:0:
306,168,174464,1,2,1:2:0:0:
75,295,174624,5,2,0:2:0:0:
75,295,174704,1,0,0:0:0:0:
75,295,174783,2,0,L|55:182,1,113.999996520996,8|2,0:2|0:2,0:0:0:0:
126,120,175103,5,2,1:2:0:0:
321,329,175262,1,0,0:0:0:0:
236,384,175422,2,0,P|196:346|210:293,1,113.999996520996,10|0,0:2|0:0,0:0:0:0:
282,261,175661,5,0,0:0:0:0:
282,261,175741,2,0,P|276:233|268:202,1,56.9999982604981,2|0,1:2|0:0,0:0:0:0:
411,344,175900,6,0,P|405:316|397:285,1,56.9999982604981,8|0,0:2|0:0,0:0:0:0:
492,219,176060,6,0,P|486:191|478:160,1,56.9999982604981,0|0,1:2|0:0,0:0:0:0:
349,88,176220,6,0,P|356:115|361:143,1,56.9999982604981,8|0,0:2|0:0,0:0:0:0:
461,87,176379,6,0,B|373:91|336:19|244:16,1,227.999993041992,6|10,1:2|0:2,0:0:0:0:
145,90,176778,1,0,0:0:0:0:
145,90,176858,2,0,P|122:16|161:-6,1,113.999996520996,2|0,0:2|1:2,0:0:0:0:
369,253,177177,2,0,P|400:209|373:162,1,113.999996520996,2|8,0:1|0:2,0:0:0:0:
175,201,177496,5,2,0:2:0:0:
175,201,177576,1,0,0:0:0:0:
175,201,177656,2,0,P|121:180|65:171,1,113.999996520996,0|0,1:2|0:0,0:0:0:0:
252,275,177975,2,0,P|231:328|222:384,1,113.999996520996,10|2,0:2|0:2,0:0:0:0:
369,253,178294,1,0,1:2:0:0:
257,114,178454,5,10,0:2:0:0:
257,114,178533,1,8,0:3:0:0:
257,114,178613,1,8,0:2:0:0:
77,296,178773,5,0,1:2:0:0:
77,296,178853,1,8,0:3:0:0:
77,296,178932,1,14,0:2:0:0:
354,358,179092,5,0,1:2:0:0:
354,358,179252,1,10,0:2:0:0:
354,358,179411,1,2,1:2:0:0:
434,319,179571,5,8,0:2:0:0:
387,152,179730,1,2,1:1:0:0:
449,83,179890,5,8,0:2:0:0:
369,253,180049,1,2,1:2:0:0:
508,279,180209,5,8,0:2:0:0:
330,61,180369,1,0,1:2:0:0:
493,183,180528,5,10,0:2:0:0:
289,294,180688,2,0,P|258:291|232:286,1,56.9999982604981,6|12,0:3|0:3,0:0:0:0:
243,208,180847,2,0,P|271:212|299:215,1,56.9999982604981,8|0,0:3|0:0,0:0:0:0:
103,361,181007,6,0,P|72:358|46:353,1,56.9999982604981,4|0,1:3|0:0,0:0:0:0:
29,272,181166,2,0,P|85:281|141:288,1,113.999996520996,12|4,0:2|1:2,0:0:0:0:
13,177,182443,6,0,P|25:148|26:98,1,76,2|0,0:0|0:0,0:0:0:0:
95,33,182762,2,0,L|245:10,1,152,2|0,0:0|0:0,0:0:0:0:
245,10,183241,1,2,0:0:0:0:
424,120,183560,5,2,0:0:0:0:
314,187,183720,1,2,0:0:0:0:
336,98,183879,1,2,0:0:0:0:
402,209,184039,2,0,P|415:270|434:329,2,114,2|2|2,0:0|0:0|0:0,0:0:0:0:
402,209,185315,6,0,B|326:234|347:252|249:286,1,152,2|2,0:0|0:0,0:0:0:0:
211,362,185794,2,0,B|135:337|156:319|58:285,1,152,2|0,3:2|3:0,0:0:0:0:
20,222,186193,1,0,3:0:0:0:
20,222,186273,2,0,B|91:197|75:181|155:150,1,142.5,2|0,3:3|0:0,0:0:0:0:
217,184,186592,6,0,L|211:228,2,38,4|0|2,1:2|1:2|1:2,0:0:0:0:
134,70,187390,5,0,0:0:0:0:
134,70,187549,2,0,P|87:59|42:45,1,95,0|8,1:2|0:2,0:0:0:0:
263,33,187869,6,0,P|289:25|332:3,3,47.5,2|0|8|8,1:2|0:0|0:2|0:2,0:0:0:0:
411,31,188188,2,0,P|417:53|427:75,3,47.5,2|8|10|8,1:2|0:2|0:2|0:2,0:0:0:0:
382,159,188507,5,0,1:2:0:0:
374,157,188587,1,8,0:2:0:0:
366,155,188666,1,10,0:2:0:0:
359,153,188746,1,8,0:2:0:0:
351,151,188826,5,0,1:2:0:0:
394,177,188906,5,8,0:2:0:0:
429,243,188986,5,8,0:2:0:0:
418,317,189065,5,8,0:2:0:0:
365,370,189145,6,0,P|345:363|325:358,1,38,6|0,1:1|1:2,0:0:0:0:
257,378,189624,5,0,1:2:0:0:
289,286,189783,5,10,1:2:0:0:
216,313,189943,1,8,1:2:0:0:
311,211,190103,5,8,1:2:0:0:
181,247,190262,1,8,1:2:0:0:
334,131,190422,5,10,1:2:0:0:
150,177,190581,1,8,0:2:0:0:
354,51,190741,5,2,1:2:0:0:
122,106,190900,1,10,0:2:0:0:
409,197,191060,5,12,1:3:0:0:
409,197,191140,1,0,1:2:0:0:
409,197,191220,2,0,P|441:211|470:217,1,56.9999982604981,2|0,1:2|1:0,0:0:0:0:
142,4,191379,6,0,P|89:25|21:43,1,113.999996520996,12|6,0:2|1:2,0:0:0:0:
34,40,192017,5,0,1:2:0:0:
2,122,192337,1,0,1:2:0:0:
13,213,192656,1,0,1:2:0:0:
95,268,192975,1,0,1:2:0:0:
189,253,193294,1,0,1:2:0:0:
258,193,193613,1,0,1:2:0:0:
258,193,193932,1,0,1:2:0:0:
258,193,194252,1,0,1:2:0:0:
389,52,194571,5,0,1:2:0:0:
504,75,194890,1,0,1:2:0:0:
424,161,195209,1,0,1:2:0:0:
512,347,195528,6,0,P|442:353|404:288,1,113.999996520996,2|0,1:1|0:0,0:0:0:0:
311,329,195766,1,0,0:0:0:0:
311,329,195846,2,0,P|328:276|378:253,1,113.999996520996,6|0,1:1|0:0,0:0:0:0:
424,161,196085,1,0,0:0:0:0:
424,161,196165,2,0,P|461:202|455:257,1,113.999996520996,12|6,0:3|1:1,0:0:0:0:
