osu file format v14

[General]
AudioFilename: audio.mp3
AudioLeadIn: 0
PreviewTime: 51813
Countdown: 0
SampleSet: Soft
StackLeniency: 0.4
Mode: 0
LetterboxInBreaks: 0
WidescreenStoryboard: 1

[Editor]
Bookmarks: 48267,63346
DistanceSpacing: 1
BeatDivisor: 2
GridSize: 32
TimelineZoom: 1.9

[Metadata]
Title:Hoshie (TV Size)
TitleUnicode:星絵 (TV Size)
Artist:sajou no hana
ArtistUnicode:sajou no hana
Creator:AirinCat
Version:spoes' Advanced
Source:天狼 Sirius the Jaeger
Tags:sana Sho Watanabe P A works Yuliy Mikhail ending burr cris- spoes
BeatmapID:1808123
BeatmapSetID:837568

[Difficulty]
HPDrainRate:4
CircleSize:3.3
OverallDifficulty:5.5
ApproachRate:6.5
SliderMultiplier:0.9
SliderTickRate:1

[Events]
//Background and Video events
0,0,"bg.jpg",0,0
Video,0,"vid.avi"
//Break Periods
2,73530,74868
//Storyboard Layer 0 (Background)
//Storyboard Layer 1 (Fail)
//Storyboard Layer 2 (Pass)
//Storyboard Layer 3 (Foreground)
//Storyboard Sound Samples

[TimingPoints]
464,314.13612565445,4,2,1,30,1,0
5490,-90.9090909090909,4,2,1,30,0,0
8003,-100,4,2,1,32,0,0
9887,-100,4,2,1,34,0,0
10505,314.13612565445,4,2,1,42,1,0
10505,-83.3333333333333,4,2,1,42,0,0
30609,-83.3333333333333,4,2,1,54,0,0
47415,-90.9090909090909,4,2,2,54,0,0
47573,-90.9090909090909,4,2,2,50,0,0
48201,-90.9090909090909,4,2,1,50,0,0
50714,-90.9090909090909,4,2,1,35,0,0
50871,-90.9090909090909,4,2,1,5,0,0
51342,-90.9090909090909,4,2,1,35,0,0
51499,-90.9090909090909,4,2,1,5,0,0
51970,-90.9090909090909,4,2,1,35,0,0
52579,307.692307692308,4,2,1,35,1,0
52924,314.13612565445,4,2,1,35,1,0
53226,314.13612565445,4,2,1,60,1,1
53226,-76.9230769230769,4,2,1,60,0,1
57938,-76.9230769230769,4,2,2,60,0,1
58252,-76.9230769230769,4,2,1,60,0,1
62257,-76.9230769230769,4,2,2,60,0,1
62964,-76.9230769230769,4,2,2,60,0,1
63278,-76.9230769230769,4,2,1,60,0,1
67833,-76.9230769230769,4,2,2,60,0,1
67911,-76.9230769230769,4,2,2,60,0,1
67990,-76.9230769230769,4,2,2,60,0,1
68304,-76.9230769230769,4,2,1,60,0,1
72545,-76.9230769230769,4,2,2,60,0,1
72702,-76.9230769230769,4,2,2,60,0,1
73330,-100,4,2,1,42,0,0
75843,-111.111111111111,4,2,1,42,0,0
77414,-111.111111111111,4,2,1,22,0,0
78368,314.13612565445,4,2,1,30,1,0
78368,-100,4,2,1,30,0,0
85907,-142.857142857143,4,2,1,30,0,0

[Colours]
Combo1 : 153,184,202
Combo2 : 160,107,107
Combo3 : 95,143,173
Combo4 : 194,160,160

[HitObjects]
41,155,464,6,0,B|128:125|122:196|215:159,1,180,2|2,0:0|0:0,0:0:0:0:
273,230,1407,2,0,P|343:281|422:246,1,180,2|2,0:0|0:0,0:0:0:0:
351,191,2349,1,2,0:0:0:0:
373,103,2663,1,2,0:0:0:0:
437,168,2977,6,0,P|417:252|335:279,1,180,2|2,0:0|0:0,0:0:0:0:
263,226,3920,2,0,B|264:157|264:157|280:115|280:115|280:48,1,180,2|2,0:0|0:0,0:0:0:0:
190,57,4862,2,0,P|129:82|61:64,1,135,2|0,0:0|0:0,0:0:0:0:
15,57,5491,6,0,L|26:176,1,99.0000030212403,2|2,0:0|0:0,0:0:0:0:
88,237,6119,1,2,0:0:0:0:
170,183,6432,2,0,L|291:177,1,99.0000030212403,2|2,0:0|0:0,0:0:0:0:
310,88,7061,1,2,0:0:0:0:
401,126,7375,2,0,P|445:168|455:216,1,99.0000030212403,2|2,0:0|0:0,0:0:0:0:
451,293,8004,6,0,P|380:341|299:310,1,180,2|2,0:0|0:0,0:0:0:0:
232,248,8945,1,2,0:0:0:0:
262,163,9259,1,2,0:0:0:0:
262,163,9888,1,2,0:0:0:0:
159,43,10505,6,0,B|127:31|127:31|91:31|91:31|48:17,1,107.999996704102,8|0,0:1|0:0,0:0:0:0:
66,126,11133,2,0,L|77:178,1,53.9999983520508,8|0,0:0|0:0,0:0:0:0:
48,224,11447,2,0,L|59:276,1,53.9999983520508
102,308,11761,1,2,0:0:0:0:
195,313,12075,1,8,0:1:0:0:
236,213,12389,6,0,B|243:174|243:174|260:152|260:152|270:104,1,107.999996704102,8|0,0:0|0:0,0:0:0:0:
340,32,13018,2,0,P|405:17|456:41,1,107.999996704102,8|0,0:1|0:0,0:0:0:0:
507,117,13646,1,8,0:0:0:0:
442,203,13960,2,0,L|385:201,1,53.9999983520508,2|0,0:0|0:0,0:0:0:0:
338,222,14274,2,0,P|283:238|234:223,1,107.999996704102,2|8,0:0|0:1,0:0:0:0:
284,127,14902,2,0,P|275:72|204:20,1,107.999996704102,10|0,0:0|0:0,0:0:0:0:
135,9,15531,6,0,B|103:21|103:21|67:21|67:21|24:35,1,107.999996704102,8|0,0:1|0:0,0:0:0:0:
88,124,16159,2,0,P|93:176|131:219,1,107.999996704102,8|0,0:0|0:0,0:0:0:0:
181,222,16630,2,0,P|235:207|287:227,1,107.999996704102,2|0,0:0|0:0,0:0:0:0:
330,248,17101,1,8,0:1:0:0:
437,248,17415,2,0,P|464:202|442:113,1,107.999996704102,8|0,0:0|0:0,0:0:0:0:
451,41,18044,6,0,B|419:53|419:53|383:53|383:53|340:67,1,107.999996704102,8|0,0:1|0:0,0:0:0:0:
348,172,18672,2,0,B|230:170,1,107.999996704102,10|0,0:0|0:0,0:0:0:0:
138,209,19300,2,0,P|118:262|141:331,1,107.999996704102,2|8,0:0|0:1,0:0:0:0:
228,269,19929,2,0,L|282:269,2,53.9999983520508,10|8|0,0:0|0:1|0:0,0:0:0:0:
128,311,20557,6,0,B|96:323|96:323|60:323|60:323|17:337,1,107.999996704102,8|0,0:1|0:0,0:0:0:0:
9,227,21185,2,0,L|4:168,1,53.9999983520508,8|0,0:0|0:0,0:0:0:0:
53,150,21499,2,0,L|49:89,1,53.9999983520508
71,47,21813,1,2,0:0:0:0:
172,9,22128,1,8,0:1:0:0:
269,55,22442,6,0,B|297:99|297:99|305:176,1,107.999996704102,8|0,0:0|0:0,0:0:0:0:
368,239,23070,2,0,P|431:243|484:293,1,107.999996704102,8|0,0:1|0:0,0:0:0:0:
391,345,23698,1,10,0:0:0:0:
292,299,24012,1,2,0:0:0:0:
200,238,24326,2,0,P|232:178|220:121,1,107.999996704102,2|8,0:0|0:1,0:0:0:0:
193,38,24955,2,0,L|123:45,1,53.9999983520508,10|0,0:0|0:0,0:0:0:0:
93,58,25269,2,0,L|100:124,1,53.9999983520508
121,149,25583,6,0,B|242:139,1,107.999996704102,8|0,0:1|0:0,0:0:0:0:
294,225,26211,2,0,B|170:237,1,107.999996704102,8|0,0:0|0:0,0:0:0:0:
80,257,26840,2,0,P|66:309|91:368,1,107.999996704102,2|8,0:0|0:1,0:0:0:0:
191,354,27468,2,0,L|312:343,1,107.999996704102,8|0,0:0|0:0,0:0:0:0:
379,272,28096,6,0,P|386:244|326:260,1,107.999996704102,8|0,0:1|0:0,0:0:0:0:
299,345,28724,1,10,0:0:0:0:
299,345,29353,1,8,0:1:0:0:
148,227,29981,1,10,0:0:0:0:
148,227,30138,2,0,P|96:207|34:234,1,107.999996704102,8|0,0:1|0:0,0:0:0:0:
9,183,30609,6,0,L|12:110,1,53.9999983520508,8|0,0:1|0:0,0:0:0:0:
61,112,30923,2,0,L|64:39,1,53.9999983520508
106,26,31237,1,8,0:0:0:0:
196,85,31552,2,0,B|220:103|220:103|298:103,1,107.999996704102,8|0,0:1|0:0,0:0:0:0:
405,97,32180,1,8,0:1:0:0:
488,164,32494,1,8,0:0:0:0:
464,269,32808,1,0,0:0:0:0:
357,285,33122,6,0,L|293:277,1,53.9999983520508,8|0,0:1|0:0,0:0:0:0:
255,303,33436,2,0,L|191:295,1,53.9999983520508
165,255,33751,2,0,L|47:239,1,107.999996704102,10|8,0:0|0:1,0:0:0:0:
63,132,34379,2,0,L|182:144,1,107.999996704102,2|8,0:0|0:1,0:0:0:0:
220,122,34850,1,0,0:0:0:0:
270,102,35007,2,0,P|321:91|371:109,1,107.999996704102,10|0,0:0|0:0,0:0:0:0:
476,137,35635,6,0,L|485:200,1,53.9999983520508,8|0,0:1|0:0,0:0:0:0:
447,230,35950,2,0,L|456:293,1,53.9999983520508
431,332,36264,1,8,0:0:0:0:
343,268,36578,2,0,P|290:248|233:262,1,107.999996704102,8|0,0:1|0:0,0:0:0:0:
185,350,37206,1,8,0:1:0:0:
77,354,37520,1,8,0:0:0:0:
2,275,37834,2,0,P|30:248|55:242,1,53.9999983520508
98,242,38148,6,0,L|114:128,1,107.999996704102,8|0,0:1|0:0,0:0:0:0:
132,28,38777,1,10,0:0:0:0:
239,17,39091,2,0,P|289:30|329:83,1,107.999996704102,8|2,0:1|0:0,0:0:0:0:
317,181,39719,2,0,P|280:172|257:156,1,53.9999983520508,8|0,0:1|0:0,0:0:0:0:
238,117,40033,1,10,0:0:0:0:
130,128,40347,1,2,0:0:0:0:
82,225,40662,6,0,L|144:255,1,53.9999983520508,8|0,0:1|0:0,0:0:0:0:
144,302,40976,2,0,L|209:328,1,53.9999983520508,0|0,0:0|0:0,0:0:0:0:
226,365,41290,1,8,0:0:0:0:
305,291,41604,2,0,P|327:221|300:165,1,107.999996704102,8|0,0:1|0:0,0:0:0:0:
278,89,42232,1,8,0:1:0:0:
372,35,42546,1,8,0:0:0:0:
464,90,42861,1,0,0:0:0:0:
432,193,43175,6,0,P|427:255|454:304,1,107.999996704102,8|0,0:1|0:0,0:0:0:0:
368,370,43803,1,8,0:0:0:0:
265,336,44117,1,8,0:1:0:0:
239,231,44431,6,0,B|227:164,1,53.9999983520508,2|0,0:0|0:0,0:0:0:0:
214,126,44745,1,8,0:1:0:0:
112,164,45059,1,10,0:0:0:0:
74,62,45374,2,0,B|119:-1,1,53.9999983520508
159,13,45688,6,0,P|230:32|289:5,1,107.999996704102,8|0,0:1|0:0,0:0:0:0:
314,11,46159,1,0,0:0:0:0:
367,0,46316,2,0,L|404:108,1,107.999996704102,8|0,0:0|0:0,0:0:0:0:
426,152,46787,1,0,0:0:0:0:
426,205,46944,5,8,0:1:0:0:
280,233,47415,1,8,0:0:0:0:
280,233,47573,2,0,L|207:237,1,49.5000015106202,8|8,0:0|0:0,0:0:0:0:
189,263,47887,2,0,L|116:267,1,49.5000015106202,8|8,0:0|0:0,0:0:0:0:
101,296,48201,6,0,B|76:287|50:297|50:297|-3:210|76:152,1,198.000006042481,12|8,0:1|0:0,0:0:0:0:
212,38,49457,2,0,L|321:47,1,99.0000030212403,8|0,0:1|0:0,0:0:0:0:
339,86,49929,2,0,L|395:90,1,49.5000015106202,8|0,0:1|0:0,0:0:0:0:
486,100,50400,1,8,0:1:0:0:
440,188,50714,5,8,0:1:0:0:
355,366,51342,1,8,0:1:0:0:
218,206,51970,6,0,L|169:204,1,49.5000015106202,8|8,0:3|0:3,0:0:0:0:
46,255,52579,2,0,L|1:254,1,45,8|8,0:3|0:3,0:0:0:0:
163,263,53226,6,0,L|171:184,1,58.4999973220826,4|0,0:0|0:0,0:0:0:0:
132,156,53540,2,0,L|140:77,1,58.4999973220826,8|0,0:3|0:0,0:0:0:0:
168,48,53854,1,8,0:1:0:0:
282,26,54168,2,0,P|311:32|341:53,1,58.4999973220826,8|0,0:3|0:0,0:0:0:0:
356,96,54482,2,0,P|326:145|335:202,1,116.999994644165,8|8,0:1|0:3,0:0:0:0:
423,277,55110,2,0,P|452:227|443:170,1,116.999994644165,8|8,0:1|0:3,0:0:0:0:
334,201,55739,6,0,L|269:188,1,58.4999973220826,4|0,0:0|0:0,0:0:0:0:
226,219,56053,2,0,L|146:200,1,58.4999973220826,8|0,0:3|0:0,0:0:0:0:
129,162,56367,1,8,0:1:0:0:
19,121,56681,2,0,P|6:149|4:177,1,58.4999973220826,8|0,0:3|0:0,0:0:0:0:
27,229,56995,1,4,0:0:0:0:
66,339,57309,2,0,P|132:357|185:327,1,116.999994644165,8|8,0:3|0:1,0:0:0:0:
263,262,57938,2,0,P|281:289|290:334,1,58.4999973220826,8|0,0:0|0:0,0:0:0:0:
329,355,58252,5,4,0:0:0:0:
444,334,58566,1,4,0:0:0:0:
483,223,58880,1,4,0:0:0:0:
418,127,59194,2,0,P|389:129|362:142,1,58.4999973220826,4|0,0:0|0:0,0:0:0:0:
329,182,59508,2,0,P|270:190|212:148,1,116.999994644165,4|4,0:0|0:0,0:0:0:0:
159,66,60136,2,0,P|99:62|36:104,1,116.999994644165,4|4,0:0|0:0,0:0:0:0:
123,176,60765,6,0,L|148:303,1,116.999994644165,4|4,0:0|0:0,0:0:0:0:
185,334,61236,1,0,0:0:0:0:
242,342,61393,2,0,B|288:341|288:341|316:326|316:326|383:324,1,116.999994644165,4|4,0:0|0:0,0:0:0:0:
340,208,62021,1,4,0:0:0:0:
453,201,62335,2,0,P|486:177|508:106,1,116.999994644165,8|8,0:0|0:0,0:0:0:0:
457,1,62964,1,8,0:0:0:0:
353,55,63278,6,0,L|294:36,1,58.4999973220826,4|0,0:0|0:0,0:0:0:0:
247,68,63592,2,0,L|188:49,1,58.4999973220826,8|0,0:3|0:0,0:0:0:0:
137,72,63906,1,8,0:1:0:0:
206,163,64220,2,0,P|214:191|216:225,1,58.4999973220826,8|0,0:3|0:0,0:0:0:0:
211,278,64534,2,0,P|150:246|94:259,1,116.999994644165,8|8,0:1|0:3,0:0:0:0:
26,341,65163,2,0,P|87:373|143:360,1,116.999994644165,8|8,0:1|0:3,0:0:0:0:
249,366,65791,6,0,L|312:366,1,58.4999973220826,4|0,0:0|0:0,0:0:0:0:
339,317,66105,2,0,L|406:317,1,58.4999973220826,8|0,0:3|0:0,0:0:0:0:
443,281,66419,1,8,0:1:0:0:
504,181,66733,2,0,P|497:152|482:127,1,58.4999973220826,8|0,0:3|0:0,0:0:0:0:
441,86,67047,2,0,P|387:75|326:104,1,116.999994644165,8|8,0:1|0:3,0:0:0:0:
280,204,67676,2,0,P|227:218|166:191,1,116.999994644165,8|8,0:1|0:0,0:0:0:0:
231,95,68304,5,4,0:0:0:0:
133,31,68618,2,0,P|103:28|75:33,1,58.4999973220826,8|0,0:3|0:0,0:0:0:0:
33,73,68932,2,0,P|15:137|45:197,1,116.999994644165,8|8,0:1|0:3,0:0:0:0:
140,226,69561,2,0,B|279:231,1,116.999994644165,8|8,0:1|0:3,0:0:0:0:
357,170,70189,2,0,P|408:133|472:139,1,116.999994644165,8|8,0:1|0:3,0:0:0:0:
497,244,70817,5,8,0:1:0:0:
419,331,71131,2,0,L|352:314,1,58.4999973220826,8|0,0:3|0:0,0:0:0:0:
304,310,71445,2,0,L|150:318,1,116.999994644165,8|8,0:1|0:3,0:0:0:0:
84,372,72074,2,0,P|68:310|103:241,1,116.999994644165,4|8,0:0|0:3,0:0:0:0:
185,202,72702,2,0,B|194:141|194:141|174:85,1,116.999994644165,8|8,0:0|0:0,0:0:0:0:
102,36,73330,5,4,0:0:0:0:
412,194,75843,6,0,B|394:158|406:118|438:92|438:92|395:78|353:68|342:135|281:143|226:98,1,323.999990112305,4|2,0:0|0:0,0:0:0:0:
240,108,78368,6,0,P|167:72|69:136,1,180,2|2,0:0|0:0,0:0:0:0:
164,159,79310,2,0,B|205:246|128:252|167:342,1,180,2|2,0:0|0:0,0:0:0:0:
246,299,80252,1,2,0:0:0:0:
330,328,80566,1,2,0:0:0:0:
414,296,80881,6,0,P|403:192|439:124,1,180,2|2,0:0|0:0,0:0:0:0:
432,37,81823,2,0,B|375:33|375:33|320:48|320:48|249:43,1,180,2|2,0:0|0:0,0:0:0:0:
179,91,82765,1,2,0:0:0:0:
87,246,83394,6,0,P|141:241|194:265,1,90,2|2,0:0|0:0,0:0:0:0:
242,310,84022,1,2,0:0:0:0:
328,283,84336,2,0,P|340:227|324:174,1,90,2|2,0:0|0:0,0:0:0:0:
287,118,84964,1,2,0:0:0:0:
203,151,85278,1,2,0:0:0:0:
129,99,85593,1,2,0:0:0:0:
117,187,85907,5,2,0:0:0:0:
256,192,86064,12,2,87792,0:0:0:0:
