osu file format v14

[General]
AudioFilename: audio.mp3
AudioLeadIn: 0
PreviewTime: 47711
Countdown: 0
SampleSet: Soft
StackLeniency: 0.7
Mode: 0
LetterboxInBreaks: 0
WidescreenStoryboard: 0

[Editor]
DistanceSpacing: 1.2
BeatDivisor: 4
GridSize: 32
TimelineZoom: 1

[Metadata]
Title:Evergreen (TV Size)
TitleUnicode:Evergreen (TV Size)
Artist:sajou no hana
ArtistUnicode:sajou no hana
Creator:Sarawatlism
Version:Myth
Source:ダンジョンに出会いを求めるのは間違っているだろうかⅢ
Tags:anime japanese pop jpop j-pop ed ending is it wrong to try pick up chiga in a dungeon? ni deai wo motomeru no wa machigatteiru darou ka III danmachi ダンまち 3rd third season that I want meet you familia myth yukachi clearly 御恵明希 aki mimegumi シド sid 渡辺拓也 female vocalist girls [_lost_] conner c_o_n_n_e_r gibune Dogerinoo xandit -eresh
BeatmapID:2652667
BeatmapSetID:1276758

[Difficulty]
HPDrainRate:7
CircleSize:4
OverallDifficulty:8.2
ApproachRate:9.2
SliderMultiplier:1.94
SliderTickRate:1

[Events]
//Background and Video events
Video,300,"VD.mp4"
0,0,"BG.jpg",0,0
//Break Periods
//Storyboard Layer 0 (Background)
//Storyboard Layer 1 (Fail)
//Storyboard Layer 2 (Pass)
//Storyboard Layer 3 (Foreground)
//Storyboard Layer 4 (Overlay)
//Storyboard Sound Samples

[TimingPoints]
981,329.67032967033,4,2,3,40,1,0
981,-166.666666666667,4,2,3,40,0,0
11447,-166.666666666667,4,2,3,5,0,0
11530,-142.857142857143,4,2,2,50,0,0
16722,-142.857142857143,4,2,2,5,0,0
16805,-142.857142857143,4,2,2,50,0,0
19359,-142.857142857143,4,2,2,5,0,0
19442,-142.857142857143,4,2,2,50,0,0
25623,-142.857142857143,4,2,2,5,0,0
25706,-142.857142857143,4,2,2,50,0,0
28590,-142.857142857143,4,2,2,5,0,0
28673,-142.857142857143,4,2,2,50,0,0
29909,-142.857142857143,4,2,2,5,0,0
29991,-142.857142857143,4,2,2,50,0,0
32546,-142.857142857143,4,2,2,5,0,0
32629,-200,4,2,2,45,0,0
32711,-200,4,2,3,45,0,0
41200,-142.857142857143,4,2,3,45,0,0
41860,-125,4,2,3,45,0,0
42271,-125,4,2,3,5,0,0
42354,-125,4,2,3,45,0,0
42849,-250,4,2,3,45,0,0
43096,-250,4,2,3,5,0,0
43178,-90.9090909090909,4,2,2,50,0,0
44414,-90.9090909090909,4,2,2,5,0,0
44497,-90.9090909090909,4,2,2,50,0,0
45733,-90.9090909090909,4,2,2,5,0,0
45816,-83.3333333333333,4,2,2,55,0,0
46063,-83.3333333333333,4,2,2,5,0,0
46145,-83.3333333333333,4,2,2,55,0,0
48453,-83.3333333333333,4,2,2,70,0,1
49689,-83.3333333333333,4,2,2,5,0,1
49772,-83.3333333333333,4,2,2,70,0,1
51008,-83.3333333333333,4,2,2,5,0,1
51090,-83.3333333333333,4,2,2,70,0,1
52656,-83.3333333333333,4,2,2,5,0,1
52739,-83.3333333333333,4,2,2,70,0,1
53975,-83.3333333333333,4,2,2,5,0,1
54057,-83.3333333333333,4,2,2,70,0,1
55293,-83.3333333333333,4,2,2,5,0,1
55376,-83.3333333333333,4,2,2,70,0,1
56612,-83.3333333333333,4,2,2,5,0,1
56695,-83.3333333333333,4,2,2,70,0,1
58260,-83.3333333333333,4,2,2,5,0,1
58343,-83.3333333333333,4,2,2,70,0,1
58920,-83.3333333333333,4,2,2,70,0,0
59002,-83.3333333333333,4,2,2,70,0,1
59249,-83.3333333333333,4,2,2,5,0,1
59332,-83.3333333333333,4,2,2,70,0,1
60238,-83.3333333333333,4,2,2,5,0,1
60321,-83.3333333333333,4,2,2,70,0,1
61557,-83.3333333333333,4,2,2,5,0,1
61640,-83.3333333333333,4,2,2,70,0,1
63206,-83.3333333333333,4,2,2,5,0,1
63288,-83.3333333333333,4,2,2,70,0,1
64195,-83.3333333333333,4,2,2,5,0,1
64277,-83.3333333333333,4,2,2,70,0,1
65513,-83.3333333333333,4,2,2,5,0,1
65596,-83.3333333333333,4,2,2,70,0,1
67162,-83.3333333333333,4,2,2,5,0,1
67244,-83.3333333333333,4,2,2,70,0,1
68480,-83.3333333333333,4,2,2,5,0,1
68563,-83.3333333333333,4,2,2,70,0,1
69470,-83.3333333333333,4,2,2,70,0,0
69552,-83.3333333333333,4,2,2,65,0,1
69799,-83.3333333333333,4,2,2,5,0,1
69882,-83.3333333333333,4,2,2,65,0,1
71118,-83.3333333333333,4,2,2,5,0,1
71200,-83.3333333333333,4,2,2,65,0,1
72107,-83.3333333333333,4,2,2,5,0,1
72189,-90.9090909090909,4,2,2,60,0,0
81337,-90.9090909090909,4,2,2,5,0,0
81420,-90.9090909090909,4,2,2,60,0,0
82656,-90.9090909090909,4,2,2,5,0,0
82739,-111.111111111111,4,2,2,55,0,0
85376,-100,4,2,2,55,0,0
86695,-90.9090909090909,4,2,2,55,0,0

[Colours]
Combo1 : 235,146,180
Combo2 : 128,128,192
Combo3 : 121,188,255
Combo4 : 221,173,250

[HitObjects]
8,160,981,6,0,B|46:166|67:149|65:147|87:126|130:136,1,116.399996447754,10|2,2:0|2:0,2:0:0:0:
175,184,1475,1,0,2:0:0:0:
234,136,1640,2,0,P|245:101|235:78,1,58.199998223877,2|0,2:0|2:0,2:0:0:0:
169,20,1970,2,0,P|158:55|168:78,1,58.199998223877,2|0,2:0|2:0,2:0:0:0:
175,184,2299,6,0,P|223:182|311:185,1,116.399996447754,10|2,2:0|2:0,2:0:0:0:
360,210,2794,1,0,2:0:0:0:
422,166,2959,2,0,P|402:137|374:135,1,58.199998223877,2|0,2:0|2:0,2:0:0:0:
445,244,3288,2,0,P|474:238|490:208,1,58.199998223877,2|0,2:0|2:0,2:0:0:0:
439,329,3618,6,0,P|393:317|315:318,1,116.399996447754,10|2,2:0|2:0,2:0:0:0:
259,355,4112,1,0,2:0:0:0:
214,293,4277,2,0,P|239:269|268:271,1,58.199998223877,2|0,2:0|2:0,2:0:0:0:
156,342,4607,2,0,P|127:338|108:317,1,58.199998223877,2|0,2:0|2:0,2:0:0:0:
60,258,4937,6,0,P|60:206|135:206,1,116.399996447754,10|2,2:0|2:0,2:0:0:0:
187,169,5431,1,0,2:0:0:0:
148,103,5596,2,0,P|102:97|83:105,1,58.199998223877,2|0,2:0|2:0,2:0:0:0:
200,40,5926,2,0,P|226:54|258:53,1,58.199998223877,2|0,2:0|2:0,2:0:0:0:
317,96,6255,6,0,P|327:51|327:31,1,58.199998223877,10|0,2:0|2:0,2:0:0:0:
416,127,6585,2,0,P|406:82|406:62,1,58.199998223877,2|0,2:0|2:0,2:0:0:0:
307,103,6915,2,0,P|317:58|317:38,1,58.199998223877,2|0,2:0|2:0,2:0:0:0:
425,140,7244,2,0,P|415:95|415:75,1,58.199998223877,2|0,2:0|2:0,2:0:0:0:
448,236,7574,6,0,P|409:223|376:224,1,58.199998223877,10|0,2:0|2:0,2:0:0:0:
347,318,7904,2,0,P|375:314|402:304,1,58.199998223877,2|0,2:0|2:0,2:0:0:0:
306,236,8233,2,0,P|279:225|250:222,1,58.199998223877,2|0,2:0|2:0,2:0:0:0:
199,317,8563,2,0,P|227:313|254:303,1,58.199998223877,2|0,2:0|2:0,2:0:0:0:
166,235,8893,6,0,P|131:202|47:220,1,116.399996447754,10|2,2:0|2:0,2:0:0:0:
18,263,9387,1,0,2:0:0:0:
67,320,9552,2,0,P|97:288|98:259,1,58.199998223877,2|0,2:0|2:0,2:0:0:0:
67,151,9882,2,0,B|55:185|55:185|68:209,1,58.199998223877,2|0,2:0|2:0,2:0:0:0:
130,100,10211,6,0,P|105:68|75:67,1,58.199998223877,10|0,2:0|2:0,2:0:0:0:
199,147,10541,2,0,P|239:147|257:131,1,58.199998223877,2|0,2:0|2:0,2:0:0:0:
270,62,10871,2,0,P|230:62|212:78,1,58.199998223877,2|0,2:0|2:0,2:0:0:0:
347,180,11200,2,0,P|384:176|449:180,1,87.2999973358155,2|0,2:0|2:0,2:0:0:0:
457,175,11530,6,0,P|509:155|479:92,1,135.799995855713,6|10,1:2|2:0,2:0:0:0:
419,33,12024,1,10,2:0:0:0:
362,101,12189,2,0,B|317:107|294:90|298:84|266:64|216:82,1,135.799995855713,0|8,1:0|2:0,2:0:0:0:
162,134,12684,1,10,2:0:0:0:
85,88,12849,6,0,P|69:51|85:20,1,67.8999979278565,2|2,1:2|2:0,2:0:0:0:
86,177,13178,2,0,P|47:168|13:168,1,67.8999979278565,0|8,2:0|2:0,2:0:0:0:
145,237,13508,2,0,P|181:222|216:217,1,67.8999979278565,0|0,1:0|2:0,2:0:0:0:
77,288,13838,2,0,P|41:273|6:268,1,67.8999979278565,8|0,2:0|2:0,2:0:0:0:
132,359,14167,6,0,P|182:353|283:358,1,135.799995855713,2|10,1:2|2:0,2:0:0:0:
355,369,14662,1,8,2:0:0:0:
381,284,14827,2,0,P|337:272|312:291,1,67.8999979278565,8|2,1:2|2:0,2:0:0:0:
446,229,15156,1,8,2:0:0:0:
373,179,15321,1,2,2:0:0:0:
446,229,15486,6,0,P|470:184|461:162,1,67.8999979278565,10|2,1:2|2:0,2:0:0:0:
308,120,15816,1,0,2:0:0:0:
373,179,15981,1,8,2:0:0:0:
447,67,16145,2,0,P|417:88|384:94,1,67.8999979278565,2|0,1:2|2:0,2:0:0:0:
220,78,16475,2,0,P|274:69|305:108,1,101.849996891785,10|0,2:0|2:0,2:0:0:0:
308,120,16805,6,0,P|244:138|203:65,1,135.799995855713,8|0,1:2|2:0,2:0:0:0:
145,23,17299,1,0,2:0:0:0:
76,78,17464,2,0,P|85:128|84:153,1,67.8999979278565,2|0,1:2|2:0,2:0:0:0:
151,237,17794,2,0,P|152:203|159:170,1,67.8999979278565,2|8,2:0|2:0,2:0:0:0:
67,279,18123,6,0,B|118:275|118:275|146:283|146:283|203:279,1,135.799995855713,8|0,1:2|2:0,2:0:0:0:
275,230,18618,1,8,2:0:0:0:
344,284,18783,2,0,P|384:286|410:260,1,67.8999979278565,2|0,1:2|2:0,2:0:0:0:
377,95,19112,2,0,P|364:142|359:212,1,101.849996891785,10|0,2:0|2:0,2:0:0:0:
359,207,19442,6,0,P|337:154|252:158,1,135.799995855713,2|8,1:2|2:0,2:0:0:0:
190,194,19937,1,8,2:0:0:0:
123,136,20101,2,0,P|138:95|134:63,1,67.8999979278565,0|8,1:0|2:0,2:0:0:0:
38,13,20431,2,0,P|37:46|51:77,1,67.8999979278565,8|8,2:0|2:0,2:0:0:0:
123,136,20761,5,0,1:3:0:0:
123,136,20926,1,0,2:0:0:0:
0,214,21090,2,0,P|35:193|68:189,1,67.8999979278565,8|8,2:0|2:0,2:0:0:0:
130,244,21420,1,0,1:0:0:0:
64,303,21585,1,0,2:0:0:0:
201,283,21750,1,8,2:0:0:0:
61,188,21915,1,8,2:0:0:0:
137,361,22079,6,0,P|203:359|297:361,1,135.799995855713,6|10,1:2|2:0,2:0:0:0:
348,314,22574,1,10,2:0:0:0:
276,261,22739,2,0,P|232:267|220:296,1,67.8999979278565,0|2,1:0|2:0,2:0:0:0:
351,219,23068,1,0,2:0:0:0:
278,168,23233,1,10,2:0:0:0:
351,219,23398,6,0,P|395:208|406:184,1,67.8999979278565,10|2,1:2|2:0,2:0:0:0:
363,67,23728,2,0,P|353:104|351:144,1,67.8999979278565,0|8,2:0|2:0,2:0:0:0:
258,0,24057,2,0,P|268:37|270:77,1,67.8999979278565,0|0,1:0|2:0,2:0:0:0:
174,153,24387,2,0,P|184:120|186:86,1,67.8999979278565,8|2,2:0|2:0,2:0:0:0:
61,26,24717,6,0,B|61:179,1,135.799995855713,2|10,1:2|2:0,2:0:0:0:
11,226,25211,1,10,2:0:0:0:
59,291,25376,2,0,P|117:288|180:292,1,101.849996891785,0|0,1:0|2:0,2:0:0:0:
181,292,25706,1,2,2:0:0:0:
250,237,25871,1,10,2:0:0:0:
259,228,25953,1,8,2:0:0:0:
269,218,26035,6,0,P|230:194|196:197,1,67.8999979278565,10|2,1:2|2:0,2:0:0:0:
328,279,26365,1,0,2:0:0:0:
388,214,26530,1,10,2:0:0:0:
339,89,26695,2,0,P|328:132|329:165,1,67.8999979278565,0|2,1:2|2:0,2:0:0:0:
415,39,27024,2,0,P|426:82|425:115,1,67.8999979278565,8|2,2:0|2:0,2:0:0:0:
248,0,27354,6,0,L|248:147,1,135.799995855713,8|8,1:2|2:0,2:0:0:0:
287,215,27849,1,8,2:0:0:0:
248,135,28013,2,0,P|208:127|180:146,1,67.8999979278565,2|0,1:2|2:0,2:0:0:0:
103,185,28343,2,0,P|56:200|18:148,1,101.849996891785,10|0,2:0|2:0,2:0:0:0:
17,156,28673,6,0,B|58:144|86:166|82:172|112:191|154:179,1,135.799995855713,8|8,1:2|2:0,2:0:0:0:
213,123,29167,1,8,2:0:0:0:
279,180,29332,2,0,P|319:184|342:162,1,67.8999979278565,2|0,1:2|2:0,2:0:0:0:
403,106,29662,2,0,P|439:81|497:117,1,101.849996891785,10|0,2:0|2:0,2:0:0:0:
497,113,29991,6,0,L|497:271,1,135.799995855713,0|8,1:2|2:0,2:0:0:0:
444,320,30486,1,0,2:0:0:0:
372,267,30651,2,0,P|337:267|314:295,1,67.8999979278565,8|0,1:2|2:0,2:0:0:0:
233,372,30981,2,0,P|250:341|237:307,1,67.8999979278565,8|0,2:0|2:0,2:0:0:0:
173,255,31310,6,0,B|214:267|242:245|238:239|268:220|310:232,1,135.799995855713,0|10,1:0|2:0,2:0:0:0:
358,161,31805,1,8,2:0:0:0:
424,218,31970,1,10,1:2:0:0:
279,142,32134,1,4,2:3:0:0:
361,40,32299,2,0,P|359:87|360:155,1,101.849996891785,2|0,1:2|2:0,2:0:0:0:
358,161,32629,6,0,P|316:131|262:143,1,97,4|0,1:2|3:0,2:0:0:0:
209,181,33123,1,0,2:0:0:0:
146,134,33288,2,0,P|137:107|146:79,1,48.5,8|0,2:0|2:0,2:0:0:0:
20,222,33618,6,0,P|57:211|124:211,1,97,2|0,3:2|3:0,2:0:0:0:
178,254,34112,1,0,2:0:0:0:
50,319,34277,2,0,P|74:298|111:298,1,48.5,0|0,3:0|2:0,2:0:0:0:
114,300,34524,1,0,2:0:0:0:
114,300,34607,5,2,3:2:0:0:
20,222,34772,1,0,2:0:0:0:
110,125,34937,2,0,P|99:166|100:189,1,48.5,2|0,3:2|2:0,2:0:0:0:
103,191,35184,1,0,2:0:0:0:
103,191,35266,6,0,B|134:198|153:192|151:189|177:174|212:183,1,97,0|0,3:0|3:0,2:0:0:0:
267,216,35761,1,0,2:0:0:0:
331,172,35926,2,0,P|317:135|316:113,1,48.5,8|0,2:0|2:0,2:0:0:0:
254,14,36255,6,0,P|249:61|241:111,1,97,0|0,3:0|3:0,2:0:0:0:
197,179,36750,1,0,2:0:0:0:
100,131,36915,2,0,P|125:108|158:113,1,48.5,2|2,3:2|2:0,2:0:0:0:
153,109,37162,1,0,2:0:0:0:
153,109,37244,6,0,P|166:76|159:52,1,48.5,2|0,3:2|2:0,2:0:0:0:
15,129,37574,2,0,L|17:194,1,48.5,2|0,3:2|2:0,2:0:0:0:
12,197,37821,1,0,2:0:0:0:
12,197,37904,6,0,P|70:195|128:197,1,97,2|0,3:2|3:0,2:0:0:0:
179,227,38398,1,0,2:0:0:0:
242,182,38563,2,0,P|265:175|297:186,1,48.5,8|0,2:0|2:0,2:0:0:0:
353,223,38893,6,0,P|394:226|419:174,1,97,2|0,3:2|3:0,2:0:0:0:
399,107,39387,1,0,2:0:0:0:
323,87,39552,1,0,3:0:0:0:
312,94,39634,1,0,2:0:0:0:
303,102,39717,1,0,2:0:0:0:
232,69,39882,2,0,P|222:27|222:6,1,48.5,2|0,3:2|2:0,2:0:0:0:
177,128,40211,2,0,P|173:152|166:175,1,48.5,2|0,3:2|2:0,2:0:0:0:
116,71,40541,6,0,P|75:62|36:98,1,97,8|0,2:0|3:0,2:0:0:0:
29,173,41035,1,0,2:0:0:0:
78,276,41200,6,0,P|131:267|161:266,1,67.8999979278565,10|0,2:0|2:0,2:0:0:0:
166,271,41448,1,0,2:0:0:0:
186,277,41530,2,0,P|201:245|184:205,1,67.8999979278565,2|0,2:0|2:0,2:0:0:0:
331,349,41860,6,0,P|289:335|235:331,1,77.6,10|8,2:0|2:0,2:0:0:0:
343,332,42107,6,0,P|381:326|417:313,1,77.6,10|0,2:0|2:0,2:0:0:0:
296,255,42354,5,10,2:0:0:0:
405,220,42519,5,2,2:0:0:0:
310,163,42684,1,8,2:0:0:0:
418,302,42849,6,0,P|449:298|476:298,1,58.2,4|0,2:0|2:0,2:0:0:0:
492,304,43178,6,0,P|425:311|428:185,1,213.400006512451,4|0,1:2|1:0,2:0:0:0:
486,87,43673,1,0,2:0:0:0:
412,193,43838,2,0,P|350:198|323:157,1,106.700003256226,2|2,1:2|2:0,2:0:0:0:
247,8,44167,2,0,L|247:173,1,160.050004884339,2|0,1:2|2:0,2:0:0:0:
243,200,44497,6,0,P|232:135|110:151,1,213.400006512451,0|0,1:0|1:0,2:0:0:0:
23,239,44991,1,0,2:0:0:0:
107,335,45156,2,0,P|139:294|130:243,1,106.700003256226,2|0,1:2|2:0,2:0:0:0:
24,58,45486,2,0,L|24:223,1,160.050004884339,2|0,1:2|2:0,2:0:0:0:
23,239,45816,6,0,B|82:213|120:242|112:244|152:273|207:249,1,174.599994671631,0|0,1:0|2:0,2:0:0:0:
216,237,46145,1,0,1:0:0:0:
110,145,46310,1,0,2:0:0:0:
216,237,46475,5,10,2:0:0:0:
23,239,46640,1,8,2:0:0:0:
248,95,46805,1,8,2:0:0:0:
116,353,46970,1,10,2:0:0:0:
24,58,47134,5,2,2:0:0:0:
24,58,47794,5,10,2:0:0:0:
216,237,47959,1,8,2:0:0:0:
250,248,48041,1,8,2:0:0:0:
286,244,48123,1,10,2:0:0:0:
316,224,48206,1,8,2:0:0:0:
335,193,48288,1,8,2:0:0:0:
339,157,48371,1,8,2:0:0:0:
326,123,48453,6,0,B|262:94|216:138|225:144|177:189|103:161,1,232.799992895508,4|8,1:2|2:0,2:0:0:0:
173,38,48948,1,2,2:0:0:0:
304,201,49112,2,0,P|374:201|400:150,1,116.399996447754,2|2,1:2|1:2,2:0:0:0:
503,44,49442,2,0,B|473:72|473:72|473:212,1,174.599994671631,10|0,2:0|2:0,2:0:0:0:
469,224,49772,6,0,P|438:152|311:192,1,232.799992895508,0|8,1:0|2:0,2:0:0:0:
227,297,50266,1,2,2:0:0:0:
182,149,50431,1,2,1:2:0:0:
323,289,50596,1,2,1:2:0:0:
97,356,50761,2,0,L|97:166,1,174.599994671631,10|0,2:0|2:0,2:0:0:0:
92,158,51090,6,0,P|184:187|222:74,1,232.799992895508,2|10,1:2|2:0,2:0:0:0:
347,11,51585,1,0,2:0:0:0:
412,140,51750,2,0,P|367:96|316:103,1,116.399996447754,2|0,1:2|1:0,2:0:0:0:
267,265,52079,2,0,P|312:221|363:228,1,116.399996447754,10|0,2:0|2:0,2:0:0:0:
410,358,52409,6,0,P|326:355|220:359,1,174.599994671631,0|0,1:0|2:0,2:0:0:0:
206,369,52739,2,0,P|225:307|203:262,1,116.399996447754,10|0,2:0|2:0,2:0:0:0:
43,218,53068,1,2,1:2:0:0:
143,315,53233,1,2,1:2:0:0:
228,135,53398,2,0,P|176:188|128:189,1,116.399996447754,10|8,2:0|2:0,2:0:0:0:
114,182,53645,1,8,2:0:0:0:
94,166,53728,6,0,B|142:143|177:176|170:181|206:215|261:194,1,174.599994671631,4|0,1:2|2:0,2:0:0:0:
284,183,54057,2,0,B|309:128|309:128|284:72,1,116.399996447754,8|2,2:0|2:0,2:0:0:0:
264,275,54387,1,0,1:0:0:0:
371,185,54552,1,0,1:0:0:0:
449,313,54717,2,0,P|394:275|342:279,1,116.399996447754,10|2,2:0|2:0,2:0:0:0:
224,364,55046,6,0,P|271:285|216:222,1,174.599994671631,0|0,1:0|2:0,2:0:0:0:
205,216,55376,2,0,P|138:240|85:246,1,116.399996447754,10|2,2:0|2:0,2:0:0:0:
197,118,55706,1,0,1:0:0:0:
317,188,55871,1,0,1:0:0:0:
121,153,56035,1,10,2:0:0:0:
304,62,56200,1,2,2:0:0:0:
40,0,56365,6,0,L|40:194,1,174.599994671631,2|0,1:2|2:0,2:0:0:0:
32,201,56695,2,0,P|86:158|140:170,1,116.399996447754,8|0,2:0|2:0,2:0:0:0:
232,258,57024,1,0,1:0:0:0:
274,124,57189,1,0,1:0:0:0:
130,253,57354,1,10,2:0:0:0:
344,182,57519,1,2,1:2:0:0:
344,182,57601,1,0,2:0:0:0:
344,182,57684,5,8,2:0:0:0:
171,59,57849,1,0,1:0:0:0:
221,349,58013,6,0,P|302:342|409:348,1,174.599994671631,14|0,2:0|2:0,2:0:0:0:
422,344,58343,1,2,1:2:0:0:
512,195,58508,1,8,2:0:0:0:
499,173,58590,1,8,2:0:0:0:
480,157,58673,6,0,P|448:141|416:145,1,58.199998223877,8|8,2:0|0:0,2:0:0:0:
398,272,58838,2,0,P|426:267|450:251,1,58.199998223877,8|8,2:0|2:0,2:0:0:0:
344,7,59002,6,0,L|344:183,1,174.599994671631,4|0,1:2|2:0,2:0:0:0:
346,206,59332,2,0,P|292:169|235:178,1,116.399996447754,8|2,2:0|2:0,2:0:0:0:
154,282,59662,1,2,1:2:0:0:
87,159,59827,1,2,1:2:0:0:
154,282,59991,2,0,P|225:271|214:173,1,174.599994671631,10|0,2:0|2:0,2:0:0:0:
161,126,60321,6,0,B|225:155|271:111|262:105|310:60|384:88,1,232.799992895508,0|8,1:0|2:0,2:0:0:0:
480,218,60816,1,2,2:0:0:0:
318,211,60981,2,0,P|364:164|414:175,1,116.399996447754,0|2,1:0|1:2,2:0:0:0:
450,305,61310,2,0,P|358:304|259:306,1,174.599994671631,10|0,2:0|2:0,2:0:0:0:
257,316,61640,6,0,P|305:259|286:214,1,116.399996447754,2|0,1:2|2:0,2:0:0:0:
154,165,61970,2,0,L|154:286,1,116.399996447754,10|0,2:0|2:0,2:0:0:0:
249,117,62299,1,2,1:2:0:0:
137,32,62464,1,0,1:0:0:0:
249,117,62629,2,0,P|319:120|347:73,1,116.399996447754,10|0,2:0|2:0,2:0:0:0:
55,2,62959,6,0,L|55:197,1,174.599994671631,0|0,1:0|2:0,2:0:0:0:
47,199,63288,2,0,P|88:152|147:168,1,116.399996447754,10|0,2:0|2:0,2:0:0:0:
155,172,63535,1,0,2:0:0:0:
155,172,63618,1,2,1:2:0:0:
27,293,63783,1,2,1:2:0:0:
226,346,63948,2,0,P|204:273|107:293,1,174.599994671631,10|0,2:0|2:0,2:0:0:0:
106,292,64277,6,0,B|170:321|216:277|207:271|255:226|329:254,1,232.799992895508,6|8,1:2|2:0,2:0:0:0:
447,318,64772,1,0,2:0:0:0:
498,172,64937,2,0,P|444:224|393:220,1,116.399996447754,0|0,1:0|1:0,2:0:0:0:
291,87,65266,2,0,P|369:60|423:137,1,174.599994671631,8|0,2:0|2:0,2:0:0:0:
425,142,65596,6,0,P|430:65|440:18,1,116.399996447754,2|2,1:2|2:0,2:0:0:0:
250,168,65926,2,0,P|260:225|262:283,1,116.399996447754,8|0,2:0|2:0,2:0:0:0:
187,48,66255,1,0,1:0:0:0:
339,159,66420,1,0,1:0:0:0:
148,222,66585,2,0,P|193:175|248:184,1,116.399996447754,8|0,2:0|2:0,2:0:0:0:
308,340,66915,6,0,P|213:338|118:341,1,174.599994671631,2|0,1:2|2:0,2:0:0:0:
106,351,67244,2,0,P|61:301|73:253,1,116.399996447754,10|2,2:0|2:0,2:0:0:0:
180,151,67574,1,0,1:0:0:0:
66,69,67739,1,2,1:2:0:0:
165,234,67904,2,0,P|227:232|256:185,1,116.399996447754,10|0,2:0|2:0,2:0:0:0:
337,0,68233,6,0,L|337:190,1,174.599994671631,0|0,1:0|2:0,2:0:0:0:
337,199,68563,1,12,2:0:0:0:
251,78,68728,1,8,2:0:0:0:
240,67,68810,1,8,2:0:0:0:
227,55,68893,1,2,1:2:0:0:
350,211,69057,1,8,2:3:0:0:
180,151,69222,1,2,1:2:0:0:
414,41,69387,1,8,2:3:0:0:
394,309,69552,6,0,B|343:285|307:313|313:318|276:344|222:324,1,174.599994671631,4|0,1:2|2:0,2:0:0:0:
203,319,69882,2,0,P|233:262|220:213,1,116.399996447754,8|0,2:0|2:0,2:0:0:0:
48,167,70211,1,2,1:2:0:0:
155,255,70376,1,2,1:2:0:0:
0,237,70541,1,2,2:0:0:0:
180,151,70706,1,8,2:0:0:0:
0,35,70871,6,0,L|0:222,1,174.599994671631,0|0,2:0|2:0,2:0:0:0:
0,237,71200,2,0,P|45:189|95:201,1,116.399996447754,12|0,2:0|2:0,2:0:0:0:
203,319,71530,1,2,1:2:0:0:
295,180,71695,1,8,2:3:0:0:
203,319,71860,2,0,P|290:317|390:319,1,174.599994671631,0|0,1:0|2:0,2:0:0:0:
403,326,72189,6,0,P|457:286|406:166,1,213.400006512451,4|0,1:2|1:0,2:0:0:0:
313,84,72684,1,8,2:0:0:0:
411,167,72849,2,0,P|468:142|475:93,1,106.700003256226,0|0,1:0|2:0,2:0:0:0:
385,12,73178,2,0,P|328:37|321:86,1,106.700003256226,0|0,1:0|2:0,2:0:0:0:
324,204,73508,5,0,1:0:0:0:
231,115,73673,1,8,2:3:0:0:
411,167,73838,1,0,1:0:0:0:
203,202,74002,1,8,2:3:0:0:
203,202,74085,1,0,2:0:0:0:
203,202,74167,5,2,1:2:0:0:
392,84,74332,1,8,2:0:0:0:
334,305,74497,1,2,1:2:0:0:
231,115,74662,1,8,2:0:0:0:
53,263,74827,6,0,P|159:262|277:263,1,213.400006512451,4|2,1:2|1:2,2:0:0:0:
338,156,75321,1,10,2:0:0:0:
225,94,75486,2,0,P|160:98|131:138,1,106.700003256226,0|0,1:0|2:0,2:0:0:0:
338,156,75816,2,0,B|357:100|357:100|326:46,1,106.700003256226,12|0,2:0|2:0,2:0:0:0:
208,178,76145,5,0,1:0:0:0:
378,237,76310,1,8,2:3:0:0:
225,94,76475,1,0,1:0:0:0:
270,346,76640,1,8,2:3:0:0:
270,346,76722,1,8,2:3:0:0:
270,346,76805,1,8,2:3:0:0:
338,156,76970,1,4,2:3:0:0:
141,229,77134,2,0,P|189:267|246:254,1,106.700003256226,0|4,2:3|2:3,2:0:0:0:
225,94,77464,6,0,B|167:67|125:109|132:115|89:148|16:129,1,213.400006512451,4|0,1:2|1:0,2:0:0:0:
93,22,77959,1,8,2:0:0:0:
253,173,78123,2,0,P|324:178|355:141,1,106.700003256226,0|0,1:0|2:0,2:0:0:0:
397,38,78453,2,0,P|326:33|295:70,1,106.700003256226,8|0,2:0|2:0,2:0:0:0:
481,204,78783,5,0,1:0:0:0:
482,173,78893,2,0,P|489:117|492:99,1,71.1333355041505,8|8,2:0|2:0,2:0:0:0:
355,267,79112,5,8,1:2:0:0:
354,236,79222,2,0,P|347:180|344:162,1,71.1333355041505,8|8,2:3|2:3,2:0:0:0:
407,351,79442,5,0,1:2:0:0:
434,347,79552,2,0,P|469:341|504:337,1,71.1333355041505,8|4,2:3|2:3,2:0:0:0:
231,290,79772,5,8,2:3:0:0:
258,294,79882,2,0,P|293:299|328:303,1,71.1333355041505,4|4,2:3|2:3,2:0:0:0:
131,361,80101,6,0,P|201:307|128:213,1,213.400006512451,4|2,1:2|1:2,2:0:0:0:
40,143,80596,1,10,2:0:0:0:
147,215,80761,1,0,1:0:0:0:
80,61,80926,1,0,2:0:0:0:
0,225,81090,2,0,P|85:222|180:226,1,160.050004884339,12|0,2:0|2:0,2:0:0:0:
188,226,81420,5,0,1:0:0:0:
275,132,81585,1,4,2:3:0:0:
188,226,81750,1,8,2:3:0:0:
359,158,81915,1,4,2:3:0:0:
359,158,81997,1,4,2:3:0:0:
359,158,82079,1,8,2:3:0:0:
197,68,82244,1,0,1:0:0:0:
335,258,82409,2,0,P|416:256|448:184,1,160.050004884339,4|0,1:2|2:0,2:0:0:0:
440,167,82739,6,0,B|387:147|355:180|363:182|322:211|257:192,1,174.599994671631,4|0,1:2|2:0,2:0:0:0:
176,156,83233,1,0,1:0:0:0:
214,58,83398,2,0,P|264:19|349:83,1,174.599994671631,8|0,2:0|3:0,2:0:0:0:
426,150,83893,1,2,2:0:0:0:
431,158,83975,1,2,2:0:0:0:
436,166,84057,6,0,P|499:146|502:90,2,130.949996003723,2|0|0,1:2|1:2|1:0,0:0:0:0:
292,120,84717,6,0,P|242:106|206:128,1,87.2999973358155,8|2,2:0|2:0,2:0:0:0:
195,140,84964,1,10,2:0:0:0:
176,156,85046,2,0,P|126:170|90:148,1,87.2999973358155,0|8,2:0|2:0,2:0:0:0:
77,274,85376,6,0,P|143:272|279:273,1,194,4|0,1:2|3:0,2:0:0:0:
375,325,85871,1,0,2:0:0:0:
444,232,86035,2,0,P|385:244|403:126,1,194,8|0,2:0|3:0,2:0:0:0:
462,71,86530,1,0,1:0:0:0:
259,161,86695,6,0,P|323:137|369:131,1,106.700003256226,0|0,1:0|2:0,2:0:0:0:
180,21,87024,2,0,P|244:45|290:51,1,106.700003256226,4|0,1:2|2:0,2:0:0:0:
144,198,87354,2,0,P|208:174|254:168,1,106.700003256226,8|0,2:0|2:0,2:0:0:0:
22,56,87684,2,0,P|86:80|132:86,1,106.700003256226,8|0,2:3|1:0,2:0:0:0:
