osu file format v14

[General]
AudioFilename: audio.mp3
AudioLeadIn: 0
PreviewTime: 54015
Countdown: 0
SampleSet: Soft
StackLeniency: 0.5
Mode: 0
LetterboxInBreaks: 0
WidescreenStoryboard: 1

[Editor]
DistanceSpacing: 1
BeatDivisor: 4
GridSize: 32
TimelineZoom: 2

[Metadata]
Title:Aoarashi no Ato de (TV Size)
TitleUnicode:青嵐のあとで (TV Size)
Artist:sajou no hana
ArtistUnicode:sajou no hana
Creator:PotatoDew
Version:Expert
Source:とある科学の超電磁砲T
Tags:anime japanese ending ed 2nd 2 misaka mikoto a certain scientific railgun t toaru kagaku no choudenjihou season 3 j-pop pop jpop
BeatmapID:2790399
BeatmapSetID:1347448

[Difficulty]
HPDrainRate:5.5
CircleSize:4.1
OverallDifficulty:8.5
ApproachRate:9.2
SliderMultiplier:1.6
SliderTickRate:1

[Events]
//Background and Video events
0,0,"ba.jpg",0,0
//Break Periods
//Storyboard Layer 0 (Background)
//Storyboard Layer 1 (Fail)
//Storyboard Layer 2 (Pass)
//Storyboard Layer 3 (Foreground)
//Storyboard Layer 4 (Overlay)
//Storyboard Sound Samples

[TimingPoints]
588,309.278350515464,4,2,1,40,1,0
588,-200,4,2,1,40,0,0
5536,-90.9090909090909,4,2,1,70,0,0
5845,-90.9090909090909,4,2,2,70,0,0
7314,-90.9090909090909,4,2,2,5,0,0
7392,-90.9090909090909,4,2,2,70,0,0
8010,-90.9090909090909,4,2,1,70,0,0
8629,-125,4,2,1,70,0,0
10484,-111.111111111111,4,2,1,60,0,0
10716,-111.111111111111,4,2,1,5,0,0
10794,-111.111111111111,4,2,1,60,0,0
11180,-111.111111111111,4,2,1,5,0,0
11258,-111.111111111111,4,2,1,60,0,0
12263,-111.111111111111,4,2,1,5,0,0
12340,-111.111111111111,4,2,1,60,0,0
13191,-111.111111111111,4,2,1,5,0,0
13268,-111.111111111111,4,2,1,60,0,0
15046,-111.111111111111,4,2,1,5,0,0
15124,-111.111111111111,4,2,1,60,0,0
15665,-111.111111111111,4,2,1,5,0,0
15742,-111.111111111111,4,2,1,60,0,0
16129,-111.111111111111,4,2,1,5,0,0
16206,-111.111111111111,4,2,1,60,0,0
16593,-111.111111111111,4,2,1,5,0,0
16670,-111.111111111111,4,2,1,60,0,0
17520,-111.111111111111,4,2,1,5,0,0
17598,-111.111111111111,4,2,1,60,0,0
18139,-111.111111111111,4,2,1,5,0,0
18216,-111.111111111111,4,2,1,60,0,0
18603,-111.111111111111,4,2,1,5,0,0
18680,-111.111111111111,4,2,1,60,0,0
19222,-111.111111111111,4,2,1,5,0,0
19299,-111.111111111111,4,2,1,60,0,0
20613,-111.111111111111,4,2,1,5,0,0
20691,-111.111111111111,4,2,1,60,0,0
21077,-111.111111111111,4,2,1,5,0,0
21155,-111.111111111111,4,2,1,60,0,0
22160,-111.111111111111,4,2,1,5,0,0
22237,-111.111111111111,4,2,1,60,0,0
22856,-111.111111111111,4,2,2,60,0,0
22933,-111.111111111111,4,2,1,60,0,0
23088,-111.111111111111,4,2,1,5,0,0
23165,-111.111111111111,4,2,1,60,0,0
23551,-111.111111111111,4,2,1,5,0,0
23629,-111.111111111111,4,2,1,60,0,0
24711,-111.111111111111,4,2,2,60,0,0
24789,-111.111111111111,4,2,1,60,0,0
24943,-111.111111111111,4,2,1,5,0,0
25020,-111.111111111111,4,2,1,60,0,0
25330,-111.111111111111,4,2,2,60,0,0
25407,-111.111111111111,4,2,1,60,0,0
25562,-111.111111111111,4,2,1,5,0,0
25639,-111.111111111111,4,2,1,60,0,0
26026,-111.111111111111,4,2,1,5,0,0
26103,-111.111111111111,4,2,1,60,0,0
26490,-111.111111111111,4,2,1,5,0,0
26567,-111.111111111111,4,2,1,60,0,0
27804,-111.111111111111,4,2,2,60,0,0
27959,-111.111111111111,4,2,1,60,0,0
28036,-111.111111111111,4,2,1,5,0,0
28113,-111.111111111111,4,2,1,60,0,0
28500,-111.111111111111,4,2,1,5,0,0
28577,-111.111111111111,4,2,1,60,0,0
30278,-142.857142857143,4,2,1,55,0,0
38783,-142.857142857143,4,2,2,55,0,0
38861,-142.857142857143,4,2,1,55,0,0
40020,-125,4,2,1,65,0,0
40484,-125,4,1,1,65,0,0
42495,-111.111111111111,4,1,1,70,0,0
44969,-99.9999999999999,4,2,1,75,0,0
47830,-99.9999999999999,4,2,1,5,0,0
47907,-99.9999999999999,4,2,1,75,0,0
49917,-90.9090909090909,4,2,1,80,0,0
50381,-90.9090909090909,4,2,2,80,0,0
54015,-200,4,2,2,80,0,0
54093,-200,4,2,1,50,0,0
55020,-83.3333333333333,4,2,1,85,0,1
55252,-83.3333333333333,4,2,1,5,0,1
55330,-83.3333333333333,4,2,1,85,0,1
55871,-83.3333333333333,4,2,1,5,0,1
55948,-83.3333333333333,4,2,1,85,0,1
56490,-83.3333333333333,4,2,1,5,0,1
56567,-83.3333333333333,4,2,1,85,0,1
57108,-83.3333333333333,4,2,1,5,0,1
57185,-83.3333333333333,4,2,1,85,0,1
57727,-83.3333333333333,4,2,1,5,0,1
57804,-83.3333333333333,4,2,1,85,0,1
58655,-83.3333333333333,4,2,1,5,0,1
58732,-83.3333333333333,4,2,1,85,0,1
59582,-83.3333333333333,4,2,1,5,0,1
59660,-83.3333333333333,4,2,1,85,0,1
60201,-83.3333333333333,4,2,1,5,0,1
60278,-83.3333333333333,4,2,1,85,0,1
60819,-83.3333333333333,4,2,1,5,0,1
60897,-83.3333333333333,4,2,1,85,0,1
61438,-83.3333333333333,4,2,1,5,0,1
61515,-83.3333333333333,4,2,1,85,0,1
62057,-83.3333333333333,4,2,1,5,0,1
62134,-83.3333333333333,4,2,1,85,0,1
62675,-83.3333333333333,4,2,1,5,0,1
62752,-83.3333333333333,4,2,1,85,0,1
65149,-83.3333333333333,4,2,1,5,0,1
65227,-83.3333333333333,4,2,2,85,0,1
65768,-83.3333333333333,4,2,2,5,0,1
65845,-83.3333333333333,4,2,2,85,0,1
66386,-83.3333333333333,4,2,2,5,0,1
66464,-83.3333333333333,4,2,2,85,0,1
67005,-83.3333333333333,4,2,2,5,0,1
67082,-83.3333333333333,4,2,2,85,0,1
67624,-83.3333333333333,4,2,2,5,0,1
67701,-83.3333333333333,4,2,2,85,0,1
68088,-83.3333333333333,4,2,2,5,0,1
68165,-83.3333333333333,4,2,2,85,0,1
69479,-83.3333333333333,4,2,2,5,0,1
69557,-83.3333333333333,4,2,2,85,0,1
69866,-83.3333333333333,4,2,1,85,0,1
70098,-83.3333333333333,4,2,2,5,0,1
70175,-83.3333333333333,4,2,2,85,0,1
71335,-83.3333333333333,4,2,2,5,0,1
71412,-83.3333333333333,4,2,2,85,0,1
71644,-83.3333333333333,4,2,2,5,0,1
71722,-83.3333333333333,4,2,2,85,0,1
72572,-83.3333333333333,4,2,2,5,0,1
72649,-83.3333333333333,4,2,2,85,0,1
73500,-83.3333333333333,4,2,2,5,0,1
73577,-83.3333333333333,4,2,2,85,0,1
73809,-83.3333333333333,4,2,2,5,0,1
73886,-83.3333333333333,4,2,2,85,0,1
74041,-83.3333333333333,4,2,1,85,0,1
74814,-83.3333333333333,4,2,1,80,0,0
75124,-83.3333333333333,4,2,1,85,0,1
75433,-83.3333333333333,4,2,1,80,0,0
75742,-83.3333333333333,4,2,1,85,0,1
76051,-83.3333333333333,4,2,1,80,0,0
76361,-83.3333333333333,4,2,1,85,0,1
76670,-83.3333333333333,4,2,1,80,0,0
76979,-83.3333333333333,4,2,1,85,0,1
77134,-83.3333333333333,4,2,1,80,0,0
77289,-83.3333333333333,4,2,1,85,0,1
77443,-83.3333333333333,4,2,1,80,0,0
77598,-83.3333333333333,4,2,1,85,0,1
77752,-83.3333333333333,4,2,1,80,0,0
77907,-83.3333333333333,4,2,1,85,0,1
78062,-83.3333333333333,4,2,1,80,0,0
78526,-90.9090909090909,4,2,1,70,0,0
80304,-90.9090909090909,4,2,1,5,0,0
80381,-90.9090909090909,4,2,1,70,0,0
82469,-90.9090909090909,4,2,1,5,0,0
82546,-90.9090909090909,4,2,1,70,0,0
83783,-90.9090909090909,4,2,2,70,0,0
85252,-90.9090909090909,4,2,2,5,0,0
85330,-90.9090909090909,4,2,2,70,0,0
87804,-90.9090909090909,4,2,1,70,0,0
88268,-250.000000000001,4,2,1,50,0,0

[Colours]
Combo1 : 128,128,255
Combo2 : 255,153,51
Combo3 : 170,255,255
Combo4 : 255,172,132

[HitObjects]
5,190,588,6,0,P|34:180|58:176,1,40,2|2,0:0|0:0,0:0:0:0:
105,122,897,2,0,P|135:127|157:136,1,40,2|2,0:0|0:0,0:0:0:0:
208,185,1206,1,2,0:0:0:0:
208,185,1515,5,2,0:0:0:0:
272,121,1670,1,2,0:0:0:0:
345,210,1825,5,2,0:0:0:0:
345,210,1902,1,2,0:0:0:0:
345,210,1979,1,2,0:0:0:0:
357,298,2134,1,2,0:0:0:0:
357,298,2443,5,2,0:0:0:0:
268,333,2598,1,2,0:0:0:0:
204,273,2752,1,2,0:0:0:0:
22,214,3062,5,2,0:0:0:0:
106,183,3294,5,2,0:0:0:0:
6,238,3526,5,2,0:0:0:0:
37,134,3680,1,2,0:0:0:0:
37,134,3990,5,0,0:0:0:0:
139,171,4144,1,2,0:0:0:0:
197,109,4299,1,2,0:0:0:0:
197,109,4608,5,0,0:0:0:0:
262,182,4763,1,2,0:0:0:0:
215,80,4917,1,2,0:0:0:0:
295,318,5536,5,6,3:2:0:0:
449,221,5691,1,2,0:0:0:0:
220,368,5845,6,0,P|207:322|220:272,1,88.0000026855469,6|0,3:2|0:0,0:0:0:0:
110,160,6155,2,8,P|143:125|193:112,1,88.0000026855469,6|0,3:2|0:0,0:0:0:0:
385,35,6464,5,6,3:2:0:0:
313,133,6618,1,2,0:0:0:0:
162,15,6773,5,6,3:2:0:0:
162,15,6850,1,2,0:0:0:0:
162,15,6928,1,2,0:0:0:0:
44,76,7082,2,0,P|28:130|20:215,1,132.00000402832,6|0,3:2|0:0,0:0:0:0:
48,235,7392,5,6,3:2:0:0:
20,336,7546,1,2,0:0:0:0:
74,258,7701,1,6,3:2:0:0:
361,346,8010,5,2,3:2:0:0:
183,286,8242,5,2,0:0:0:0:
394,319,8474,5,2,0:0:0:0:
261,368,8629,2,0,P|270:322|265:222,1,128,2|0,0:3|0:0,0:0:0:0:
160,77,9093,5,2,3:2:0:0:
160,77,9170,1,2,3:2:0:0:
160,77,9247,6,0,B|214:82|214:82|237:72|237:72|299:78,1,128,6|0,3:2|0:0,0:0:0:0:
360,34,9711,1,2,1:2:0:0:
413,180,9866,5,2,0:2:0:0:
436,93,10020,1,0,1:2:0:0:
381,187,10175,1,0,1:2:0:0:
480,290,10330,1,0,1:0:0:0:
480,290,10407,1,0,1:0:0:0:
480,290,10484,6,0,P|427:283|371:311,1,107.999996704102,6|0,3:2|0:0,0:0:0:0:
349,337,10794,1,10,0:0:0:0:
268,246,10948,6,0,L|149:239,1,107.999996704102,2|0,0:0|0:0,0:0:0:0:
126,273,11258,1,2,0:0:0:0:
24,359,11412,6,0,P|38:302|33:209,1,143.999995605469,10|0,0:0|0:0,0:0:0:0:
89,73,12031,6,0,P|137:70|179:20,1,107.999996704102,10|0,0:0|0:0,0:0:0:0:
196,0,12340,1,2,0:0:0:0:
243,103,12495,1,2,0:0:0:0:
104,162,12649,5,8,0:0:0:0:
216,195,12804,1,2,0:0:0:0:
360,37,12959,6,0,B|325:55|325:55|338:146,1,107.999996704102,2|0,3:2|0:0,0:0:0:0:
366,152,13268,1,10,0:0:0:0:
472,271,13577,5,2,0:0:0:0:
499,190,13732,1,2,0:0:0:0:
496,293,13886,5,8,0:0:0:0:
496,293,14041,2,0,B|384:262|404:370|293:328,1,215.999993408203,0|8,0:0|0:0,0:0:0:0:
111,165,14814,6,0,P|125:214|113:272,1,107.999996704102,2|0,0:0|0:0,0:0:0:0:
79,296,15124,5,10,0:0:0:0:
224,258,15278,1,0,3:0:0:0:
349,138,15433,6,0,P|309:112|243:119,1,107.999996704102,2|0,3:2|0:0,0:0:0:0:
216,142,15742,1,10,0:0:0:0:
92,132,15897,6,0,L|80:19,1,107.999996704102,2|0,0:0|0:0,0:0:0:0:
43,4,16206,1,2,0:0:0:0:
19,190,16361,6,0,P|51:212|124:213,1,107.999996704102,10|0,0:0|0:0,0:0:0:0:
151,191,16670,2,0,B|146:292|146:292|116:312|119:351,1,143.999995605469,2|8,0:0|0:0,0:0:0:0:
340,234,17289,6,0,P|348:183|399:116,1,107.999996704102,2|0,0:0|0:0,0:0:0:0:
411,116,17598,1,10,0:0:0:0:
505,313,17907,6,0,L|386:322,1,107.999996704102,2|0,3:2|0:0,0:0:0:0:
372,351,18216,1,10,0:0:0:0:
253,286,18371,6,0,P|211:279|154:322,1,107.999996704102,2|0,0:0|0:0,0:0:0:0:
138,343,18680,2,0,P|102:360|59:354,1,71.9999978027344,2|8,0:0|0:0,0:0:0:0:
11,240,18990,6,0,B|18:191|18:191|25:182|25:182|32:124,1,107.999996704102,2|0,0:0|0:0,0:0:0:0:
54,112,19299,2,0,L|130:103,1,71.9999978027344,2|8,0:0|0:0,0:0:0:0:
200,41,19608,1,2,0:0:0:0:
260,171,19763,5,2,3:2:0:0:
371,185,19917,1,2,1:2:0:0:
422,106,20072,5,0,1:0:0:0:
509,76,20227,1,8,0:0:0:0:
310,0,20381,6,0,P|322:55|319:135,1,107.999996704102,6|0,3:2|0:0,0:0:0:0:
292,137,20691,1,10,0:0:0:0:
308,260,20845,6,0,P|287:288|204:295,1,107.999996704102,2|0,0:0|0:0,0:0:0:0:
185,276,21155,1,2,0:0:0:0:
123,110,21309,6,0,P|186:122|194:207,1,143.999995605469,10|0,0:0|0:0,0:0:0:0:
120,218,21773,1,0,0:0:0:0:
25,329,21928,6,0,P|81:321|131:337,1,107.999996704102,10|0,0:0|0:0,0:0:0:0:
155,364,22237,1,2,0:0:0:0:
28,235,22392,1,2,0:0:0:0:
185,276,22546,5,8,0:0:0:0:
289,203,22701,2,0,L|294:156,1,35.9999989013672,2|0,0:0|0:0,0:0:0:0:
238,31,22856,6,0,B|259:64|259:64|342:56,1,107.999996704102,6|0,3:2|0:0,0:0:0:0:
357,31,23165,1,8,0:0:0:0:
439,86,23319,6,0,P|448:126|420:221,1,107.999996704102,2|0,0:0|0:0,0:0:0:0:
412,224,23629,1,2,0:0:0:0:
320,161,23783,5,8,0:0:0:0:
320,161,23938,2,0,P|272:161|221:236,1,143.999995605469,2|0,0:0|0:0,0:0:0:0:
287,311,24402,2,0,L|372:320,1,71.9999978027344,8|0,0:0|0:0,0:0:0:0:
504,381,24711,6,0,B|491:333|491:333|496:321|496:321|478:252,1,107.999996704102,6|0,3:2|0:0,0:0:0:0:
501,243,25020,1,10,0:0:0:0:
446,149,25175,2,0,L|405:142,1,35.9999989013672,0|0,0:0|0:0,0:0:0:0:
301,62,25330,6,0,P|244:61|198:120,1,107.999996704102,6|0,3:2|0:0,0:0:0:0:
202,130,25639,1,10,0:0:0:0:
131,205,25794,6,0,L|24:197,1,107.999996704102,2|0,0:0|0:0,0:0:0:0:
1,223,26103,1,2,0:0:0:0:
49,319,26258,6,0,P|88:303|161:316,1,107.999996704102,10|0,0:0|0:0,0:0:0:0:
181,330,26567,2,0,P|224:345|318:320,1,143.999995605469,2|8,0:0|0:0,0:0:0:0:
406,160,27185,5,2,0:0:0:0:
406,160,27340,1,0,0:0:0:0:
467,231,27495,5,10,0:0:0:0:
354,227,27649,2,0,L|296:208,1,35.9999989013672,0|0,0:0|0:0,0:0:0:0:
241,95,27804,6,0,P|243:142|171:177,1,107.999996704102,6|0,3:2|0:0,0:0:0:0:
162,173,28113,1,10,0:0:0:0:
55,110,28268,6,0,P|67:161|46:226,1,107.999996704102,2|0,0:0|0:0,0:0:0:0:
28,233,28577,2,0,L|38:315,1,71.9999978027344,2|8,0:0|0:0,0:0:0:0:
115,368,28886,1,2,0:0:0:0:
191,253,29041,6,0,P|151:262|116:289,1,71.9999978027344,2|0,0:0|0:0,0:0:0:0:
287,372,29350,2,0,L|277:290,1,71.9999978027344,10|8,0:0|0:0,0:0:0:0:
298,269,29582,1,8,0:0:0:0:
298,269,29660,5,10,0:0:0:0:
397,284,29814,1,0,1:0:0:0:
496,299,29969,1,2,1:2:0:0:
423,78,30278,6,0,P|381:128|490:143,1,223.999993164063,6|10,3:2|0:0,0:0:0:0:
308,0,31361,5,0,3:2:0:0:
204,174,31670,1,8,0:0:0:0:
308,0,31979,5,0,3:0:0:0:
202,88,32134,1,8,0:0:0:0:
204,174,32289,1,0,3:0:0:0:
12,327,32752,5,0,3:0:0:0:
12,327,32907,2,0,B|121:311|121:311|141:278|116:233,1,167.999994873047,0|8,3:0|0:0,0:0:0:0:
10,33,33835,5,0,3:0:0:0:
41,232,34145,1,8,0:0:0:0:
10,33,34453,5,0,3:0:0:0:
88,155,34608,1,8,0:0:0:0:
41,232,34763,1,0,3:0:0:0:
261,353,35227,6,0,B|422:328|422:328|345:310,1,223.999993164063,4|8,3:2|0:0,0:0:0:0:
412,147,36309,5,0,3:0:0:0:
222,217,36618,1,8,0:0:0:0:
412,147,36928,5,0,3:0:0:0:
279,153,37082,1,8,0:0:0:0:
222,217,37237,1,0,3:0:0:0:
432,5,37701,5,0,3:0:0:0:
432,5,37856,2,0,L|440:133,1,111.999996582031,0|0,3:0|3:0,0:0:0:0:
399,236,38319,2,0,P|346:236|294:287,1,111.999996582031,8|8,0:0|0:0,0:0:0:0:
185,365,38783,6,0,B|217:345|217:345|200:252,1,111.999996582031,4|0,3:2|1:0,0:0:0:0:
141,200,39247,1,0,1:0:0:0:
303,150,39402,5,0,1:0:0:0:
303,150,39479,1,0,1:0:0:0:
303,150,39557,5,8,0:0:0:0:
128,286,39711,1,8,0:0:0:0:
31,41,40020,6,0,B|77:37|77:37|92:42|92:42|171:35,1,128,6|0,3:2|0:0,0:0:0:0:
341,14,40484,5,10,3:2:0:0:
341,14,40562,1,0,0:0:0:0:
341,14,40639,2,0,L|347:55,1,32,0|0,0:0|0:0,2:0:0:0:
451,132,40794,6,0,L|456:83,1,32,2|0,3:2|0:0,2:0:0:0:
376,227,40948,5,2,0:2:0:0:
376,227,41026,1,0,0:0:0:0:
376,227,41103,2,0,L|382:281,1,32,0|0,3:0|0:0,2:0:0:0:
303,363,41258,5,2,0:2:0:0:
275,362,41335,1,0,0:0:0:0:
247,361,41412,1,0,3:0:0:0:
218,360,41490,1,0,0:0:0:0:
190,359,41567,2,0,L|195:304,1,32,0|0,0:0|0:0,2:0:0:0:
83,272,41722,5,2,3:2:0:0:
83,272,41799,1,0,0:0:0:0:
83,272,41876,2,0,L|87:322,1,32,0|0,0:0|0:0,2:0:0:0:
241,210,42031,6,0,L|187:203,1,32,2|0,3:2|0:2,2:0:0:0:
67,163,42185,2,0,L|121:158,1,32,2|0,0:2|0:0,2:0:0:0:
248,126,42340,2,0,L|193:120,1,32,2|0,3:2|0:0,2:0:0:0:
8,30,42495,5,12,0:2:0:0:
45,57,42572,1,0,0:0:0:0:
91,64,42649,1,0,0:0:0:0:
134,45,42727,1,0,0:0:0:0:
164,9,42804,2,0,L|210:4,1,35.9999989013672,0|0,0:0|0:0,2:0:0:0:
130,151,42959,5,2,3:2:0:0:
130,151,43036,1,0,0:0:0:0:
130,151,43113,2,0,L|136:202,1,35.9999989013672,0|0,0:0|0:0,2:0:0:0:
7,284,43268,6,0,L|69:278,1,35.9999989013672,2|0,3:2|0:0,2:0:0:0:
189,358,43423,5,2,0:2:0:0:
189,358,43500,1,0,0:0:0:0:
189,358,43577,2,0,L|251:364,1,35.9999989013672,0|0,3:2|0:2,2:0:0:0:
371,313,43732,5,2,0:2:0:0:
391,306,43809,1,0,0:0:0:0:
412,304,43886,1,0,3:2:0:0:
433,305,43964,1,0,0:0:0:0:
454,313,44041,2,0,L|461:363,1,35.9999989013672,0|0,0:0|0:0,2:0:0:0:
358,183,44196,5,2,3:2:0:0:
316,171,44273,1,0,0:0:0:0:
273,178,44350,2,0,L|265:125,1,35.9999989013672,0|0,0:0|0:0,2:0:0:0:
387,27,44505,6,0,L|381:84,1,35.9999989013672,2|0,3:2|0:0,2:0:0:0:
207,17,44660,5,2,0:2:0:0:
207,17,44737,1,0,0:0:0:0:
207,17,44814,2,0,L|264:23,1,35.9999989013672,0|0,3:2|0:0,2:0:0:0:
15,77,44969,6,0,P|79:92|86:193,1,160,14|8,0:0|3:2,0:0:0:0:
21,308,45433,1,8,3:2:0:0:
195,268,45588,5,10,3:2:0:0:
195,268,45665,1,2,0:0:0:0:
195,268,45742,5,10,3:2:0:0:
8,222,45897,1,8,3:2:0:0:
116,346,46051,1,8,3:2:0:0:
134,165,46206,1,8,3:2:0:0:
15,77,46361,5,10,3:2:0:0:
98,244,46515,1,8,3:2:0:0:
103,59,46670,5,10,3:2:0:0:
183,237,46825,1,8,3:2:0:0:
191,41,46979,5,10,3:2:0:0:
268,230,47134,1,8,3:2:0:0:
279,23,47289,5,10,3:2:0:0:
468,0,47443,1,10,3:2:0:0:
268,230,47598,6,0,B|325:225|325:225|336:215|336:215|397:209,1,120,10|0,3:2|0:0,0:0:0:0:
410,179,47907,1,2,3:2:0:0:
512,328,48062,6,0,L|421:320,1,80,2|0,0:0|3:0,0:0:0:0:
468,110,48371,2,0,P|496:150|495:204,1,80,2|0,0:0|3:0,0:0:0:0:
245,151,48680,5,8,0:0:0:0:
325,298,48835,1,8,0:0:0:0:
342,131,48990,5,10,0:2:0:0:
237,320,49144,1,8,0:0:0:0:
160,192,49299,5,10,0:2:0:0:
391,227,49453,1,8,0:0:0:0:
127,305,49608,5,2,3:2:0:0:
261,222,49763,1,10,0:0:0:0:
268,27,49917,6,0,P|184:39|138:121,1,176.000005371094,6|0,3:2|3:0,0:0:0:0:
408,138,50381,5,14,0:0:0:0:
416,57,50536,1,0,3:0:0:0:
125,220,50691,5,14,0:0:0:0:
125,220,50845,1,0,3:0:0:0:
366,329,51000,5,14,0:0:0:0:
344,248,51155,1,0,3:0:0:0:
204,69,51309,5,14,0:0:0:0:
204,69,51464,1,0,3:0:0:0:
101,312,51618,5,14,0:0:0:0:
181,306,51773,1,0,3:0:0:0:
300,161,51928,5,14,0:0:0:0:
300,161,52082,1,2,3:2:0:0:
300,161,52237,1,2,3:2:0:0:
26,69,52392,5,2,3:2:0:0:
26,69,52701,5,2,3:2:0:0:
112,247,52856,1,2,3:2:0:0:
8,165,53010,1,2,3:2:0:0:
263,69,53165,5,10,0:0:0:0:
20,255,53319,1,10,0:0:0:0:
287,301,53474,5,10,0:0:0:0:
178,2,53629,1,10,0:0:0:0:
131,90,54093,6,0,P|87:92|46:78,2,80,2|2|2,0:0|0:0|0:0,0:0:0:0:
377,242,55020,6,0,P|385:187|479:168,1,143.999995605469,6|0,3:2|0:0,0:0:0:0:
506,181,55330,2,0,P|457:202|409:178,1,95.9999970703126,8|0,0:0|0:0,0:0:0:0:
211,0,55639,6,0,B|218:69|218:69|211:77|211:77|218:147,1,143.999995605469,2|0,3:2|0:0,0:0:0:0:
196,171,55948,2,0,P|148:165|112:117,1,95.9999970703126,8|0,0:0|0:0,0:0:0:0:
0,371,56258,6,0,B|23:324|23:324|141:339,1,143.999995605469,2|0,3:2|0:0,0:0:0:0:
152,364,56567,1,8,0:0:0:0:
30,217,56722,1,2,0:0:0:0:
295,319,56876,6,0,B|276:220|276:220|289:196|326:183,1,143.999995605469,2|0,3:2|0:0,0:0:0:0:
338,159,57185,1,10,0:0:0:0:
163,259,57340,1,2,0:0:0:0:
17,29,57495,6,0,P|58:49|161:50,1,143.999995605469,2|0,3:2|0:0,0:0:0:0:
190,28,57804,2,0,L|292:41,1,95.9999970703126,10|0,0:0|0:0,0:0:0:0:
415,237,58113,5,2,3:2:0:0:
500,57,58268,1,2,0:0:0:0:
231,124,58423,6,0,P|233:188|296:267,1,143.999995605469,10|0,0:0|0:0,0:0:0:0:
319,272,58732,5,0,3:2:0:0:
319,272,58886,1,0,0:0:0:0:
157,375,59041,5,8,0:0:0:0:
157,375,59196,1,0,0:0:0:0:
10,201,59350,6,0,P|61:195|106:278,1,143.999995605469,2|0,3:2|0:0,0:0:0:0:
69,287,59660,1,10,0:0:0:0:
53,99,59814,5,8,0:0:0:0:
53,99,59892,1,8,0:0:0:0:
53,99,59969,6,0,B|24:66|24:66|143:77,1,143.999995605469,4|0,3:2|0:0,0:0:0:0:
157,47,60278,2,0,P|214:25|262:37,1,95.9999970703126,8|0,0:0|0:0,0:0:0:0:
421,178,60588,6,0,B|327:185|327:185|309:217|265:210,1,143.999995605469,2|0,3:2|0:0,0:0:0:0:
240,211,60897,2,0,B|190:197|190:197|143:203,1,95.9999970703126,10|0,0:0|0:0,0:0:0:0:
320,375,61206,6,0,P|327:323|419:302,1,143.999995605469,0|0,3:2|0:0,0:0:0:0:
446,324,61515,1,10,0:0:0:0:
459,163,61670,5,2,0:0:0:0:
459,163,61747,1,2,0:0:0:0:
459,163,61825,6,0,P|476:95|461:12,1,143.999995605469,2|0,3:2|0:0,0:0:0:0:
425,3,62134,1,10,0:0:0:0:
291,125,62289,1,2,0:0:0:0:
63,53,62443,6,0,L|74:216,1,143.999995605469,0|0,3:2|0:0,0:0:0:0:
34,222,62752,1,10,0:0:0:0:
113,319,62907,6,0,P|161:344|225:325,1,95.9999970703126,2|0,0:0|3:0,0:0:0:0:
296,277,63216,1,2,0:0:0:0:
169,158,63371,6,0,B|182:208|182:208|170:282,1,95.9999970703126,10|0,0:0|0:0,0:0:0:0:
436,358,63680,5,8,0:0:0:0:
459,315,63758,1,8,0:0:0:0:
461,267,63835,1,0,3:2:0:0:
439,224,63912,1,0,3:2:0:0:
416,237,63990,5,8,0:0:0:0:
368,231,64067,1,8,0:0:0:0:
325,246,64144,2,0,P|323:268|337:306,1,47.9999985351563,2|0,3:2|3:2,0:0:0:0:
283,144,64299,5,2,3:2:0:0:
284,124,64376,1,0,3:0:0:0:
285,104,64453,1,0,3:0:0:0:
287,84,64531,1,0,3:0:0:0:
312,58,64608,5,10,0:0:0:0:
255,32,64685,1,8,0:0:0:0:
193,43,64763,1,8,0:0:0:0:
151,89,64840,1,8,0:0:0:0:
154,151,64917,6,0,P|116:207|39:209,1,143.999995605469,6|0,3:2|0:0,0:0:0:0:
17,178,65227,2,0,L|5:69,1,95.9999970703126,12|0,0:0|0:0,0:0:0:0:
119,332,65536,6,0,B|159:346|191:318|187:310|207:283|264:310,1,143.999995605469,6|0,3:2|0:0,0:0:0:0:
286,333,65845,1,12,0:0:0:0:
475,266,66000,1,2,0:0:0:0:
352,118,66155,6,0,P|370:194|357:275,1,143.999995605469,6|0,3:2|0:0,0:0:0:0:
386,287,66464,2,0,P|384:341|398:389,1,95.9999970703126,12|0,0:0|0:0,0:0:0:0:
226,214,66773,6,0,B|265:189|265:189|243:70,1,143.999995605469,6|0,3:2|0:0,0:0:0:0:
217,59,67082,1,12,0:0:0:0:
45,4,67237,1,2,0:0:0:0:
2,215,67392,6,0,P|54:212|98:295,1,143.999995605469,6|0,3:2|0:0,0:0:0:0:
76,319,67701,1,14,0:0:0:0:
207,372,67856,6,0,B|277:362|277:362|286:355|286:355|346:348,1,143.999995605469,2|0,0:0|0:0,0:0:0:0:
379,319,68165,2,0,L|361:217,1,95.9999970703126,2|12,0:0|0:0,0:0:0:0:
419,44,68474,6,0,P|406:98|366:131,1,95.9999970703126,2|4,0:0|3:2,0:0:0:0:
286,164,68783,1,2,0:0:0:0:
158,8,68938,6,0,P|173:59|166:124,1,95.9999970703126,12|0,0:0|0:0,0:0:0:0:
124,300,69247,2,0,P|196:246|275:262,1,143.999995605469,4|0,3:2|0:0,0:0:0:0:
278,273,69557,1,14,0:0:0:0:
452,192,69711,5,2,0:0:0:0:
452,192,69789,1,2,0:0:0:0:
452,192,69866,6,0,B|439:102|439:102|406:83|415:42,1,143.999995605469,6|0,3:2|0:0,0:0:0:0:
431,21,70175,1,14,0:0:0:0:
489,293,70381,1,2,0:0:0:0:
489,293,70484,6,0,P|424:283|372:316,1,127.99999609375,6|2,3:2|0:0,0:0:0:0:
307,360,70794,6,0,L|175:345,1,127.99999609375,14|2,0:0|0:0,0:0:0:0:
120,282,71103,6,0,B|37:293|37:293|8:269|14:221,1,143.999995605469,6|0,3:2|0:0,0:0:0:0:
43,204,71412,2,0,B|50:139|50:139|60:134|60:134|69:51,1,143.999995605469,14|0,0:0|0:0,0:0:0:0:
97,35,71722,2,0,P|146:33|188:58,1,95.9999970703126,4|0,3:2|0:0,0:0:0:0:
279,198,72031,5,14,0:0:0:0:
391,40,72185,1,2,0:0:0:0:
391,40,72263,1,2,0:0:0:0:
391,40,72340,6,0,B|406:127|406:127|428:154|461:145,1,143.999995605469,6|0,3:2|0:0,0:0:0:0:
488,176,72649,1,14,0:0:0:0:
420,287,72804,6,0,P|370:275|310:311,1,95.9999970703126,2|4,0:0|3:2,0:0:0:0:
255,371,73113,1,2,0:0:0:0:
168,221,73268,6,0,B|162:311|162:311|128:321|113:367,1,143.999995605469,14|0,0:0|0:0,0:0:0:0:
89,356,73577,2,0,P|33:359|9:274,1,143.999995605469,4|0,3:2|0:0,0:0:0:0:
28,260,73886,1,14,0:0:0:0:
101,128,74041,5,8,0:0:0:0:
101,128,74118,1,8,0:0:0:0:
101,128,74196,5,10,0:0:0:0:
259,101,74350,1,0,1:0:0:0:
157,34,74505,5,0,1:0:0:0:
70,20,74660,1,8,0:0:0:0:
201,187,74814,5,2,3:2:0:0:
201,187,74969,1,0,3:2:0:0:
425,7,75124,5,14,0:0:0:0:
454,148,75278,1,2,0:0:0:0:
395,218,75433,5,2,3:2:0:0:
430,126,75588,1,2,3:2:0:0:
246,8,75742,5,14,0:0:0:0:
201,187,75897,1,2,0:0:0:0:
154,286,76051,5,2,3:2:0:0:
154,286,76206,1,0,3:2:0:0:
348,70,76361,5,14,0:0:0:0:
146,101,76515,1,2,0:0:0:0:
62,40,76670,5,2,3:2:0:0:
164,68,76825,1,2,3:2:0:0:
311,293,76979,5,12,0:0:0:0:
261,89,77134,1,2,0:0:0:0:
487,218,77289,5,14,0:0:0:0:
471,303,77443,1,0,3:2:0:0:
244,202,77598,5,14,0:0:0:0:
261,89,77752,1,0,3:2:0:0:
46,162,77907,5,14,0:0:0:0:
10,326,78061,1,2,3:2:0:0:
319,159,78526,5,6,3:2:0:0:
136,226,78680,1,2,0:0:0:0:
400,188,78835,6,0,P|402:135|376:96,1,88.000002685547,10|0,0:2|0:0,0:0:0:0:
177,100,79144,2,0,P|127:77|82:88,1,88.000002685547,2|0,3:2|0:0,0:0:0:0:
101,352,79453,5,10,0:2:0:0:
209,286,79608,1,2,0:0:0:0:
376,359,79763,5,2,3:2:0:0:
376,359,79840,1,2,0:0:0:0:
376,359,79917,1,2,0:0:0:0:
483,292,80072,2,0,P|481:214|506:129,1,132.00000402832,10|0,0:2|0:0,0:0:0:0:
470,133,80381,5,2,3:2:0:0:
295,119,80536,1,2,0:0:0:0:
452,107,80691,1,10,0:2:0:0:
247,274,81000,5,2,3:2:0:0:
215,73,81232,5,2,0:0:0:0:
215,73,81309,1,8,0:0:0:0:
268,238,81464,5,2,0:0:0:0:
159,310,81618,2,0,P|86:309|-5:258,1,176.000005371094,2|8,3:2|0:0,0:0:0:0:
187,163,82082,5,2,0:0:0:0:
187,163,82160,1,2,0:0:0:0:
187,163,82237,6,0,B|276:152|276:152|297:132|286:82,1,132.00000402832,2|0,3:2|0:0,0:0:0:0:
319,78,82546,5,8,0:0:0:0:
497,144,82701,1,2,0:0:0:0:
388,8,82856,5,2,0:0:0:0:
400,183,83010,5,8,0:0:0:0:
400,183,83088,1,0,3:0:0:0:
400,183,83165,1,0,3:0:0:0:
252,230,83319,5,8,0:0:0:0:
252,230,83397,1,8,0:0:0:0:
252,230,83474,5,2,3:2:0:0:
436,286,83629,1,2,0:0:0:0:
187,163,83783,6,0,P|166:201|164:245,1,88.000002685547,14|0,0:0|0:0,0:0:0:0:
358,326,84093,2,0,P|387:358|427:375,1,88.000002685547,6|0,3:2|0:0,0:0:0:0:
497,144,84402,5,14,0:0:0:0:
423,72,84557,1,2,0:0:0:0:
276,142,84711,5,6,3:2:0:0:
276,142,84789,1,2,0:0:0:0:
276,142,84866,1,2,0:0:0:0:
191,48,85020,2,0,P|126:58|51:32,1,132.00000402832,14|0,0:0|0:0,0:0:0:0:
31,53,85330,5,6,3:2:0:0:
43,205,85484,1,2,0:0:0:0:
5,66,85639,1,14,0:0:0:0:
170,150,85948,5,6,3:2:0:0:
10,293,86180,5,2,0:0:0:0:
10,293,86258,1,12,0:0:0:0:
136,166,86412,5,2,0:0:0:0:
202,310,86567,2,0,B|311:328|311:328|328:291|376:295,1,176.000005371094,6|12,3:2|0:0,0:0:0:0:
495,158,87031,5,2,0:0:0:0:
495,158,87108,1,2,0:0:0:0:
495,158,87185,6,0,P|484:94|378:82,1,176.000005371094,6|12,3:2|0:0,0:0:0:0:
279,185,87649,1,2,0:0:0:0:
279,185,87727,1,2,0:0:0:0:
279,185,87804,5,10,0:0:0:0:
144,169,87959,1,8,0:0:0:0:
8,155,88113,1,8,0:0:0:0:
49,218,88268,6,0,L|37:64,1,128,2|2,0:0|0:0,0:0:0:0:
