osu file format v14

[General]
AudioFilename: audio.mp3
AudioLeadIn: 0
PreviewTime: 54015
Countdown: 0
SampleSet: Soft
StackLeniency: 0.5
Mode: 0
LetterboxInBreaks: 0
WidescreenStoryboard: 1

[Editor]
DistanceSpacing: 1
BeatDivisor: 4
GridSize: 32
TimelineZoom: 2.899999

[Metadata]
Title:Aoarashi no Ato de (TV Size)
TitleUnicode:青嵐のあとで (TV Size)
Artist:sajou no hana
ArtistUnicode:sajou no hana
Creator:PotatoDew
Version:Ace of Tokiwadai
Source:とある科学の超電磁砲T
Tags:anime japanese ending ed 2nd 2 misaka mikoto a certain scientific railgun t toaru kagaku no choudenjihou season 3 j-pop pop jpop
BeatmapID:2790397
BeatmapSetID:1347448

[Difficulty]
HPDrainRate:6
CircleSize:4.5
OverallDifficulty:9.3
ApproachRate:9.4
SliderMultiplier:2
SliderTickRate:1

[Events]
//Background and Video events
0,0,"ba.jpg",0,0
//Break Periods
//Storyboard Layer 0 (Background)
//Storyboard Layer 1 (Fail)
//Storyboard Layer 2 (Pass)
//Storyboard Layer 3 (Foreground)
//Storyboard Layer 4 (Overlay)
//Storyboard Sound Samples

[TimingPoints]
588,309.278350515464,4,2,1,40,1,0
588,-200,4,2,1,40,0,0
5536,-100,4,2,1,70,0,0
5845,-100,4,2,2,70,0,0
7314,-100,4,2,2,5,0,0
7392,-100,4,2,2,70,0,0
8010,-142.857142857143,4,2,1,70,0,0
10484,-125,4,2,1,60,0,0
10716,-125,4,2,1,5,0,0
10794,-125,4,2,1,60,0,0
11180,-125,4,2,1,5,0,0
11258,-125,4,2,1,60,0,0
12263,-125,4,2,1,5,0,0
12340,-125,4,2,1,60,0,0
13191,-125,4,2,1,5,0,0
13268,-125,4,2,1,60,0,0
15046,-125,4,2,1,5,0,0
15124,-125,4,2,1,60,0,0
15665,-125,4,2,1,5,0,0
15742,-125,4,2,1,60,0,0
16129,-125,4,2,1,5,0,0
16206,-125,4,2,1,60,0,0
16593,-125,4,2,1,5,0,0
16670,-125,4,2,1,60,0,0
17520,-125,4,2,1,5,0,0
17598,-125,4,2,1,60,0,0
18139,-125,4,2,1,5,0,0
18216,-125,4,2,1,60,0,0
18603,-125,4,2,1,5,0,0
18680,-125,4,2,1,60,0,0
19222,-125,4,2,1,5,0,0
19299,-125,4,2,1,60,0,0
20613,-125,4,2,1,5,0,0
20691,-125,4,2,1,60,0,0
21077,-125,4,2,1,5,0,0
21155,-125,4,2,1,60,0,0
22160,-125,4,2,1,5,0,0
22237,-125,4,2,1,60,0,0
22856,-125,4,2,2,60,0,0
22933,-125,4,2,1,60,0,0
23088,-125,4,2,1,5,0,0
23165,-125,4,2,1,60,0,0
23551,-125,4,2,1,5,0,0
23629,-125,4,2,1,60,0,0
24711,-125,4,2,2,60,0,0
24789,-125,4,2,1,60,0,0
24943,-125,4,2,1,5,0,0
25020,-125,4,2,1,60,0,0
25330,-125,4,2,2,60,0,0
25407,-125,4,2,1,60,0,0
25562,-125,4,2,1,5,0,0
25639,-125,4,2,1,60,0,0
26026,-125,4,2,1,5,0,0
26103,-125,4,2,1,60,0,0
26490,-125,4,2,1,5,0,0
26567,-125,4,2,1,60,0,0
27804,-125,4,2,2,60,0,0
27959,-125,4,2,1,60,0,0
28036,-125,4,2,1,5,0,0
28113,-125,4,2,1,60,0,0
28500,-125,4,2,1,5,0,0
28577,-125,4,2,1,60,0,0
30278,-166.666666666667,4,2,1,55,0,0
38783,-142.857142857143,4,2,2,55,0,0
38861,-142.857142857143,4,2,1,55,0,0
40020,-125,4,2,1,65,0,0
40484,-153.846153846154,4,1,1,65,0,0
42495,-133.333333333333,4,1,1,70,0,0
44969,-111.111111111111,4,2,1,75,0,0
47598,-99.9999999999999,4,2,1,75,0,0
47830,-99.9999999999999,4,2,1,5,0,0
47907,-99.9999999999999,4,2,1,75,0,0
49917,-99.9999999999999,4,2,1,80,0,0
50381,-99.9999999999999,4,2,2,80,0,0
54093,-333.333333333333,4,2,1,50,0,0
55020,-83.3333333333333,4,2,1,85,0,1
55252,-83.3333333333333,4,2,1,5,0,1
55330,-83.3333333333333,4,2,1,85,0,1
55871,-83.3333333333333,4,2,1,5,0,1
55948,-83.3333333333333,4,2,1,85,0,1
56490,-83.3333333333333,4,2,1,5,0,1
56567,-83.3333333333333,4,2,1,85,0,1
57108,-83.3333333333333,4,2,1,5,0,1
57185,-83.3333333333333,4,2,1,85,0,1
57727,-83.3333333333333,4,2,1,5,0,1
57804,-83.3333333333333,4,2,1,85,0,1
58655,-83.3333333333333,4,2,1,5,0,1
58732,-83.3333333333333,4,2,1,85,0,1
59582,-83.3333333333333,4,2,1,5,0,1
59660,-83.3333333333333,4,2,1,85,0,1
60201,-83.3333333333333,4,2,1,5,0,1
60278,-83.3333333333333,4,2,1,85,0,1
60819,-83.3333333333333,4,2,1,5,0,1
60897,-83.3333333333333,4,2,1,85,0,1
61438,-83.3333333333333,4,2,1,5,0,1
61515,-83.3333333333333,4,2,1,85,0,1
62057,-83.3333333333333,4,2,1,5,0,1
62134,-83.3333333333333,4,2,1,85,0,1
62675,-83.3333333333333,4,2,1,5,0,1
62752,-83.3333333333333,4,2,1,85,0,1
65149,-83.3333333333333,4,2,1,5,0,1
65227,-83.3333333333333,4,2,2,85,0,1
65768,-83.3333333333333,4,2,2,5,0,1
65845,-83.3333333333333,4,2,2,85,0,1
66386,-83.3333333333333,4,2,2,5,0,1
66464,-83.3333333333333,4,2,2,85,0,1
67005,-83.3333333333333,4,2,2,5,0,1
67082,-83.3333333333333,4,2,2,85,0,1
67624,-83.3333333333333,4,2,2,5,0,1
67701,-83.3333333333333,4,2,2,85,0,1
68088,-83.3333333333333,4,2,2,5,0,1
68165,-83.3333333333333,4,2,2,85,0,1
69479,-83.3333333333333,4,2,2,5,0,1
69557,-83.3333333333333,4,2,2,85,0,1
69866,-83.3333333333333,4,2,1,85,0,1
70098,-83.3333333333333,4,2,2,5,0,1
70175,-83.3333333333333,4,2,2,85,0,1
71335,-83.3333333333333,4,2,2,5,0,1
71412,-83.3333333333333,4,2,2,85,0,1
71644,-83.3333333333333,4,2,2,5,0,1
71722,-83.3333333333333,4,2,2,85,0,1
72572,-83.3333333333333,4,2,2,5,0,1
72649,-83.3333333333333,4,2,2,85,0,1
73500,-83.3333333333333,4,2,2,5,0,1
73577,-83.3333333333333,4,2,2,85,0,1
73809,-83.3333333333333,4,2,2,5,0,1
73886,-83.3333333333333,4,2,2,85,0,1
74041,-83.3333333333333,4,2,1,85,0,1
74814,-83.3333333333333,4,2,1,80,0,0
75124,-83.3333333333333,4,2,1,85,0,1
75433,-83.3333333333333,4,2,1,80,0,0
75742,-83.3333333333333,4,2,1,85,0,1
76051,-83.3333333333333,4,2,1,80,0,0
76361,-83.3333333333333,4,2,1,85,0,1
76670,-83.3333333333333,4,2,1,80,0,0
76979,-83.3333333333333,4,2,1,85,0,1
77134,-83.3333333333333,4,2,1,80,0,0
77289,-83.3333333333333,4,2,1,85,0,1
77443,-83.3333333333333,4,2,1,80,0,0
77598,-83.3333333333333,4,2,1,85,0,1
77752,-83.3333333333333,4,2,1,80,0,0
77907,-83.3333333333333,4,2,1,85,0,1
78062,-83.3333333333333,4,2,1,80,0,0
78526,-100,4,2,1,70,0,0
80304,-100,4,2,1,5,0,0
80381,-100,4,2,1,70,0,0
81618,-111.111111111111,4,2,1,70,0,0
82469,-111.111111111111,4,2,1,5,0,0
82546,-111.111111111111,4,2,1,70,0,0
83474,-100,4,2,1,70,0,0
83783,-100,4,2,2,70,0,0
85252,-100,4,2,2,5,0,0
85330,-100,4,2,2,70,0,0
86567,-111.111111111111,4,2,2,70,0,0
87804,-111.111111111111,4,2,1,70,0,0
88268,-333.333333333333,4,2,1,50,0,0

[Colours]
Combo1 : 128,128,255
Combo2 : 255,153,51
Combo3 : 170,255,255
Combo4 : 255,172,132

[HitObjects]
25,108,588,6,0,P|67:95|91:95,1,50,2|2,0:0|0:0,0:0:0:0:
135,150,897,2,0,P|177:163|201:163,1,50,2|2,0:0|0:0,0:0:0:0:
254,119,1206,1,2,0:0:0:0:
254,119,1515,5,2,0:0:0:0:
294,192,1670,1,2,0:0:0:0:
187,252,1825,5,2,0:0:0:0:
187,252,1902,1,2,0:0:0:0:
187,252,1979,1,2,0:0:0:0:
153,328,2134,1,2,0:0:0:0:
153,328,2443,5,2,0:0:0:0:
47,282,2598,1,2,0:0:0:0:
132,344,2752,1,2,0:0:0:0:
371,140,3062,5,2,0:0:0:0:
366,222,3294,5,2,0:0:0:0:
361,304,3526,5,2,0:0:0:0:
300,363,3680,1,2,0:0:0:0:
300,363,3990,5,0,0:0:0:0:
269,278,4144,1,2,0:0:0:0:
366,222,4299,1,2,0:0:0:0:
366,222,4608,5,0,0:0:0:0:
285,130,4763,1,2,0:0:0:0:
390,197,4917,1,2,0:0:0:0:
23,222,5536,5,6,3:2:0:0:
99,34,5691,1,2,0:0:0:0:
198,273,5845,6,0,B|246:279|246:279|256:276|256:276|319:283,1,100,6|0,3:2|0:0,0:0:0:0:
176,108,6155,2,0,P|136:139|128:193,1,100,6|0,3:2|0:0,0:0:0:0:
0,324,6464,5,6,3:2:0:0:
103,283,6618,1,2,0:0:0:0:
287,366,6773,5,6,3:2:0:0:
287,366,6850,1,2,0:0:0:0:
287,366,6928,1,2,0:0:0:0:
399,289,7082,2,0,P|405:227|408:135,1,150,6|0,3:2|0:0,0:0:0:0:
389,108,7392,5,6,3:2:0:0:
512,190,7546,1,2,0:0:0:0:
320,239,7701,1,6,3:2:0:0:
12,54,8010,5,2,3:2:0:0:
159,41,8242,5,2,0:0:0:0:
306,27,8474,5,2,0:0:0:0:
433,101,8629,2,0,P|420:172|434:259,1,139.999995727539,2|0,0:3|0:0,0:0:0:0:
236,319,9093,5,2,3:2:0:0:
236,319,9170,1,2,3:2:0:0:
236,319,9247,6,0,B|297:327|297:327|308:321|308:321|393:332,1,139.999995727539,6|0,3:2|0:0,0:0:0:0:
323,233,9711,1,2,1:2:0:0:
230,163,9866,5,2,0:2:0:0:
165,243,10020,1,0,1:2:0:0:
319,145,10175,1,0,1:2:0:0:
107,93,10330,1,0,1:0:0:0:
107,93,10407,1,0,1:0:0:0:
107,93,10484,6,0,P|121:148|71:192,1,120,6|0,3:2|0:0,0:0:0:0:
48,180,10794,1,10,0:0:0:0:
5,298,10948,6,0,P|60:304|125:340,1,120,2|0,0:0|0:0,0:0:0:0:
135,359,11258,1,2,0:0:0:0:
259,283,11412,6,0,B|284:320|284:320|404:312,1,160,10|0,0:0|0:0,0:0:0:0:
456,229,11876,1,0,0:0:0:0:
357,71,12031,6,0,P|363:123|351:214,1,120,10|0,0:0|0:0,0:0:0:0:
338,217,12340,1,2,0:0:0:0:
177,256,12495,1,2,0:0:0:0:
305,354,12649,5,8,0:0:0:0:
262,247,12804,1,2,0:0:0:0:
219,104,12959,6,0,B|158:98|158:98|150:88|150:88|84:83,1,120,2|0,3:2|0:0,0:0:0:0:
80,56,13268,1,10,0:0:0:0:
302,3,13577,5,2,0:0:0:0:
357,74,13732,1,2,0:0:0:0:
485,27,13886,5,8,0:0:0:0:
485,27,14041,2,0,P|474:83|493:194,1,160
439,104,14505,1,8,0:0:0:0:
341,258,14814,6,0,P|397:249|459:283,1,120,2|0,0:0|0:0,0:0:0:0:
476,305,15124,5,10,0:0:0:0:
326,136,15278,1,0,3:0:0:0:
159,365,15433,6,0,B|197:341|197:341|181:245,1,120,2|0,3:2|0:0,0:0:0:0:
155,242,15742,1,10,0:0:0:0:
0,153,15897,6,0,P|-8:212|47:259,1,120,2|0,0:0|0:0,0:0:0:0:
61,243,16206,1,2,0:0:0:0:
171,103,16361,6,0,P|215:89|280:141,1,120,10|0,0:0|0:0,0:0:0:0:
282,157,16670,2,0,P|218:152|187:66,1,160,2|8,0:0|0:0,0:0:0:0:
433,12,17289,6,0,P|417:111|419:159,1,120,2|0,0:0|0:0,0:0:0:0:
434,173,17598,1,10,0:0:0:0:
315,368,17907,6,0,B|365:376|365:376|384:279,1,120,2|0,3:2|0:0,0:0:0:0:
356,277,18216,1,10,0:0:0:0:
243,207,18371,6,0,P|295:208|320:127,1,120,2|0,0:0|0:0,0:0:0:0:
309,119,18680,2,0,L|317:37,1,80,2|8,0:0|0:0,0:0:0:0:
135,7,18990,6,0,P|121:49|179:103,1,120,2|0,0:0|0:0,0:0:0:0:
194,85,19299,2,0,P|137:73|100:91,1,80,2|8,0:0|0:0,0:0:0:0:
20,161,19608,1,2,0:0:0:0:
167,313,19763,5,2,3:2:0:0:
111,165,19917,1,2,1:2:0:0:
18,264,20072,5,0,1:0:0:0:
0,343,20227,1,8,0:0:0:0:
186,220,20381,6,0,P|235:238|304:206,1,120,6|0,3:2|0:0,0:0:0:0:
313,186,20691,1,10,0:0:0:0:
366,55,20845,6,0,P|309:63|223:43,1,120,2|0,0:0|0:0,0:0:0:0:
217,26,21155,1,2,0:0:0:0:
112,162,21309,6,0,P|101:217|1:227,1,160,10|0,0:0|0:0,0:0:0:0:
81,271,21773,1,0,0:0:0:0:
160,368,21928,6,0,P|212:355|279:361,1,120,10|0,0:0|0:0,0:0:0:0:
306,382,22237,1,2,0:0:0:0:
345,206,22392,1,2,0:0:0:0:
456,376,22546,5,8,0:0:0:0:
281,285,22701,2,0,L|276:236,1,40,2|0,0:0|0:0,0:0:0:0:
162,147,22856,6,0,B|189:182|189:182|296:169,1,120,6|0,3:2|0:0,0:0:0:0:
289,144,23165,1,8,0:0:0:0:
350,11,23319,6,0,P|344:63|382:127,1,120,2|0,0:0|0:0,0:0:0:0:
407,138,23629,1,2,0:0:0:0:
501,237,23783,5,8,0:0:0:0:
501,237,23938,2,0,B|435:232|435:232|427:240|427:240|337:231,1,160,2|0,0:0|0:0,0:0:0:0:
297,368,24402,5,8,0:0:0:0:
215,309,24557,1,0,0:0:0:0:
10,275,24711,6,0,P|78:263|87:202,1,120,6|0,3:2|0:0,0:0:0:0:
67,189,25020,1,10,0:0:0:0:
139,76,25175,2,0,L|183:65,1,40
363,21,25330,6,0,B|360:67|360:67|340:95|340:95|351:154,1,120,6|0,3:2|0:0,0:0:0:0:
364,167,25639,1,10,0:0:0:0:
439,292,25794,6,0,P|430:343|348:363,1,120,2|0,0:0|0:0,0:0:0:0:
336,349,26103,1,2,0:0:0:0:
179,260,26258,6,0,L|306:281,1,120,10|0,0:0|0:0,0:0:0:0:
326,260,26567,2,0,P|275:249|236:346,1,160,2|8,0:0|0:0,0:0:0:0:
131,369,27031,1,0,0:0:0:0:
52,256,27185,5,2,0:0:0:0:
21,333,27340,1,0,0:0:0:0:
0,186,27495,5,10,0:0:0:0:
132,256,27649,2,0,L|184:256,1,40
300,182,27804,6,0,B|295:130|295:130|287:121|287:121|282:54,1,120,6|0,3:2|0:0,0:0:0:0:
257,37,28113,1,10,0:0:0:0:
97,17,28268,6,0,P|104:62|83:148,1,120,2|0,0:0|0:0,0:0:0:0:
64,157,28577,2,0,P|51:103|78:63,1,80,2|8,0:0|0:0,0:0:0:0:
154,194,28886,1,2,0:0:0:0:
225,49,29041,6,0,P|190:75|187:123,1,80,2|0,0:0|0:0,0:0:0:0:
269,253,29350,2,0,L|280:162,1,80,10|8,0:0|0:0,0:0:0:0:
265,145,29582,1,8,0:0:0:0:
265,145,29660,5,10,0:0:0:0:
411,168,29814,1,0,1:0:0:0:
506,304,29969,5,2,1:2:0:0:
201,312,30278,6,0,B|147:278|89:313|89:313|71:378|-7:369,1,239.999992675781,6|10,3:2|0:0,0:0:0:0:
116,52,31361,6,0,P|104:89|116:172,1,119.999996337891,0|8,3:2|0:0,0:0:0:0:
261,204,31979,1,0,3:0:0:0:
197,151,32134,5,8,0:0:0:0:
197,151,32289,1,0,3:0:0:0:
327,335,32752,5,0,3:0:0:0:
327,335,32907,2,0,P|403:341|426:248,1,179.999994506836,0|8,3:0|0:0,0:0:0:0:
500,96,33835,6,0,L|365:105,1,119.999996337891,0|8,3:0|0:0,0:0:0:0:
212,60,34453,1,0,3:0:0:0:
324,14,34608,5,8,0:0:0:0:
324,14,34763,1,0,3:0:0:0:
207,162,35227,6,0,B|148:170|148:170|71:77|71:77|1:84,1,239.999992675781,4|8,3:2|0:0,0:0:0:0:
53,303,36309,6,0,P|97:292|177:298,1,119.999996337891,0|8,3:0|0:0,0:0:0:0:
337,365,36928,1,0,3:0:0:0:
276,281,37082,5,8,0:0:0:0:
276,281,37237,1,0,3:0:0:0:
503,135,37701,5,0,3:0:0:0:
503,135,37856,2,0,P|453:149|365:140,1,119.999996337891,0|0,3:0|3:0,0:0:0:0:
311,81,38319,1,8,0:0:0:0:
218,332,38629,1,8,0:0:0:0:
112,236,38783,6,0,B|174:243|174:243|193:231|193:231|274:242,1,139.999995727539,4|0,3:2|1:0,0:0:0:0:
321,313,39247,1,0,1:0:0:0:
139,146,39402,1,0,1:0:0:0:
139,146,39479,1,0,1:0:0:0:
139,146,39557,5,8,0:0:0:0:
391,52,39711,1,8,0:0:0:0:
56,372,40020,6,0,P|61:301|2:208,1,160,6|0,3:2|0:0,0:0:0:0:
45,45,40484,5,10,0:2:0:0:
36,59,40562,1,0,0:0:0:0:
38,74,40639,2,0,L|56:101,1,32.4999985122681,0|0,0:0|0:0,2:0:0:0:
209,155,40794,6,0,L|156:148,1,32.4999985122681,2|0,3:2|0:0,2:0:0:0:
95,266,40948,5,2,0:2:0:0:
95,266,41026,1,0,0:0:0:0:
95,266,41103,2,0,L|148:261,1,32.4999985122681,0|0,3:0|0:0,2:0:0:0:
312,211,41258,5,2,0:2:0:0:
298,240,41335,1,0,0:0:0:0:
292,271,41412,1,0,3:0:0:0:
298,303,41490,1,0,0:0:0:0:
311,332,41567,2,0,P|331:297|332:285,1,32.4999985122681,0|0,0:0|0:0,2:0:0:0:
424,214,41722,5,2,3:2:0:0:
424,214,41799,1,0,0:0:0:0:
424,214,41876,2,0,L|427:257,1,32.4999985122681,0|0,0:0|0:0,2:0:0:0:
325,127,42031,6,0,L|329:76,1,32.4999985122681,2|0,3:2|0:2,2:2:0:0:
164,100,42185,2,0,L|160:49,1,32.4999985122681,2|0,0:2|0:0,2:0:0:0:
244,142,42340,2,0,L|248:91,1,32.4999985122681,2|0,3:2|0:0,2:0:0:0:
462,6,42495,5,12,0:2:0:0:
465,54,42572,1,0,0:0:0:0:
468,102,42649,1,0,0:0:0:0:
472,151,42727,1,0,0:0:0:0:
476,199,42804,2,0,L|442:169,1,37.5000014305115,0|0,0:0|0:0,2:0:0:0:
343,85,42959,5,2,3:2:0:0:
357,76,43036,1,0,0:0:0:0:
372,78,43113,2,0,L|351:118,1,37.5000014305115,0|0,0:0|0:0,2:0:0:0:
241,225,43268,6,0,L|299:221,1,37.5000014305115,2|0,3:2|0:0,2:0:0:0:
446,314,43423,5,2,0:2:0:0:
446,314,43500,1,0,0:0:0:0:
446,314,43577,2,0,L|383:309,1,37.5000014305115,0|0,3:2|0:2,2:0:0:0:
238,354,43732,5,2,0:2:0:0:
213,328,43809,1,0,0:0:0:0:
181,311,43886,1,0,3:2:0:0:
145,305,43964,1,0,0:0:0:0:
110,313,44041,1,0,0:0:0:0:
82,336,44118,1,0,0:0:0:0:
60,364,44196,5,2,3:2:0:0:
121,363,44273,1,0,0:0:0:0:
155,311,44350,2,0,L|161:251,1,37.5000014305115,0|0,0:0|0:0,2:0:0:0:
11,119,44505,6,0,L|16:179,1,37.5000014305115,2|0,3:2|0:0,2:0:0:0:
231,83,44660,5,2,0:2:0:0:
231,83,44737,1,0,0:0:0:0:
231,83,44814,2,0,L|289:78,1,37.5000014305115,0|0,3:2|0:0,2:0:0:0:
457,350,44969,6,0,P|395:327|280:318,1,179.999994506836,14|8,0:0|3:2,0:0:0:0:
197,177,45433,1,8,3:2:0:0:
385,50,45588,5,10,3:2:0:0:
385,50,45665,1,2,0:0:0:0:
385,50,45742,5,10,3:2:0:0:
296,208,45897,1,8,3:2:0:0:
303,3,46051,1,8,3:2:0:0:
409,143,46206,1,8,3:2:0:0:
197,177,46361,5,10,3:2:0:0:
411,227,46515,1,8,3:2:0:0:
159,246,46670,5,10,3:2:0:0:
401,306,46825,1,8,3:2:0:0:
121,315,46979,5,10,3:2:0:0:
391,384,47134,1,8,3:2:0:0:
83,384,47289,5,10,3:2:0:0:
0,118,47443,1,10,3:2:0:0:
253,301,47598,6,0,P|263:237|356:237,1,150,10|0,3:2|0:0,0:0:0:0:
357,249,47907,1,2,3:2:0:0:
120,200,48062,6,0,B|124:158|124:158|130:152|130:152|137:95,1,100,2|0,0:0|3:0,0:0:0:0:
429,42,48371,2,0,P|411:93|344:113,1,100,2|0,0:0|3:0,0:0:0:0:
93,8,48680,5,8,0:0:0:0:
258,103,48835,1,8,0:0:0:0:
32,259,48990,5,10,0:2:0:0:
183,26,49144,1,8,0:0:0:0:
156,308,49299,5,10,0:2:0:0:
24,133,49453,1,8,0:0:0:0:
278,0,49608,5,2,3:2:0:0:
316,163,49763,1,10,0:0:0:0:
227,360,49917,6,0,B|183:331|183:331|116:364|116:364|19:348,1,200,6|0,3:2|3:0,0:0:0:0:
512,227,50381,5,14,0:0:0:0:
392,240,50536,1,0,3:0:0:0:
226,0,50691,5,14,0:0:0:0:
106,11,50846,1,0,3:0:0:0:
0,262,51000,5,14,0:0:0:0:
119,271,51155,1,0,3:0:0:0:
404,360,51309,5,14,0:0:0:0:
392,240,51464,1,0,3:0:0:0:
0,152,51618,5,14,0:0:0:0:
8,32,51773,1,0,3:0:0:0:
326,13,51928,5,14,0:0:0:0:
414,21,52082,1,2,3:2:0:0:
503,33,52237,1,2,3:2:0:0:
243,240,52392,5,2,3:2:0:0:
243,240,52701,5,2,3:2:0:0:
39,117,52856,1,2,3:2:0:0:
118,311,53010,1,2,3:2:0:0:
342,75,53165,5,10,0:0:0:0:
187,381,53319,1,10,0:0:0:0:
26,26,53474,5,10,0:0:0:0:
454,230,53629,1,10,0:0:0:0:
396,354,54093,6,0,L|390:293,2,59.9999981689454,2|2|2,0:0|0:0|0:0,0:0:0:0:
285,144,55020,6,0,B|246:120|200:148|211:159|169:196|109:158,1,179.999994506836,6|0,3:2|0:0,0:0:0:0:
87,130,55330,2,0,P|64:81|80:6,1,119.999996337891,8|0,0:0|0:0,0:0:0:0:
452,0,55639,6,0,B|447:82|447:82|441:88|441:88|432:214,1,179.999994506836,2|0,3:2|0:0,0:0:0:0:
456,212,55948,2,0,P|389:200|333:246,1,119.999996337891,8|0,0:0|0:0,0:0:0:0:
36,360,56258,6,0,B|155:351|155:351|149:270,1,179.999994506836,2|0,3:2|0:0,0:0:0:0:
119,260,56567,1,8,0:0:0:0:
139,53,56722,1,2,0:0:0:0:
310,367,56876,6,0,P|378:361|405:249,1,179.999994506836,2|0,3:2|0:0,0:0:0:0:
386,239,57185,1,10,0:0:0:0:
119,260,57340,1,2,0:0:0:0:
342,15,57495,6,0,P|343:86|287:182,1,179.999994506836,2|0,3:2|0:0,0:0:0:0:
264,191,57804,2,0,P|288:126|356:136,1,119.999996337891,10|0,0:0|0:0,0:0:0:0:
495,298,58113,5,2,3:2:0:0:
262,353,58268,1,2,0:0:0:0:
15,157,58423,6,0,B|62:182|62:182|40:328,1,179.999994506836,10|0,0:0|0:0,0:0:0:0:
27,344,58732,5,0,3:2:0:0:
110,366,58886,1,0,0:0:0:0:
348,248,59041,5,8,0:0:0:0:
272,266,59196,1,0,0:0:0:0:
0,77,59350,6,0,B|52:100|81:58|72:54|100:5|160:26,1,179.999994506836,2|0,3:2|0:0,0:0:0:0:
183,52,59660,1,10,0:0:0:0:
489,160,59814,5,8,0:0:0:0:
489,160,59892,1,8,0:0:0:0:
489,160,59969,6,0,B|394:167|394:167|386:161|386:161|290:169,1,179.999994506836,4|0,3:2|0:0,0:0:0:0:
284,187,60278,2,0,P|294:122|273:52,1,119.999996337891,8|0,0:0|0:0,0:0:0:0:
99,346,60588,6,0,L|303:360,1,179.999994506836,2|0,3:2|0:0,0:0:0:0:
306,334,60897,2,0,P|353:294|431:316,1,119.999996337891,10|0,0:0|0:0,0:0:0:0:
164,227,61206,6,0,B|116:194|116:194|133:55,1,179.999994506836,0|0,3:2|0:0,0:0:0:0:
145,33,61515,1,10,0:0:0:0:
377,12,61670,5,2,0:0:0:0:
377,12,61747,1,2,0:0:0:0:
377,12,61825,6,0,P|387:90|363:202,1,179.999994506836,2|0,3:2|0:0,0:0:0:0:
339,221,62134,1,10,0:0:0:0:
239,10,62289,1,2,0:0:0:0:
189,327,62443,6,0,P|271:308|387:366,1,179.999994506836,0|0,3:2|0:0,0:0:0:0:
383,367,62752,1,10,0:0:0:0:
281,123,62907,6,0,P|237:176|255:239,1,119.999996337891,2|0,0:0|3:0,0:0:0:0:
277,349,63216,1,2,0:0:0:0:
129,209,63371,6,0,L|3:199,1,119.999996337891,10|0,0:0|0:0,0:0:0:0:
185,12,63680,5,8,0:0:0:0:
229,42,63758,1,8,0:0:0:0:
281,54,63835,1,0,3:2:0:0:
332,37,63912,1,0,3:2:0:0:
326,27,63990,5,8,0:0:0:0:
377,13,64067,1,8,0:0:0:0:
423,41,64144,1,2,3:2:0:0:
437,92,64221,1,0,3:2:0:0:
459,109,64299,5,2,3:2:0:0:
459,126,64376,1,0,3:0:0:0:
459,143,64453,1,0,3:0:0:0:
459,161,64531,1,0,3:0:0:0:
481,205,64608,5,10,0:0:0:0:
411,185,64685,1,8,0:0:0:0:
344,214,64763,1,8,0:0:0:0:
323,282,64840,1,8,0:0:0:0:
356,345,64917,6,0,P|377:277|338:144,1,179.999994506836,6|0,3:2|0:0,0:0:0:0:
329,141,65227,2,0,P|323:102|368:24,1,119.999996337891,12|0,0:0|0:0,0:0:0:0:
202,293,65536,6,0,B|112:298|112:298|102:306|102:306|10:311,1,179.999994506836,6|0,3:2|0:0,0:0:0:0:
1,285,65845,1,12,0:0:0:0:
125,98,66000,1,2,0:0:0:0:
356,345,66155,6,0,P|425:355|470:251,1,179.999994506836,6|0,3:2|0:0,0:0:0:0:
446,234,66464,2,0,L|456:106,1,119.999996337891,12|0,0:0|0:0,0:0:0:0:
165,22,66773,6,0,B|216:47|216:47|194:190,1,179.999994506836,6|0,3:2|0:0,0:0:0:0:
171,205,67082,1,12,0:0:0:0:
349,100,67237,1,2,0:0:0:0:
270,346,67392,6,0,L|76:337,1,179.999994506836,6|0,3:2|0:0,0:0:0:0:
60,306,67701,1,14,0:0:0:0:
1,79,67856,6,0,P|78:79|54:187,1,179.999994506836,2|0,0:0|0:0,0:0:0:0:
71,195,68165,2,0,P|113:237|186:248,1,119.999996337891,2|12,0:0|0:0,0:0:0:0:
313,22,68474,6,0,L|324:170,1,119.999996337891,2|4,0:0|3:2,0:0:0:0:
430,253,68783,5,2,0:0:0:0:
269,347,68938,2,0,P|283:286|343:255,1,119.999996337891,12|0,0:0|0:0,0:0:0:0:
495,321,69247,6,0,P|469:247|490:144,1,179.999994506836,4|0,3:2|0:0,0:0:0:0:
462,113,69557,1,14,0:0:0:0:
223,189,69711,1,2,0:0:0:0:
223,189,69789,1,2,0:0:0:0:
223,189,69866,6,0,B|91:181|91:181|40:227,1,179.999994506836,6|0,3:2|0:0,0:0:0:0:
26,247,70175,1,14,0:0:0:0:
294,311,70381,1,2,0:0:0:0:
294,311,70484,6,0,P|311:239|407:227,1,159.999995117188,6|0,3:2|0:0,0:0:0:0:
472,137,70794,6,0,P|406:93|383:18,1,159.999995117188,14|2,0:0|0:0,0:0:0:0:
267,25,71103,6,0,B|181:19|181:19|173:10|173:10|73:2,1,179.999994506836,6|0,3:2|0:0,0:0:0:0:
56,26,71412,2,0,P|63:125|24:211,1,179.999994506836,14|0,0:0|0:0,0:0:0:0:
47,229,71722,2,0,L|174:235,1,119.999996337891,4|0,3:2|0:0,0:0:0:0:
296,109,72031,5,14,0:0:0:0:
467,284,72185,1,2,0:0:0:0:
467,284,72263,1,2,0:0:0:0:
467,284,72340,6,0,B|453:332|453:332|314:347,1,179.999994506836,6|0,3:2|0:0,0:0:0:0:
289,317,72649,1,14,0:0:0:0:
412,120,72804,6,0,P|408:181|363:238,1,119.999996337891,2|4,0:0|3:2,0:0:0:0:
189,100,73113,1,2,0:0:0:0:
32,303,73268,6,0,B|113:308|113:308|123:299|123:299|233:307,1,179.999994506836,14|0,0:0|0:0,0:0:0:0:
194,335,73577,2,0,P|127:353|146:243,1,179.999994506836,4|0,3:2|0:0,0:0:0:0:
90,231,73886,1,14,0:0:0:0:
213,21,74041,5,8,0:0:0:0:
213,21,74118,1,8,0:0:0:0:
213,21,74196,5,10,0:0:0:0:
249,184,74350,1,0,1:0:0:0:
403,267,74505,5,0,1:0:0:0:
393,384,74660,1,8,0:0:0:0:
393,384,74737,1,8,0:0:0:0:
393,384,74814,5,2,3:2:0:0:
367,284,74969,1,0,3:2:0:0:
69,90,75124,5,14,0:0:0:0:
405,56,75278,1,2,0:0:0:0:
509,151,75433,5,2,3:2:0:0:
406,139,75588,1,2,3:2:0:0:
126,341,75742,5,14,0:0:0:0:
273,79,75897,1,2,0:0:0:0:
170,0,76051,5,2,3:2:0:0:
170,0,76206,1,0,3:2:0:0:
508,298,76361,5,14,0:0:0:0:
114,193,76515,1,2,0:0:0:0:
28,292,76670,5,2,3:2:0:0:
150,282,76825,1,2,3:2:0:0:
334,12,76979,5,12,0:0:0:0:
415,313,77134,1,2,0:0:0:0:
225,129,77289,5,14,0:0:0:0:
188,54,77443,1,0,3:2:0:0:
479,183,77598,5,14,0:0:0:0:
415,313,77752,1,0,3:2:0:0:
16,82,77907,5,14,0:0:0:0:
109,350,78062,1,2,3:2:0:0:
380,45,78526,5,6,3:2:0:0:
245,264,78680,1,2,0:0:0:0:
129,14,78835,6,0,L|244:22,1,100,10|0,0:2|0:0,0:0:0:0:
392,230,79144,2,0,P|368:158|322:130,1,100,2|0,3:2|0:0,0:0:0:0:
90,101,79453,5,10,0:2:0:0:
143,185,79608,1,2,0:0:0:0:
22,366,79763,5,2,3:2:0:0:
22,366,79840,1,2,0:0:0:0:
22,366,79917,1,2,0:0:0:0:
61,260,80072,2,0,P|134:272|236:317,1,150,10|0,0:2|0:0,0:0:0:0:
227,329,80381,5,2,3:2:0:0:
308,192,80536,1,2,0:0:0:0:
403,371,80691,1,10,0:2:0:0:
466,104,81000,5,2,3:2:0:0:
316,98,81232,5,2,0:0:0:0:
316,98,81309,1,8,0:0:0:0:
166,92,81464,5,2,0:0:0:0:
58,30,81618,2,0,P|23:72|13:212,1,179.999994506836,2|8,3:2|0:0,0:0:0:0:
122,313,82082,5,2,0:0:0:0:
122,313,82160,1,2,0:0:0:0:
122,313,82237,6,0,P|154:265|243:252,1,134.999995880127,2|0,3:2|0:0,0:0:0:0:
258,274,82546,5,8,0:0:0:0:
224,154,82701,1,2,0:0:0:0:
347,312,82856,5,2,0:0:0:0:
407,144,83010,5,8,0:0:0:0:
407,144,83088,1,0,3:0:0:0:
407,144,83165,1,0,3:0:0:0:
175,36,83319,5,8,0:0:0:0:
175,36,83397,1,8,0:0:0:0:
175,36,83474,5,2,3:2:0:0:
311,201,83629,1,2,0:0:0:0:
505,46,83783,6,0,P|450:15|389:17,1,100,14|0,0:0|0:0,0:0:0:0:
387,277,84093,2,0,B|435:273|435:273|443:267|443:267|503:262,1,100,6|0,3:2|0:0,0:0:0:0:
246,347,84402,5,14,0:0:0:0:
212,248,84557,1,2,0:0:0:0:
332,112,84711,5,6,3:2:0:0:
332,112,84789,1,2,0:0:0:0:
332,112,84866,1,2,0:0:0:0:
255,16,85020,2,0,P|176:18|82:4,1,150,14|0,0:0|0:0,0:0:0:0:
69,32,85330,5,6,3:2:0:0:
127,238,85484,1,2,0:0:0:0:
223,106,85639,1,14,0:0:0:0:
377,343,85948,5,6,3:2:0:0:
383,193,86180,5,2,0:0:0:0:
383,193,86258,1,12,0:0:0:0:
389,43,86412,5,2,0:0:0:0:
488,112,86567,2,0,L|502:298,1,179.999994506836,6|12,3:2|0:0,0:0:0:0:
287,354,87031,5,2,0:0:0:0:
287,354,87108,1,2,0:0:0:0:
287,354,87185,6,0,P|231:353|181:249,1,179.999994506836,6|12,3:2|0:0,0:0:0:0:
145,83,87649,1,2,0:0:0:0:
145,83,87727,1,2,0:0:0:0:
145,83,87804,5,10,0:0:0:0:
264,270,87959,1,8,0:0:0:0:
383,100,88113,1,8,0:0:0:0:
459,9,88268,6,0,L|469:135,1,119.999996337891,2|2,0:0|0:0,0:0:0:0:
