osu file format v14

[General]
AudioFilename: audio.mp3
AudioLeadIn: 0
PreviewTime: 47446
Countdown: 0
SampleSet: Soft
StackLeniency: 0.7
Mode: 0
LetterboxInBreaks: 0
WidescreenStoryboard: 0

[Editor]
DistanceSpacing: 1.3
BeatDivisor: 4
GridSize: 32
TimelineZoom: 2.1

[Metadata]
Title:Hoshi no Orchestra (TV Size)
TitleUnicode:星のオーケストラ (TV Size)
Artist:saji
ArtistUnicode:saji
Creator:melleganol
Version:Expert
Source:かげきしょうじょ!!
Tags:Kageki Shojo ヨシダタクミ Yoshida Takumi 吉田 拓巳 河合英嗣 Kawai Eiji Japanese Pop Opening op rock jrock j-rock jpop j-pop anime male vocals vocalist
BeatmapID:3388248
BeatmapSetID:1659754

[Difficulty]
HPDrainRate:6
CircleSize:4.1
OverallDifficulty:8.6
ApproachRate:9.2
SliderMultiplier:1.8
SliderTickRate:1

[Events]
//Background and Video events
0,0,"53001-KagekiShoujo-PC-Wallpaper.jpg",0,0
Video,-158,"KagekiShoujoOP.m4v"
//Break Periods
//Storyboard Layer 0 (Background)
//Storyboard Layer 1 (Fail)
//Storyboard Layer 2 (Pass)
//Storyboard Layer 3 (Foreground)
//Storyboard Layer 4 (Overlay)
//Storyboard Sound Samples

[TimingPoints]
142,329.67032967033,4,2,1,35,1,0
3438,-200,4,2,1,35,0,0
4015,-200,4,2,77,5,0,0
4104,329.67032967033,4,2,77,50,1,0
4104,-142.857142857143,4,2,77,50,0,0
4744,334.261838440111,4,2,77,50,1,0
4744,-142.857142857143,4,2,77,50,0,0
5412,329.67032967033,4,2,77,70,1,0
5412,-100,4,2,77,70,0,0
5659,-100,4,2,77,5,0,0
5742,-100,4,2,77,70,0,0
6978,-100,4,2,77,5,0,0
7061,-100,4,2,77,70,0,0
8297,-100,4,2,77,5,0,0
8379,-100,4,2,77,70,0,0
13324,-166.666666666667,4,2,77,60,0,0
15961,-125,4,2,77,50,0,0
25357,-125,4,2,77,60,0,0
26429,-125,4,2,77,5,0,0
26510,-100,4,2,77,60,0,0
34341,-100,4,2,77,5,0,0
34423,-100,4,2,77,60,0,0
36978,-100,4,2,77,5,0,0
37061,-166.666666666667,4,2,77,60,0,0
42334,-125,4,2,77,60,0,0
44476,-125,4,2,77,60,0,0
46290,-111.111111111111,4,2,77,60,0,0
46538,-111.111111111111,4,2,77,5,0,0
46620,-100,4,2,77,60,0,0
46867,-100,4,2,77,5,0,0
46950,-100,4,2,77,60,0,0
47609,-71.4285714285714,4,2,77,75,0,1
47857,-71.4285714285714,4,2,77,5,0,1
47939,-83.3333333333333,4,2,77,75,0,1
49175,-83.3333333333333,4,2,77,5,0,1
49258,-83.3333333333333,4,2,77,75,0,1
50246,-71.4285714285714,4,2,77,75,0,1
50494,-71.4285714285714,4,2,77,5,0,1
50576,-83.3333333333333,4,2,77,75,0,1
51812,-83.3333333333333,4,2,77,5,0,1
51895,-83.3333333333333,4,2,77,75,0,1
53131,-83.3333333333333,4,2,77,5,0,1
53214,-83.3333333333333,4,2,77,75,0,1
55521,-100,4,2,77,60,0,1
55768,-100,4,2,77,5,0,1
55851,-83.3333333333333,4,2,77,65,0,1
56098,-83.3333333333333,4,2,77,5,0,1
56180,-71.4285714285714,4,2,77,70,0,1
56428,-71.4285714285714,4,2,77,5,0,1
56510,-62.5,4,2,77,75,0,1
56840,-62.5,4,2,77,75,0,1
58158,-71.4285714285714,4,2,77,75,0,1
58406,-71.4285714285714,4,2,77,5,0,1
58488,-83.3333333333333,4,2,77,75,0,1
59724,-83.3333333333333,4,2,77,5,0,1
59807,-83.3333333333333,4,2,77,75,0,1
61043,-83.3333333333333,4,2,77,5,0,1
61126,-83.3333333333333,4,2,77,75,0,1
62362,-83.3333333333333,4,2,77,5,0,1
62444,-83.3333333333333,4,2,77,75,0,1
63680,-83.3333333333333,4,2,77,5,0,1
63763,-83.3333333333333,4,2,77,75,0,1
64999,-83.3333333333333,4,2,77,5,0,1
65082,-83.3333333333333,4,2,77,75,0,1
66058,329.67032967033,4,2,77,75,1,1
66058,-83.3333333333333,4,2,77,75,0,1
67376,333.333333333333,4,2,77,75,1,1
67376,-83.3333333333333,4,2,77,75,0,1
68376,-166.666666666667,4,2,77,75,0,1
68627,-166.666666666667,4,2,77,5,0,1
68709,329.67032967033,4,2,77,60,1,1
68709,-125,4,2,77,60,0,0
73983,-100,4,2,77,60,0,0
74230,-100,4,2,77,5,0,0
74312,-83.3333333333333,4,2,77,60,0,0
74560,-83.3333333333333,4,2,77,5,0,0
74642,-71.4285714285714,4,2,77,60,0,0
74889,-71.4285714285714,4,2,77,5,0,0
74972,-62.5,4,2,77,60,0,0
75219,-62.5,4,2,77,5,0,0
75302,-100,4,2,77,70,0,0
76621,-90.9090909090909,4,2,77,70,0,0
76868,-90.9090909090909,4,2,77,5,0,0
76951,-90.9090909090909,4,2,77,70,0,0
78187,-90.9090909090909,4,2,77,5,0,0
78269,-90.9090909090909,4,2,77,70,0,0
79506,-90.9090909090909,4,2,77,5,0,0
79588,-90.9090909090909,4,2,77,70,0,0
80824,-90.9090909090909,4,2,77,5,0,0
80907,-90.9090909090909,4,2,77,70,0,0
82143,-90.9090909090909,4,2,77,5,0,0
82225,-90.9090909090909,4,2,77,70,0,0
84533,-166.666666666667,4,2,77,60,0,0
87088,-166.666666666667,4,2,77,5,0,0

[Colours]
Combo1 : 149,157,255
Combo2 : 255,248,149

[HitObjects]
34,144,142,5,2,0:0:0:0:
155,82,361,1,2,0:0:0:0:
155,82,471,1,2,0:0:0:0:
321,151,801,1,2,0:0:0:0:
467,46,1131,1,2,0:0:0:0:
289,20,1460,5,2,0:0:0:0:
424,139,1790,1,2,0:0:0:0:
357,306,2120,1,2,0:0:0:0:
480,370,2339,1,2,0:0:0:0:
480,370,2449,1,2,0:0:0:0:
404,206,2779,5,2,0:0:0:0:
276,242,2999,1,2,0:0:0:0:
276,242,3109,1,2,0:0:0:0:
79,218,3438,2,0,L|42:385,1,157.5,2|0,0:0|0:0,0:0:0:0:
44,371,4104,6,0,L|112:360,1,62.9999980773926,2|0,0:3|0:0,0:0:0:0:
240,316,4433,2,0,L|178:304,1,62.9999980773926,2|0,0:3|0:0,0:0:0:0:
0,154,4744,5,8,0:0:0:0:
20,139,4827,1,8,0:0:0:0:
50,130,4911,1,8,0:0:0:0:
87,134,4994,1,8,0:0:0:0:
141,149,5078,2,0,L|231:125,1,83.9999974365235,8|8,0:0|0:0,0:0:0:0:
333,53,5412,6,0,B|274:44|274:44|272:38|272:38|189:25,1,135,6|0,1:2|0:0,0:0:0:0:
344,42,5741,2,0,L|437:68,1,90,10|0,0:0|1:0,0:0:0:0:
512,270,6071,1,10,1:2:0:0:
447,154,6235,1,0,1:0:0:0:
334,348,6400,1,10,0:0:0:0:
391,250,6564,1,0,1:0:0:0:
161,143,6730,6,0,B|213:115|231:141|247:174|311:126,1,135,10|0,1:2|0:0,0:0:0:0:
155,131,7060,2,0,L|45:164,1,90,10|0,0:0|1:0,0:0:0:0:
77,317,7389,1,10,1:2:0:0:
0,220,7554,1,0,1:0:0:0:
66,73,7719,1,10,0:0:0:0:
0,0,7884,1,0,1:0:0:0:
191,159,8049,6,0,L|225:21,1,135,10|0,1:2|0:0,0:0:0:0:
180,171,8378,2,0,L|195:260,1,90,10|0,0:0|1:0,0:0:0:0:
449,265,8708,1,10,1:2:0:0:
331,203,8873,1,0,1:0:0:0:
505,157,9038,1,10,0:0:0:0:
449,265,9202,1,0,1:0:0:0:
234,142,9367,6,0,L|121:167,1,90,10|0,1:2|1:0,0:0:0:0:
47,331,9697,1,10,0:0:0:0:
177,256,9862,2,0,L|273:276,1,90,2|8,1:2|1:2,0:0:0:0:
294,374,10191,1,2,1:0:0:0:
331,203,10356,1,8,0:0:0:0:
234,142,10521,1,2,1:0:0:0:
353,290,10686,6,0,L|325:182,1,90,6|0,1:2|1:0,0:0:0:0:
440,58,11016,2,0,P|404:101|407:156,1,90,10|0,0:0|1:0,0:0:0:0:
512,304,11345,1,10,1:2:0:0:
418,216,11510,1,8,0:3:0:0:
294,358,11675,1,8,0:0:0:0:
416,375,11840,1,2,1:2:0:0:
416,375,11922,1,8,0:0:0:0:
416,375,12005,1,4,0:3:0:0:
361,280,12169,1,2,1:2:0:0:
205,384,12334,6,0,L|95:345,1,90,12|2,0:0|2:0,0:0:0:0:
80,336,12582,1,8,0:3:0:0:
80,336,12664,1,10,0:0:0:0:
132,244,12829,1,8,0:3:0:0:
45,186,12994,1,4,3:0:0:0:
115,110,13158,1,2,0:0:0:0:
75,22,13324,6,0,P|125:14|184:47,1,107.999996704102,6|0,1:2|0:0,0:0:0:0:
248,117,13818,1,2,0:0:0:0:
248,117,13900,1,2,0:0:0:0:
248,117,13983,2,0,L|360:96,1,107.999996704102,2|0,0:0|0:0,0:0:0:0:
495,24,14642,5,2,0:0:0:0:
495,24,14807,1,10,0:0:0:0:
457,175,14972,1,10,0:0:0:0:
363,252,15301,5,10,0:0:0:0:
305,80,15466,1,10,0:0:0:0:
305,80,15961,6,0,L|214:67,1,72,6|0,1:2|0:0,0:0:0:0:
149,7,16290,2,0,L|58:20,1,72,2|0,1:2|0:0,0:0:0:0:
0,89,16620,1,2,1:2:0:0:
0,89,16950,5,2,1:2:0:0:
67,136,17115,1,10,0:1:0:0:
0,227,17279,1,2,1:2:0:0:
63,277,17444,1,10,0:1:0:0:
0,384,17609,6,0,P|37:363|90:367,1,72,2|0,1:2|0:0,0:0:0:0:
190,384,17939,1,2,1:2:0:0:
245,324,18104,1,8,0:1:0:0:
156,260,18268,2,0,L|173:174,1,72,2|0,1:2|0:0,0:0:0:0:
183,89,18598,6,0,P|216:110|259:111,1,72,0|0,1:0|0:0,0:0:0:0:
321,41,18928,2,0,L|423:68,1,72,2|0,1:2|0:0,0:0:0:0:
474,135,19257,2,0,P|434:135|398:157,1,72,2|0,1:2|0:0,0:0:0:0:
348,231,19587,2,0,L|370:304,1,72,2|0,1:2|0:0,0:0:0:0:
463,347,19917,5,2,1:2:0:0:
478,276,20082,1,8,0:1:0:0:
488,205,20247,2,0,L|470:120,1,72,2|0,1:2|0:0,0:0:0:0:
512,45,20576,2,0,P|472:44|436:22,1,72,2|0,1:2|0:0,0:0:0:0:
339,0,20906,2,0,P|362:39|368:85,1,72,2|0,1:2|0:0,0:0:0:0:
289,154,21235,5,8,0:1:0:0:
289,154,21318,1,8,0:1:0:0:
289,154,21400,1,8,0:1:0:0:
289,154,21483,1,8,0:1:0:0:
289,154,21565,2,0,L|264:80,1,72,10|2,0:1|0:2,0:0:0:0:
173,13,21895,2,0,L|156:109,1,72,2|0,1:2|0:0,0:0:0:0:
95,174,22225,2,0,L|112:270,1,72,2|2,1:2|0:0,0:0:0:0:
107,244,22472,1,8,0:1:0:0:
107,244,22554,6,0,P|144:236|192:263,1,72,2|0,1:2|0:0,0:0:0:0:
240,317,22884,2,0,L|148:340,1,72,2|0,1:2|0:0,0:0:0:0:
93,384,23214,2,0,L|1:361,1,72,2|0,1:2|0:0,0:0:0:0:
0,224,23543,1,2,1:3:0:0:
0,224,23873,6,0,L|84:247,1,72,6|0,1:2|0:0,0:0:0:0:
181,341,24202,1,10,0:0:0:0:
236,274,24367,1,2,1:2:0:0:
145,174,24532,1,10,0:0:0:0:
150,264,24697,1,0,1:0:0:0:
276,166,24862,2,0,L|297:77,1,72,2|0,1:3|0:0,0:0:0:0:
364,0,25191,5,2,1:2:0:0:
364,0,25356,1,8,0:0:0:0:
399,124,25521,1,10,1:2:0:0:
491,197,25686,1,2,1:2:0:0:
491,197,25768,5,2,1:0:0:0:
491,197,25851,1,10,1:1:0:0:
419,279,26016,1,8,1:1:0:0:
399,124,26180,2,0,L|281:103,1,108,12|0,0:2|0:0,0:0:0:0:
270,99,26510,6,0,P|295:152|287:206,1,90,6|0,1:2|0:0,0:0:0:0:
152,226,26840,2,0,P|185:177|236:157,1,90,10|0,0:2|0:0,0:0:0:0:
314,265,27170,2,0,P|255:260|212:226,1,90,2|0,1:2|1:0,0:0:0:0:
161,92,27499,1,10,0:2:0:0:
211,162,27664,1,2,0:2:0:0:
177,309,27829,5,2,1:2:0:0:
229,244,27994,1,2,0:2:0:0:
95,149,28159,2,0,P|62:198|58:236,1,90,10|0,0:2|0:0,0:0:0:0:
29,384,28488,2,0,P|70:349|124:357,1,90,2|0,1:2|1:0,0:0:0:0:
258,323,28818,2,0,P|258:290|216:238,1,90,10|0,0:2|0:0,0:0:0:0:
161,92,29148,6,0,L|282:75,1,90,0|0,1:0|0:0,0:0:0:0:
377,102,29477,1,10,0:0:0:0:
430,28,29642,1,2,0:2:0:0:
512,123,29807,2,0,L|495:221,1,90,2|0,1:2|1:0,0:0:0:0:
499,309,30137,2,0,P|456:281|415:288,1,90,10|0,0:0|0:0,0:0:0:0:
344,362,30466,6,0,L|218:328,1,90,2|0,1:2|0:0,0:0:0:0:
157,285,30796,2,0,P|152:336|177:371,1,90,10|0,0:0|0:0,0:0:0:0:
245,253,31126,2,0,L|266:155,1,90,2|0,1:2|1:0,0:0:0:0:
173,40,31455,1,10,0:0:0:0:
173,40,31785,6,0,B|110:66|110:66|63:58|63:58|1:79,2,180,2|8|2,1:2|0:0|1:2,0:0:0:0:
154,143,32609,1,0,1:0:0:0:
154,143,32774,2,0,P|119:171|116:226,1,90,8|0,0:0|0:0,0:0:0:0:
169,366,33104,6,0,L|192:269,1,90,2|0,1:2|0:0,0:0:0:0:
278,161,33433,2,0,P|298:200|278:252,1,90,10|0,0:0|0:0,0:0:0:0:
277,384,33763,1,2,1:2:0:0:
368,334,33928,1,2,1:2:0:0:
491,384,34093,2,0,L|464:212,1,135,10|0,0:2|0:0,0:0:0:0:
470,250,34422,6,0,L|379:227,1,90,6|0,1:2|0:0,0:0:0:0:
265,125,34752,2,0,L|373:108,1,90,10|0,0:0|0:0,0:0:0:0:
512,135,35082,1,2,1:2:0:0:
419,44,35246,1,2,1:2:0:0:
470,250,35411,1,10,0:0:0:0:
283,214,35576,1,0,1:0:0:0:
283,214,35658,1,0,1:0:0:0:
283,214,35741,6,0,L|305:307,1,90,2|0,1:2|1:0,0:0:0:0:
96,384,36071,2,0,L|123:275,1,90,12|0,0:0|1:0,0:0:0:0:
117,296,36318,1,0,1:0:0:0:
117,296,36401,1,8,0:0:0:0:
230,344,36565,1,8,0:3:0:0:
156,188,36730,2,0,B|21:239,1,135,4|0,0:3|0:0,0:0:0:0:
29,235,37060,5,6,1:2:0:0:
0,71,37554,1,0,1:0:0:0:
0,71,37719,2,0,P|48:84|95:47,1,107.999996704102,2|8,1:0|0:0,0:0:0:0:
170,3,38378,2,0,L|299:29,1,107.999996704102,2|0,1:2|0:0,0:0:0:0:
365,85,39038,1,0,1:0:0:0:
447,0,39203,1,8,0:1:0:0:
512,67,39367,1,8,0:3:0:0:
505,174,39697,6,0,P|449:168|410:216,1,107.999996704102,2|2,1:2|0:0,0:0:0:0:
485,257,40191,1,0,0:0:0:0:
485,257,40356,2,0,L|507:364,1,107.999996704102,2|10,1:2|0:0,0:0:0:0:
375,384,41016,6,0,L|314:370,1,53.9999983520508,2|0,1:2|1:0,0:0:0:0:
261,315,41345,2,0,L|191:325,1,53.9999983520508,10|0,0:0|0:0,0:0:0:0:
71,384,41675,1,2,1:2:0:0:
122,307,41840,1,10,0:0:0:0:
61,216,42005,1,10,0:0:0:0:
108,89,42169,1,8,0:0:0:0:
0,0,42334,6,0,L|17:93,1,72,6|8,1:2|0:0,0:0:0:0:
12,70,42582,1,8,0:0:0:0:
12,70,42664,1,8,0:0:0:0:
178,180,42829,5,8,0:0:0:0:
182,155,42911,1,8,0:0:0:0:
187,130,42993,1,8,0:0:0:0:
279,30,43159,5,8,0:0:0:0:
283,55,43241,1,8,0:0:0:0:
288,80,43324,1,8,0:0:0:0:
456,238,43488,5,8,0:0:0:0:
470,205,43570,1,8,0:0:0:0:
466,170,43652,1,8,0:0:0:0:
244,297,43818,5,8,0:0:0:0:
249,332,43900,1,8,0:0:0:0:
272,359,43982,1,8,0:0:0:0:
374,154,44147,5,8,0:0:0:0:
337,170,44229,1,8,0:0:0:0:
301,186,44313,1,8,0:0:0:0:
107,384,44477,5,8,0:0:0:0:
86,375,44560,1,8,0:0:0:0:
63,357,44642,1,8,0:0:0:0:
42,327,44724,1,8,0:0:0:0:
26,286,44807,1,8,0:0:0:0:
22,235,44889,1,8,0:0:0:0:
43,181,44972,6,0,P|86:166|131:176,1,72,2|0,1:2|1:0,0:0:0:0:
186,384,45301,2,0,P|151:353|137:310,1,72,14|0,0:0|0:0,0:0:0:0:
244,236,45631,2,0,P|238:281|204:314,1,72,2|0,1:2|1:0,0:0:0:0:
43,181,45961,1,14,0:0:0:0:
138,108,46126,1,2,0:0:0:0:
0,9,46291,6,0,P|50:47|121:14,1,121.499996292114,6|0,1:2|0:0,0:0:0:0:
122,16,46620,2,0,P|167:17|215:100,1,135,6|0,1:2|0:0,0:0:0:0:
202,162,46950,1,6,1:2:0:0:
202,162,47609,6,0,P|117:113|20:149,1,188.999994232178,6|0,1:1|0:0,0:0:0:0:
214,180,47939,2,0,P|267:159|321:147,1,107.999996704102,8|0,0:0|1:0,0:0:0:0:
512,253,48268,1,8,0:0:0:0:
425,142,48433,1,0,1:0:0:0:
426,350,48598,1,10,0:0:0:0:
512,253,48763,1,0,1:0:0:0:
333,84,48928,6,0,L|306:256,1,161.999995056153,10|0,1:2|0:0,0:0:0:0:
307,244,49257,2,0,P|285:179|249:149,1,107.999996704102,10|0,0:2|1:0,0:0:0:0:
69,277,49587,1,10,1:2:0:0:
168,192,49752,1,0,1:0:0:0:
0,54,49917,1,10,0:2:0:0:
62,168,50082,1,0,1:0:0:0:
296,22,50246,6,0,L|499:58,1,188.999994232178,14|0,1:2|0:0,0:0:0:0:
284,31,50576,2,0,L|159:62,1,107.999996704102,8|0,0:2|1:0,0:0:0:0:
60,265,50906,1,8,1:2:0:0:
175,203,51071,1,0,1:0:0:0:
52,96,51235,1,10,0:0:0:0:
175,203,51400,1,2,1:2:0:0:
0,384,51565,6,0,P|66:343|169:384,1,161.999995056153,10|0,1:2|0:0,0:0:0:0:
144,360,51895,1,10,0:0:0:0:
60,265,52060,1,2,1:2:0:0:
154,96,52225,2,0,L|177:218,1,107.999996704102,10|0,1:2|1:0,0:0:0:0:
356,357,52554,2,0,L|372:238,1,107.999996704102,10|0,1:2|1:0,0:0:0:0:
299,21,52884,6,0,L|124:58,1,161.999995056153,14|0,1:2|0:0,0:0:0:0:
311,30,53214,2,0,L|436:61,1,107.999996704102,8|0,0:2|1:0,0:0:0:0:
512,234,53543,2,0,P|474:189|400:203,1,107.999996704102,8|0,1:2|1:0,0:0:0:0:
300,384,53873,1,10,0:2:0:0:
414,284,54038,1,2,1:2:0:0:
214,156,54203,6,0,L|98:182,1,107.999996704102,10|0,1:2|1:0,0:0:0:0:
304,42,54532,2,0,L|420:68,1,107.999996704102,10|0,0:0|1:0,0:0:0:0:
310,283,54862,2,0,L|194:257,1,107.999996704102,10|0,1:2|1:0,0:0:0:0:
79,55,55192,2,0,L|195:29,1,107.999996704102,10|0,0:0|1:0,0:0:0:0:
342,202,55521,6,0,B|404:214|436:161|362:146|342:202,1,135,2|0,1:3|0:0,0:0:0:0:
301,303,55851,2,0,B|300:378|345:395|375:331|301:303,1,161.999995056153,2|0,1:3|0:0,0:0:0:0:
181,183,56180,2,0,B|196:113|111:58|99:173|181:183,1,188.999994232178,2|0,1:3|0:0,0:0:0:0:
108,303,56510,2,0,B|21:276|-49:383|88:380|111:299,1,216,2|0,1:3|1:0,0:0:0:0:
112,307,56840,5,10,0:0:0:0:
181,183,57005,1,0,1:0:0:0:
35,39,57169,1,10,0:2:0:0:
35,39,57499,5,10,0:0:0:0:
46,57,57582,1,8,0:0:0:0:
57,87,57664,1,8,0:0:0:0:
62,129,57746,1,8,0:0:0:0:
48,181,57829,1,8,0:0:0:0:
14,236,57911,1,8,0:0:0:0:
12,308,57994,1,8,0:0:0:0:
69,361,58076,1,8,0:0:0:0:
149,349,58158,6,0,P|243:284|344:306,1,188.999994232178,6|0,1:2|0:0,0:0:0:0:
138,360,58488,2,0,L|14:328,1,107.999996704102,8|0,0:0|0:0,0:0:0:0:
189,181,58818,1,0,1:0:0:0:
75,112,58983,1,0,0:0:0:0:
264,10,59148,2,0,L|248:128,1,107.999996704102,10|0,0:0|0:0,0:0:0:0:
410,263,59477,6,0,L|374:96,1,161.999995056153,2|0,1:2|0:0,0:0:0:0:
375,104,59807,2,0,P|398:159|443:194,1,107.999996704102,10|0,0:0|0:0,0:0:0:0:
512,384,60137,2,0,P|464:351|405:360,1,107.999996704102,2|0,1:2|0:0,0:0:0:0:
202,382,60466,1,10,0:0:0:0:
309,290,60631,1,2,0:0:0:0:
136,159,60796,6,0,B|194:138|194:138|237:153|237:153|289:134,1,161.999995056153,2|0,1:2|0:0,0:0:0:0:
132,173,61126,2,0,P|73:176|22:217,1,107.999996704102,8|0,0:0|0:0,0:0:0:0:
0,384,61455,2,0,P|50:347|96:362,1,107.999996704102,2|0,1:2|0:0,0:0:0:0:
325,384,61785,2,0,L|307:268,1,107.999996704102,10|0,0:0|0:0,0:0:0:0:
353,39,62115,6,0,B|396:56|396:56|405:136|405:136|447:161,1,161.999995056153,2|0,1:2|0:0,0:0:0:0:
435,153,62444,2,0,L|399:264,1,107.999996704102,10|0,0:0|0:0,0:0:0:0:
325,384,62774,1,4,0:3:0:0:
308,277,62939,1,8,0:3:0:0:
308,277,63021,1,8,0:3:0:0:
308,277,63104,1,8,0:0:0:0:
470,384,63268,1,12,0:0:0:0:
352,139,63433,6,0,B|292:126|273:150|255:180|184:159,1,161.999995056153,6|0,1:2|0:0,0:0:0:0:
357,152,63763,2,0,P|413:185|471:175,1,107.999996704102,8|0,0:0|0:0,0:0:0:0:
500,12,64093,2,0,L|388:43,1,107.999996704102,2|0,1:2|0:0,0:0:0:0:
259,171,64422,2,0,L|144:150,1,107.999996704102,8|0,0:0|0:0,0:0:0:0:
45,0,64752,6,0,P|64:54|23:151,1,161.999995056153,2|0,1:2|0:0,0:0:0:0:
27,147,65082,2,0,L|49:264,1,107.999996704102,10|0,0:0|0:0,0:0:0:0:
219,383,65411,2,0,L|241:266,1,107.999996704102,2|0,1:2|0:0,0:0:0:0:
340,84,65741,5,4,0:3:0:0:
160,203,65906,1,0,1:0:0:0:
150,178,65988,1,0,1:0:0:0:
140,153,66058,1,4,1:3:0:0:
204,59,66222,1,4,0:3:0:0:
66,234,66387,6,0,L|98:345,1,107.999996704102,14|0,0:0|0:0,0:0:0:0:
277,384,66717,1,4,0:3:0:0:
191,302,66882,1,2,1:2:0:0:
0,384,67047,1,14,0:0:0:0:
191,302,67211,1,0,1:0:0:0:
191,302,67294,1,0,1:0:0:0:
191,302,67376,6,0,L|159:189,1,107.999996704102,14|0,0:0|0:0,0:0:0:0:
11,40,67709,2,0,P|48:69|110:63,1,107.999996704102,8|0,0:0|1:0,0:0:0:0:
106,65,67958,1,8,0:3:0:0:
106,65,68041,1,10,0:0:0:0:
0,157,68208,1,8,0:3:0:0:
83,251,68376,2,0,L|67:344,1,80.9999975280763,4|0,0:3|0:3,0:3:0:0:
69,330,68709,6,0,P|115:366|196:320,1,144,6|0,1:2|0:0,0:0:0:0:
231,262,69202,1,0,1:0:0:0:
231,262,69368,2,0,L|213:178,1,72,0|2,1:0|0:0,0:0:0:0:
157,133,69697,1,10,0:0:0:0:
157,133,69862,1,2,0:0:0:0:
210,48,70027,6,0,L|377:73,1,144,2|0,1:2|0:0,0:0:0:0:
464,29,70521,1,0,1:0:0:0:
464,29,70686,1,0,1:0:0:0:
422,143,70851,1,8,0:0:0:0:
500,195,71016,2,0,L|483:289,1,72,8|0,0:3|0:0,0:0:0:0:
512,380,71346,6,0,P|483:356|442:353,1,72,2|0,1:2|0:0,0:0:0:0:
359,384,71675,2,0,L|261:361,1,72,2|0,0:0|1:0,0:0:0:0:
187,280,72005,2,0,P|232:292|295:230,1,144,2|8,1:2|0:0,0:0:0:0:
195,68,72664,5,0,1:0:0:0:
247,139,72829,1,0,1:0:0:0:
113,221,72994,2,0,L|135:141,1,72,12|0,0:0|1:0,0:0:0:0:
28,43,73323,1,8,1:2:0:0:
28,43,73406,1,0,1:0:0:0:
28,43,73488,6,0,L|42:109,1,36,0|0,1:0|1:0,0:0:0:0:
128,137,73653,2,0,L|144:86,1,36,8|8,0:3|0:3,0:0:0:0:
221,16,73818,2,0,L|235:75,1,36,4|4,0:3|0:3,0:0:0:0:
342,189,73983,6,0,P|343:134|421:78,1,135,2|0,1:3|0:0,0:0:0:0:
494,48,74313,2,0,L|458:232,1,161.999995056153,6|0,1:2|0:0,0:0:0:0:
510,312,74643,2,0,P|425:288|359:364,1,188.999994232178,2|0,1:3|0:0,0:0:0:0:
278,384,74972,2,0,L|38:334,1,216,6|0,1:2|0:0,0:0:0:0:
0,265,75302,1,14,1:2:0:0:
16,270,75961,5,0,1:0:0:0:
48,263,76043,1,0,1:0:0:0:
73,241,76125,1,0,1:0:0:0:
81,208,76208,1,8,0:0:0:0:
71,177,76290,1,8,0:0:0:0:
222,10,76455,1,8,0:2:0:0:
268,37,76537,1,8,0:2:0:0:
315,60,76621,6,0,L|467:31,1,148.50000453186,6|0,1:2|0:0,0:0:0:0:
307,80,76950,2,0,P|251:73|194:103,1,99.0000030212403,8|0,0:0|0:0,0:0:0:0:
160,299,77279,1,10,1:2:0:0:
286,228,77444,1,0,1:0:0:0:
94,123,77609,1,10,0:0:0:0:
183,211,77774,1,0,1:0:0:0:
388,138,77939,6,0,L|425:299,1,148.50000453186,2|0,1:2|0:0,0:0:0:0:
421,282,78269,2,0,P|364:273|325:333,1,99.0000030212403,10|0,0:2|0:0,0:0:0:0:
497,384,78598,1,10,1:2:0:0:
512,270,78763,1,0,1:0:0:0:
307,194,78928,1,10,0:0:0:0:
334,296,79093,1,0,1:0:0:0:
470,145,79257,6,0,L|501:-2,1,148.50000453186,14|0,1:2|0:0,0:0:0:0:
452,152,79587,2,0,L|473:263,1,99.0000030212403,10|0,0:0|0:0,0:0:0:0:
301,382,79917,1,10,1:2:0:0:
186,339,80082,1,0,1:0:0:0:
320,167,80246,1,10,0:0:0:0:
254,251,80411,1,0,1:0:0:0:
46,102,80576,6,0,P|104:62|184:83,1,148.50000453186,10|0,1:2|0:0,0:0:0:0:
176,77,80906,1,10,0:0:0:0:
124,178,81071,2,0,L|157:291,1,99.0000030212403,2|10,1:0|1:2,0:0:0:0:
59,384,81400,1,2,1:2:0:0:
151,273,81565,1,8,0:0:0:0:
252,374,81730,1,2,1:2:0:0:
252,374,81812,1,0,1:0:0:0:
252,374,81895,6,0,L|437:344,1,148.50000453186,14|0,1:2|0:0,0:0:0:0:
243,384,82225,2,0,L|139:363,1,99.0000030212403,8|0,0:0|0:0,0:0:0:0:
34,211,82554,1,10,1:2:0:0:
86,290,82719,1,0,1:0:0:0:
153,114,82884,1,8,0:0:0:0:
38,0,83049,1,0,1:0:0:0:
38,0,83131,1,0,1:0:0:0:
38,0,83214,6,0,L|62:99,1,99.0000030212403,4|0,1:3|0:0,0:0:0:0:
240,234,83543,1,12,0:0:0:0:
153,114,83708,1,10,0:0:0:0:
300,9,83873,1,8,0:0:0:0:
292,42,83955,1,0,1:0:0:0:
284,76,84037,1,0,1:0:0:0:
276,110,84120,1,0,1:0:0:0:
269,144,84202,1,4,0:3:0:0:
437,359,84533,6,0,P|405:310|427:258,1,107.999996704102,6|0,1:2|0:0,0:0:0:0:
488,217,85027,1,2,0:0:0:0:
488,217,85109,1,2,0:0:0:0:
488,217,85192,2,0,L|461:101,1,107.999996704102,2|0,0:2|0:0,0:0:0:0:
251,2,85851,6,0,L|233:75,1,53.9999983520508,4|2,1:2|0:0,0:0:0:0:
186,131,86180,1,2,0:0:0:0:
186,131,86345,1,2,0:0:0:0:
120,52,86510,5,4,0:3:0:0:
234,221,86675,1,4,0:3:0:0:
324,72,86840,1,4,0:3:0:0:
30,202,87005,1,12,0:0:0:0:
